999
DXF file: C:\Users\wilhelo\AppData\Local\Temp\1u-wfatq\bsm012.dxf
999
Pro/ENGINEER 2022024 by Parametric Technology Corporation
  0
SECTION
  2
HEADER
  9
$EXTMAX
 10
297.0
 20
210.0
 30
0.0
  9
$EXTMIN
 10
0.0
 20
0.0
 30
0.0
  9
$LIMMIN
 10
0.0
 20
0.0
  9
$LIMMAX
 10
297.0
 20
210.0
  9
$VIEWCTR
 10
148.5
 20
105.0
  9
$VIEWSIZE
 40
210.0
  9
$CLAYER
  8
0
  9
$LTSCALE
 40
16.335
  9
$CELTYPE
  6
BYLAYER
  9
$DIMSCALE
 40
1.0
  9
$DIMASZ
 40
3.5
  9
$DIMEXO
 40
0.0
  9
$DIMDLI
 40
11.286
  9
$DIMEXE
 40
1.5
  9
$DIMCEN
 40
2.673
  9
$DIMLFAC
 40
1.0
  9
$DIMBLK
  1
_FILLED
  9
$DIMALT
 70
0
  9
$DIMALTF
 40
0.0393700787
  9
$DIMTXT
 40
3.0
  9
$AUNITS
 70
0
  9
$PDMODE
 70
3
  9
$PDSIZE
 40
0.3125
  9
$TILEMODE
 70
1
  0
ENDSEC
  0
SECTION
  2
TABLES
  0
TABLE
  2
LTYPE
 70
6
  0
LTYPE
  2
BYBLOCK
 70
0
  3

 72
65
 73
0
 40
0.0
  0
LTYPE
  2
BYLAYER
 70
0
  3

 72
65
 73
0
 40
0.0
  0
LTYPE
  2
CONTINUOUS
 70
64
  3
Solid line
 72
65
 73
0
 40
0.0
  0
LTYPE
  2
CENTER
 70
64
  3
____ _ ____ _ ____ _ ____ _ ____ _ ____ _ ____
 72
65
 73
4
 40
0.6
 49
0.375
 49
-0.075
 49
0.075
 49
-0.075
  0
LTYPE
  2
HIDDEN
 70
64
  3
- - - - - - - - - - - - - - - - - - - -
 72
65
 73
2
 40
0.2
 49
0.1
 49
-0.1
  0
LTYPE
  2
PHANTOM
 70
64
  3
_____ _ _ _____ _ _ _____ _ _ _____
 72
65
 73
6
 40
0.8
 49
0.45
 49
-0.05
 49
0.1
 49
-0.05
 49
0.1
 49
-0.05
  0
LTYPE
  2
DOT
 70
64
  3
. . . . . . . . . . . . . . . . . . . .
 72
65
 73
2
 40
0.2
 49
0.1
 49
-0.1
  0
LTYPE
  2
DASHED
 70
64
  3
- - - - - - - - - - - - - - - - - - - -
 72
65
 73
2
 40
0.2
 49
0.1
 49
-0.1
  0
ENDTAB
  0
TABLE
  2
LAYER
 70
36
  0
LAYER
  2
0
 70
0
 62
7
  6
CONTINUOUS
  0
LAYER
  2
DEFAULT_1
 70
0
 62
7
  6
CENTER
  0
LAYER
  2
DEFAULT_2
 70
0
 62
8
  6
HIDDEN
  0
LAYER
  2
DEFAULT_3
 70
0
 62
7
  6
PHANTOM
  0
LAYER
  2
AUSFORMSCHRAEGEN
 70
0
 62
7
  6
CONTINUOUS
  0
LAYER
  2
BEZUGSACHSEN
 70
0
 62
7
  6
CONTINUOUS
  0
LAYER
  2
BEZUGSEBENEN
 70
0
 62
7
  6
CONTINUOUS
  0
LAYER
  2
BEZUGSPUNKTE
 70
0
 62
7
  6
CONTINUOUS
  0
LAYER
  2
FASEN
 70
0
 62
7
  6
CONTINUOUS
  0
LAYER
  2
FLAECHEN
 70
0
 62
7
  6
CONTINUOUS
  0
LAYER
  2
KONSTRUKTIONSELEMENTE
 70
0
 62
7
  6
CONTINUOUS
  0
LAYER
  2
KOORDINATENSYSTEME
 70
0
 62
7
  6
CONTINUOUS
  0
LAYER
  2
KOPIEGEOMETRIE
 70
0
 62
7
  6
CONTINUOUS
  0
LAYER
  2
RUNDUNGEN
 70
0
 62
7
  6
CONTINUOUS
  0
LAYER
  2
SURFACES
 70
0
 62
7
  6
CONTINUOUS
  0
LAYER
  2
VOLUMEN
 70
0
 62
7
  6
CONTINUOUS
  0
ENDTAB
  0
TABLE
  2
STYLE
 70
1
  0
STYLE
  2
STANDARD
 70
0
 40
0.0
 41
0.8
 50
0.0
 71
0
 42
0.2
  3
txt
  4

  0
STYLE
  2
TEXTSTYLE_1
 70
0
 40
0.0
 41
0.8
 50
0.0
 71
0
 42
0.2
  3
gdt
  4

  0
ENDTAB
  0
ENDSEC
  0
SECTION
  2
BLOCKS
  0
BLOCK
  8
0
  2
_FILLED
 70
64
 10
0.0
 20
0.0
  0
SOLID
  8
0
  6
BYBLOCK
 62
0
 10
0.0
 20
0.0
 11
-1.0
 21
0.125
 12
-1.0
 22
-0.125
 13
-1.0
 23
-0.125
  0
ENDBLK
  8
0
  6
BYBLOCK
 62
0
  0
BLOCK
  8
0
 62
2
  6
CONTINUOUS
  2
*D0
 70
65
 10
0.0
 20
0.0
  0
TEXT
  8
0
 62
2
  6
CONTINUOUS
 10
211.2382250269
 20
167.7809834855
  7
STANDARD
 40
3.0
  1
77
 41
0.8
 72
1
 11
213.6382250269
 21
167.7809834855
  0
LINE
  8
0
 62
2
  6
CONTINUOUS
 10
175.1382250269
 20
159.3178537863
 11
175.1382250269
 21
168.5309834855
  0
LINE
  8
0
 62
2
  6
CONTINUOUS
 10
252.1382250269
 20
159.3178537863
 11
252.1382250269
 21
168.5309834855
  0
LINE
  8
0
 62
2
  6
CONTINUOUS
 10
175.1382250269
 20
167.0309834855
 11
213.6382250269
 21
167.0309834855
  0
LINE
  8
0
 62
2
  6
CONTINUOUS
 10
252.1382250269
 20
167.0309834855
 11
213.6382250269
 21
167.0309834855
  0
INSERT
  8
0
 62
2
  6
CONTINUOUS
  2
_FILLED
 10
175.1382250269
 20
167.0309834855
 41
3.5
 42
3.5
 43
3.5
 50
180.0
  0
INSERT
  8
0
 62
2
  6
CONTINUOUS
  2
_FILLED
 10
252.1382250269
 20
167.0309834855
 41
3.5
 42
3.5
 43
3.5
  0
ENDBLK
  8
0
  6
BYBLOCK
 62
0
  0
BLOCK
  8
0
 62
2
  6
CONTINUOUS
  2
*D1
 70
65
 10
0.0
 20
0.0
  0
TEXT
  8
0
 62
2
  6
CONTINUOUS
 10
199.9382250269
 20
119.7686419173
  7
STANDARD
 40
3.0
  1
14.8
 41
0.8
 72
1
 11
204.7382250269
 21
119.7686419173
  0
LINE
  8
0
 62
2
  6
CONTINUOUS
 10
212.1382250269
 20
136.0178537863
 11
212.1382250269
 21
117.5186419173
  0
LINE
  8
0
 62
2
  6
CONTINUOUS
 10
197.3382250269
 20
136.0178537863
 11
197.3382250269
 21
117.5186419173
  0
LINE
  8
0
 62
2
  6
CONTINUOUS
 10
212.1382250269
 20
119.0186419173
 11
218.1382250269
 21
119.0186419173
  0
LINE
  8
0
 62
2
  6
CONTINUOUS
 10
218.1382250269
 20
119.0186419173
 11
204.7382250269
 21
119.0186419173
  0
LINE
  8
0
 62
2
  6
CONTINUOUS
 10
197.3382250269
 20
119.0186419173
 11
191.3382250269
 21
119.0186419173
  0
LINE
  8
0
 62
2
  6
CONTINUOUS
 10
191.3382250269
 20
119.0186419173
 11
204.7382250269
 21
119.0186419173
  0
INSERT
  8
0
 62
2
  6
CONTINUOUS
  2
_FILLED
 10
212.1382250269
 20
119.0186419173
 41
3.5
 42
3.5
 43
3.5
 50
180.0
  0
INSERT
  8
0
 62
2
  6
CONTINUOUS
  2
_FILLED
 10
197.3382250269
 20
119.0186419173
 41
3.5
 42
3.5
 43
3.5
  0
ENDBLK
  8
0
  6
BYBLOCK
 62
0
  0
BLOCK
  8
0
 62
2
  6
CONTINUOUS
  2
*D2
 70
65
 10
0.0
 20
0.0
  0
TEXT
  8
0
 62
2
  6
CONTINUOUS
 10
168.4118635875
 20
140.8678537863
  7
STANDARD
 40
3.0
  1
19.3
 50
90.0
 41
0.8
 72
1
 11
168.4118635875
 21
145.6678537863
  0
LINE
  8
0
 62
2
  6
CONTINUOUS
 10
197.3382250269
 20
136.0178537863
 11
167.6618635875
 21
136.0178537863
  0
LINE
  8
0
 62
2
  6
CONTINUOUS
 10
197.3382250269
 20
155.3178537863
 11
167.6618635875
 21
155.3178537863
  0
LINE
  8
0
 62
2
  6
CONTINUOUS
 10
169.1618635875
 20
136.0178537863
 11
169.1618635875
 21
130.0178537863
  0
LINE
  8
0
 62
2
  6
CONTINUOUS
 10
169.1618635875
 20
130.0178537863
 11
169.1618635875
 21
145.6678537863
  0
LINE
  8
0
 62
2
  6
CONTINUOUS
 10
169.1618635875
 20
155.3178537863
 11
169.1618635875
 21
161.3178537863
  0
LINE
  8
0
 62
2
  6
CONTINUOUS
 10
169.1618635875
 20
161.3178537863
 11
169.1618635875
 21
145.6678537863
  0
INSERT
  8
0
 62
2
  6
CONTINUOUS
  2
_FILLED
 10
169.1618635875
 20
136.0178537863
 41
3.5
 42
3.5
 43
3.5
 50
90.0
  0
INSERT
  8
0
 62
2
  6
CONTINUOUS
  2
_FILLED
 10
169.1618635875
 20
155.3178537863
 41
3.5
 42
3.5
 43
3.5
 50
270.0
  0
ENDBLK
  8
0
  6
BYBLOCK
 62
0
  0
BLOCK
  8
0
 62
2
  6
CONTINUOUS
  2
*D3
 70
65
 10
0.0
 20
0.0
  0
TEXT
  8
0
 62
2
  6
CONTINUOUS
 10
257.8983557463
 20
140.4169397291
  7
STANDARD
 40
3.0
  1
35
 50
90.0
 41
0.8
 72
1
 11
257.8983557463
 21
142.8169397291
  0
LINE
  8
0
 62
2
  6
CONTINUOUS
 10
247.3382250269
 20
160.3178537863
 11
260.1483557463
 21
160.3178537863
  0
LINE
  8
0
 62
2
  6
CONTINUOUS
 10
213.6394689356
 20
125.316025672
 11
260.1483557463
 21
125.316025672
  0
LINE
  8
0
 62
2
  6
CONTINUOUS
 10
258.6483557463
 20
160.3178537863
 11
258.6483557463
 21
142.8169397291
  0
LINE
  8
0
 62
2
  6
CONTINUOUS
 10
258.6483557463
 20
125.316025672
 11
258.6483557463
 21
142.8169397291
  0
INSERT
  8
0
 62
2
  6
CONTINUOUS
  2
_FILLED
 10
258.6483557463
 20
160.3178537863
 41
3.5
 42
3.5
 43
3.5
 50
90.0
  0
INSERT
  8
0
 62
2
  6
CONTINUOUS
  2
_FILLED
 10
258.6483557463
 20
125.316025672
 41
3.5
 42
3.5
 43
3.5
 50
270.0
  0
ENDBLK
  8
0
  6
BYBLOCK
 62
0
  0
BLOCK
  8
0
 62
2
  6
CONTINUOUS
  2
*D4
 70
65
 10
0.0
 20
0.0
  0
TEXT
  8
0
 62
2
  6
CONTINUOUS
 10
258.2980397512
 20
77.0388865255
  7
STANDARD
 40
3.0
  1
1.5
 50
90.0
 41
0.8
 72
0
  0
LINE
  8
0
 62
2
  6
CONTINUOUS
 10
238.8382250269
 20
67.9321462137
 11
260.5480397512
 21
67.9321462137
  0
LINE
  8
0
 62
2
  6
CONTINUOUS
 10
238.8382250269
 20
66.4321462137
 11
260.5480397512
 21
66.4321462137
  0
LINE
  8
0
 62
2
  6
CONTINUOUS
 10
259.0480397512
 20
67.9321462137
 11
259.0480397512
 21
84.2388865255
  0
LINE
  8
0
 62
2
  6
CONTINUOUS
 10
259.0480397512
 20
84.2388865255
 11
259.0480397512
 21
67.1821462137
  0
LINE
  8
0
 62
2
  6
CONTINUOUS
 10
259.0480397512
 20
66.4321462137
 11
259.0480397512
 21
60.4321462137
  0
LINE
  8
0
 62
2
  6
CONTINUOUS
 10
259.0480397512
 20
60.4321462137
 11
259.0480397512
 21
67.1821462137
  0
INSERT
  8
0
 62
2
  6
CONTINUOUS
  2
_FILLED
 10
259.0480397512
 20
67.9321462137
 41
3.5
 42
3.5
 43
3.5
 50
270.0
  0
INSERT
  8
0
 62
2
  6
CONTINUOUS
  2
_FILLED
 10
259.0480397512
 20
66.4321462137
 41
3.5
 42
3.5
 43
3.5
 50
90.0
  0
ENDBLK
  8
0
  6
BYBLOCK
 62
0
  0
ENDSEC
  0
SECTION
  2
ENTITIES
  0
DIMENSION
  8
0
 62
2
  6
CONTINUOUS
  2
*D0
 10
252.1382250269
 20
167.0309834855
 11
213.6382234497
 21
167.0309834855
 70
128
 13
175.1382250269
 23
159.3178537863
 14
252.1382250269
 24
159.3178537863
  0
DIMENSION
  8
0
 62
2
  6
CONTINUOUS
  2
*D1
 10
197.3382250269
 20
119.0186419173
 11
205.113223114
 21
119.0186419173
 70
128
 13
212.1382250269
 23
136.0178537863
 14
197.3382250269
 24
136.0178537863
 50
180.0
  0
DIMENSION
  8
0
 62
2
  6
CONTINUOUS
  2
*D2
 10
169.1618635875
 20
155.3178537863
 11
169.1618635875
 21
146.0428554636
 70
128
 13
197.3382250269
 23
136.0178537863
 14
197.3382250269
 24
155.3178537863
 50
90.0
  0
DIMENSION
  8
0
 62
2
  6
CONTINUOUS
  2
*D3
 10
258.6483557463
 20
125.316025672
 11
258.6483557463
 21
142.8919345382
 70
128
 13
247.3382250269
 23
160.3178537863
 14
213.6394689356
 24
125.316025672
 50
270.0
  0
DIMENSION
  8
0
 62
2
  6
CONTINUOUS
  2
*D4
 10
259.0480397512
 20
66.4321462137
 11
259.0480397512
 21
81.0138897431
 70
128
 13
238.8382250269
 23
67.9321462137
 14
238.8382250269
 24
66.4321462137
 50
270.0
  0
LINE
  8
0
 62
7
  6
CONTINUOUS
 10
0.0
 20
0.0
 11
0.0
 21
210.0
  0
LINE
  8
0
 62
7
  6
CONTINUOUS
 10
0.0
 20
0.0
 11
297.0
 21
0.0
  0
LINE
  8
0
 62
7
  6
CONTINUOUS
 10
213.7957189356
 20
125.472275672
 11
213.4832189356
 21
125.159775672
  0
LINE
  8
0
 62
7
  6
CONTINUOUS
 10
213.7957189356
 20
125.159775672
 11
213.4832189356
 21
125.472275672
  0
LINE
  8
0
 62
7
  6
CONTINUOUS
 10
0.0
 20
210.0
 11
297.0
 21
210.0
  0
LINE
  8
0
 62
7
  6
CONTINUOUS
 10
297.0
 20
0.0
 11
297.0
 21
210.0
  0
LINE
  8
0
 62
7
  6
CONTINUOUS
 10
37.0354758273
 20
99.5528128368
 11
37.0354758273
 21
97.1033055854
  0
LINE
  8
0
 62
7
  6
CONTINUOUS
 10
38.096140415
 20
98.9404517051
 11
38.096140415
 21
96.4909444537
  0
LINE
  8
0
 62
7
  6
CONTINUOUS
 10
45.1600989169
 20
84.5441662465
 11
46.2207635046
 21
83.9318051147
  0
LINE
  8
0
 62
7
  6
CONTINUOUS
 10
37.0354758273
 20
97.1033055854
 11
45.1600989169
 21
84.5441662465
  0
LINE
  8
0
 62
7
  6
CONTINUOUS
 10
38.096140415
 20
96.4909444537
 11
46.2207635046
 21
83.9318051147
  0
LINE
  8
0
 62
7
  6
CONTINUOUS
 10
40.429574246
 20
102.3288871925
 11
40.429574246
 21
101.1041335669
  0
LINE
  8
0
 62
7
  6
CONTINUOUS
 10
52.9453121646
 20
83.1239092954
 11
54.0059767524
 21
82.5115481636
  0
POLYLINE
  8
0
 62
7
  6
CONTINUOUS
 66
1
 70
0
  0
VERTEX
  8
0
 62
7
  6
CONTINUOUS
 10
41.2781076825
 20
97.511540729
  0
VERTEX
  8
0
 62
7
  6
CONTINUOUS
 10
41.2791500254
 20
97.4678734279
  0
VERTEX
  8
0
 62
7
  6
CONTINUOUS
 10
41.2822527555
 20
97.4256544338
  0
VERTEX
  8
0
 62
7
  6
CONTINUOUS
 10
41.2874249492
 20
97.384825058
  0
VERTEX
  8
0
 62
7
  6
CONTINUOUS
 10
41.2946393773
 20
97.3455613664
  0
VERTEX
  8
0
 62
7
  6
CONTINUOUS
 10
41.3038838198
 20
97.3079856693
  0
VERTEX
  8
0
 62
7
  6
CONTINUOUS
 10
41.315122326
 20
97.2722005446
  0
VERTEX
  8
0
 62
7
  6
CONTINUOUS
 10
41.3283306347
 20
97.2383190669
  0
VERTEX
  8
0
 62
7
  6
CONTINUOUS
 10
41.3434614579
 20
97.2064320572
  0
VERTEX
  8
0
 62
7
  6
CONTINUOUS
 10
41.3604787775
 20
97.1766420282
  0
VERTEX
  8
0
 62
7
  6
CONTINUOUS
 10
41.3793245225
 20
97.1490269794
  0
VERTEX
  8
0
 62
7
  6
CONTINUOUS
 10
41.3999513404
 20
97.12367766
  0
VERTEX
  8
0
 62
7
  6
CONTINUOUS
 10
41.4222910582
 20
97.1006583333
  0
VERTEX
  8
0
 62
7
  6
CONTINUOUS
 10
41.4462855439
 20
97.0800469211
  0
VERTEX
  8
0
 62
7
  6
CONTINUOUS
 10
41.4718573216
 20
97.0618931971
  0
VERTEX
  8
0
 62
7
  6
CONTINUOUS
 10
41.4852299388
 20
97.0537488452
  0
SEQEND
  0
POLYLINE
  8
0
 62
7
  6
CONTINUOUS
 66
1
 70
0
  0
VERTEX
  8
0
 62
7
  6
CONTINUOUS
 10
42.6923153569
 20
98.3280290367
  0
VERTEX
  8
0
 62
7
  6
CONTINUOUS
 10
42.691273014
 20
98.3716963377
  0
VERTEX
  8
0
 62
7
  6
CONTINUOUS
 10
42.6881702839
 20
98.4139153319
  0
VERTEX
  8
0
 62
7
  6
CONTINUOUS
 10
42.6829980903
 20
98.4547447077
  0
VERTEX
  8
0
 62
7
  6
CONTINUOUS
 10
42.6757836622
 20
98.4940083993
  0
VERTEX
  8
0
 62
7
  6
CONTINUOUS
 10
42.6665392197
 20
98.5315840964
  0
VERTEX
  8
0
 62
7
  6
CONTINUOUS
 10
42.6553007134
 20
98.567369221
  0
VERTEX
  8
0
 62
7
  6
CONTINUOUS
 10
42.6420924047
 20
98.6012506987
  0
VERTEX
  8
0
 62
7
  6
CONTINUOUS
 10
42.6269615815
 20
98.6331377085
  0
VERTEX
  8
0
 62
7
  6
CONTINUOUS
 10
42.609944262
 20
98.6629277374
  0
VERTEX
  8
0
 62
7
  6
CONTINUOUS
 10
42.5910985169
 20
98.6905427862
  0
VERTEX
  8
0
 62
7
  6
CONTINUOUS
 10
42.570471699
 20
98.7158921056
  0
VERTEX
  8
0
 62
7
  6
CONTINUOUS
 10
42.5481319813
 20
98.7389114323
  0
VERTEX
  8
0
 62
7
  6
CONTINUOUS
 10
42.5241374956
 20
98.7595228445
  0
VERTEX
  8
0
 62
7
  6
CONTINUOUS
 10
42.4985657179
 20
98.7776765686
  0
VERTEX
  8
0
 62
7
  6
CONTINUOUS
 10
42.4851931006
 20
98.7858209205
  0
SEQEND
  0
LINE
  8
0
 62
7
  6
CONTINUOUS
 10
40.7831349965
 20
100.0835282812
 11
40.7831349965
 21
100.4917794898
  0
LINE
  8
0
 62
7
  6
CONTINUOUS
 10
41.4902388337
 20
101.7165260608
 11
41.4902388337
 21
100.4917724351
  0
LINE
  8
0
 62
7
  6
CONTINUOUS
 10
37.0354758273
 20
97.1033055854
 11
38.096140415
 21
96.4909444537
  0
POLYLINE
  8
0
 62
7
  6
CONTINUOUS
 66
1
 70
0
  0
VERTEX
  8
0
 62
7
  6
CONTINUOUS
 10
54.0059767524
 20
82.5115481636
  0
VERTEX
  8
0
 62
7
  6
CONTINUOUS
 10
54.6499377891
 20
82.6400964392
  0
VERTEX
  8
0
 62
7
  6
CONTINUOUS
 10
55.2975777444
 20
82.7851401896
  0
VERTEX
  8
0
 62
7
  6
CONTINUOUS
 10
55.9490164996
 20
82.9467105777
  0
VERTEX
  8
0
 62
7
  6
CONTINUOUS
 10
56.6038944107
 20
83.1247141149
  0
VERTEX
  8
0
 62
7
  6
CONTINUOUS
 10
57.2619728895
 20
83.3190944848
  0
VERTEX
  8
0
 62
7
  6
CONTINUOUS
 10
57.9230086498
 20
83.5297713335
  0
VERTEX
  8
0
 62
7
  6
CONTINUOUS
 10
58.5867605768
 20
83.7566762711
  0
VERTEX
  8
0
 62
7
  6
CONTINUOUS
 10
59.2529835688
 20
83.9997170885
  0
VERTEX
  8
0
 62
7
  6
CONTINUOUS
 10
59.9214343384
 20
84.2588134228
  0
VERTEX
  8
0
 62
7
  6
CONTINUOUS
 10
60.5918663281
 20
84.5338613452
  0
VERTEX
  8
0
 62
7
  6
CONTINUOUS
 10
61.2640344351
 20
84.8247686378
  0
VERTEX
  8
0
 62
7
  6
CONTINUOUS
 10
61.9376910082
 20
85.1314198046
  0
VERTEX
  8
0
 62
7
  6
CONTINUOUS
 10
62.6125894893
 20
85.4537109081
  0
VERTEX
  8
0
 62
7
  6
CONTINUOUS
 10
63.2884814969
 20
85.7915150547
  0
VERTEX
  8
0
 62
7
  6
CONTINUOUS
 10
63.9651193794
 20
86.1447167399
  0
VERTEX
  8
0
 62
7
  6
CONTINUOUS
 10
64.6422543903
 20
86.5131778589
  0
VERTEX
  8
0
 62
7
  6
CONTINUOUS
 10
65.3196381478
 20
86.8967715099
  0
VERTEX
  8
0
 62
7
  6
CONTINUOUS
 10
65.9970219053
 20
87.2953485795
  0
VERTEX
  8
0
 62
7
  6
CONTINUOUS
 10
66.6741569161
 20
87.7087709548
  0
VERTEX
  8
0
 62
7
  6
CONTINUOUS
 10
67.3507947986
 20
88.136878733
  0
VERTEX
  8
0
 62
7
  6
CONTINUOUS
 10
68.0266868063
 20
88.5795227929
  0
VERTEX
  8
0
 62
7
  6
CONTINUOUS
 10
68.7015852873
 20
89.036532677
  0
VERTEX
  8
0
 62
7
  6
CONTINUOUS
 10
69.3752418605
 20
89.5077484747
  0
VERTEX
  8
0
 62
7
  6
CONTINUOUS
 10
70.0474099675
 20
89.9929894242
  0
VERTEX
  8
0
 62
7
  6
CONTINUOUS
 10
70.7178419572
 20
90.4920850602
  0
VERTEX
  8
0
 62
7
  6
CONTINUOUS
 10
71.3862927268
 20
91.004844582
  0
VERTEX
  8
0
 62
7
  6
CONTINUOUS
 10
72.0525157188
 20
91.5310872202
  0
VERTEX
  8
0
 62
7
  6
CONTINUOUS
 10
72.7162676458
 20
92.0706124151
  0
VERTEX
  8
0
 62
7
  6
CONTINUOUS
 10
73.3773034061
 20
92.6232293585
  0
VERTEX
  8
0
 62
7
  6
CONTINUOUS
 10
74.0353818848
 20
93.1887280264
  0
VERTEX
  8
0
 62
7
  6
CONTINUOUS
 10
74.6902597959
 20
93.7669078519
  0
VERTEX
  8
0
 62
7
  6
CONTINUOUS
 10
75.3416985512
 20
94.3575496551
  0
VERTEX
  8
0
 62
7
  6
CONTINUOUS
 10
75.9893385065
 20
94.9603316458
  0
VERTEX
  8
0
 62
7
  6
CONTINUOUS
 10
76.6332995432
 20
95.5753610875
  0
SEQEND
  0
LINE
  8
0
 62
7
  6
CONTINUOUS
 10
46.2207635046
 20
83.9318051147
 11
54.0059767524
 21
84.6106755538
  0
POLYLINE
  8
0
 62
7
  6
CONTINUOUS
 66
1
 70
0
  0
VERTEX
  8
0
 62
7
  6
CONTINUOUS
 10
41.4852299388
 20
97.0537488452
  0
VERTEX
  8
0
 62
7
  6
CONTINUOUS
 10
41.4989381616
 20
97.046261342
  0
VERTEX
  8
0
 62
7
  6
CONTINUOUS
 10
41.5274421936
 20
97.0331860565
  0
VERTEX
  8
0
 62
7
  6
CONTINUOUS
 10
41.5572918899
 20
97.0227170278
  0
VERTEX
  8
0
 62
7
  6
CONTINUOUS
 10
41.5883939924
 20
97.0148734765
  0
VERTEX
  8
0
 62
7
  6
CONTINUOUS
 10
41.6206625846
 20
97.009690014
  0
VERTEX
  8
0
 62
7
  6
CONTINUOUS
 10
41.6539981139
 20
97.0071701554
  0
VERTEX
  8
0
 62
7
  6
CONTINUOUS
 10
41.6883072822
 20
97.0073330304
  0
VERTEX
  8
0
 62
7
  6
CONTINUOUS
 10
41.7234854098
 20
97.0101664076
  0
VERTEX
  8
0
 62
7
  6
CONTINUOUS
 10
41.7594329106
 20
97.0156737105
  0
VERTEX
  8
0
 62
7
  6
CONTINUOUS
 10
41.796041205
 20
97.0238271047
  0
VERTEX
  8
0
 62
7
  6
CONTINUOUS
 10
41.8332055867
 20
97.0346142675
  0
VERTEX
  8
0
 62
7
  6
CONTINUOUS
 10
41.8708148492
 20
97.0479920876
  0
VERTEX
  8
0
 62
7
  6
CONTINUOUS
 10
41.9087603935
 20
97.0639326406
  0
VERTEX
  8
0
 62
7
  6
CONTINUOUS
 10
41.9469296897
 20
97.0823780439
  0
VERTEX
  8
0
 62
7
  6
CONTINUOUS
 10
41.9852115197
 20
97.1032850987
  0
VERTEX
  8
0
 62
7
  6
CONTINUOUS
 10
42.0234933497
 20
97.1265818298
  0
VERTEX
  8
0
 62
7
  6
CONTINUOUS
 10
42.061662646
 20
97.1522102703
  0
VERTEX
  8
0
 62
7
  6
CONTINUOUS
 10
42.0996081903
 20
97.1800851962
  0
VERTEX
  8
0
 62
7
  6
CONTINUOUS
 10
42.1372174527
 20
97.2101345524
  0
VERTEX
  8
0
 62
7
  6
CONTINUOUS
 10
42.1743818345
 20
97.2422608651
  0
VERTEX
  8
0
 62
7
  6
CONTINUOUS
 10
42.2109901288
 20
97.2763788358
  0
VERTEX
  8
0
 62
7
  6
CONTINUOUS
 10
42.2469376297
 20
97.3123798837
  0
VERTEX
  8
0
 62
7
  6
CONTINUOUS
 10
42.2821157572
 20
97.3501664668
  0
VERTEX
  8
0
 62
7
  6
CONTINUOUS
 10
42.3164249255
 20
97.3896201705
  0
VERTEX
  8
0
 62
7
  6
CONTINUOUS
 10
42.3497604548
 20
97.4306323529
  0
VERTEX
  8
0
 62
7
  6
CONTINUOUS
 10
42.382029047
 20
97.4730761539
  0
VERTEX
  8
0
 62
7
  6
CONTINUOUS
 10
42.4131311495
 20
97.5168331053
  0
VERTEX
  8
0
 62
7
  6
CONTINUOUS
 10
42.4429808459
 20
97.5617693886
  0
VERTEX
  8
0
 62
7
  6
CONTINUOUS
 10
42.4714848778
 20
97.6077580988
  0
VERTEX
  8
0
 62
7
  6
CONTINUOUS
 10
42.4985657179
 20
97.6546600277
  0
VERTEX
  8
0
 62
7
  6
CONTINUOUS
 10
42.5241374956
 20
97.702341321
  0
VERTEX
  8
0
 62
7
  6
CONTINUOUS
 10
42.5481319813
 20
97.7506590134
  0
VERTEX
  8
0
 62
7
  6
CONTINUOUS
 10
42.570471699
 20
97.7994738702
  0
VERTEX
  8
0
 62
7
  6
CONTINUOUS
 10
42.5910985169
 20
97.8486408452
  0
VERTEX
  8
0
 62
7
  6
CONTINUOUS
 10
42.609944262
 20
97.898016956
  0
VERTEX
  8
0
 62
7
  6
CONTINUOUS
 10
42.6269615815
 20
97.9474567758
  0
VERTEX
  8
0
 62
7
  6
CONTINUOUS
 10
42.6420924047
 20
97.9968152509
  0
VERTEX
  8
0
 62
7
  6
CONTINUOUS
 10
42.6553007134
 20
98.0459482787
  0
VERTEX
  8
0
 62
7
  6
CONTINUOUS
 10
42.6665392197
 20
98.0947104351
  0
VERTEX
  8
0
 62
7
  6
CONTINUOUS
 10
42.6757836622
 20
98.1429606312
  0
VERTEX
  8
0
 62
7
  6
CONTINUOUS
 10
42.6829980903
 20
98.1905547771
  0
VERTEX
  8
0
 62
7
  6
CONTINUOUS
 10
42.6881702839
 20
98.2373564521
  0
VERTEX
  8
0
 62
7
  6
CONTINUOUS
 10
42.691273014
 20
98.2831581489
  0
VERTEX
  8
0
 62
7
  6
CONTINUOUS
 10
42.6923153569
 20
98.3280290367
  0
SEQEND
  0
LINE
  8
0
 62
7
  6
CONTINUOUS
 10
37.0354758273
 20
99.5528128368
 11
38.096140415
 21
98.9404517051
  0
LINE
  8
0
 62
7
  6
CONTINUOUS
 10
46.7935176128
 20
103.5536035891
 11
46.7935176128
 21
104.7783572148
  0
LINE
  8
0
 62
7
  6
CONTINUOUS
 10
47.50062145
 20
104.3700989515
 11
47.50062145
 21
103.961847743
  0
POLYLINE
  8
0
 62
7
  6
CONTINUOUS
 66
1
 70
0
  0
VERTEX
  8
0
 62
7
  6
CONTINUOUS
 10
42.4851931006
 20
98.7858209205
  0
VERTEX
  8
0
 62
7
  6
CONTINUOUS
 10
42.4714848778
 20
98.7933084236
  0
VERTEX
  8
0
 62
7
  6
CONTINUOUS
 10
42.4429808459
 20
98.8063837091
  0
VERTEX
  8
0
 62
7
  6
CONTINUOUS
 10
42.4131311495
 20
98.8168527379
  0
VERTEX
  8
0
 62
7
  6
CONTINUOUS
 10
42.382029047
 20
98.8246962891
  0
VERTEX
  8
0
 62
7
  6
CONTINUOUS
 10
42.3497604548
 20
98.8298797517
  0
VERTEX
  8
0
 62
7
  6
CONTINUOUS
 10
42.3164249255
 20
98.8323996102
  0
VERTEX
  8
0
 62
7
  6
CONTINUOUS
 10
42.2821157572
 20
98.8322367353
  0
VERTEX
  8
0
 62
7
  6
CONTINUOUS
 10
42.2469376297
 20
98.8294033581
  0
VERTEX
  8
0
 62
7
  6
CONTINUOUS
 10
42.2109901288
 20
98.8238960552
  0
VERTEX
  8
0
 62
7
  6
CONTINUOUS
 10
42.1743818345
 20
98.8157426609
  0
VERTEX
  8
0
 62
7
  6
CONTINUOUS
 10
42.1372174527
 20
98.8049554982
  0
VERTEX
  8
0
 62
7
  6
CONTINUOUS
 10
42.0996081903
 20
98.7915776781
  0
VERTEX
  8
0
 62
7
  6
CONTINUOUS
 10
42.061662646
 20
98.7756371251
  0
VERTEX
  8
0
 62
7
  6
CONTINUOUS
 10
42.0234933497
 20
98.7571917218
  0
VERTEX
  8
0
 62
7
  6
CONTINUOUS
 10
41.9852115197
 20
98.736284667
  0
VERTEX
  8
0
 62
7
  6
CONTINUOUS
 10
41.9469296897
 20
98.7129879359
  0
VERTEX
  8
0
 62
7
  6
CONTINUOUS
 10
41.9087603935
 20
98.6873594954
  0
VERTEX
  8
0
 62
7
  6
CONTINUOUS
 10
41.8708148492
 20
98.6594845695
  0
VERTEX
  8
0
 62
7
  6
CONTINUOUS
 10
41.8332055867
 20
98.6294352133
  0
VERTEX
  8
0
 62
7
  6
CONTINUOUS
 10
41.796041205
 20
98.5973089005
  0
VERTEX
  8
0
 62
7
  6
CONTINUOUS
 10
41.7594329106
 20
98.5631909299
  0
VERTEX
  8
0
 62
7
  6
CONTINUOUS
 10
41.7234854098
 20
98.527189882
  0
VERTEX
  8
0
 62
7
  6
CONTINUOUS
 10
41.6883072822
 20
98.4894032989
  0
VERTEX
  8
0
 62
7
  6
CONTINUOUS
 10
41.6539981139
 20
98.4499495951
  0
VERTEX
  8
0
 62
7
  6
CONTINUOUS
 10
41.6206625846
 20
98.4089374127
  0
VERTEX
  8
0
 62
7
  6
CONTINUOUS
 10
41.5883939924
 20
98.3664936118
  0
VERTEX
  8
0
 62
7
  6
CONTINUOUS
 10
41.5572918899
 20
98.3227366604
  0
VERTEX
  8
0
 62
7
  6
CONTINUOUS
 10
41.5274421936
 20
98.277800377
  0
VERTEX
  8
0
 62
7
  6
CONTINUOUS
 10
41.4989381616
 20
98.2318116669
  0
VERTEX
  8
0
 62
7
  6
CONTINUOUS
 10
41.4718573216
 20
98.1849097379
  0
VERTEX
  8
0
 62
7
  6
CONTINUOUS
 10
41.4462855439
 20
98.1372284447
  0
VERTEX
  8
0
 62
7
  6
CONTINUOUS
 10
41.4222910582
 20
98.0889107523
  0
VERTEX
  8
0
 62
7
  6
CONTINUOUS
 10
41.3999513404
 20
98.0400958955
  0
VERTEX
  8
0
 62
7
  6
CONTINUOUS
 10
41.3793245225
 20
97.9909289205
  0
VERTEX
  8
0
 62
7
  6
CONTINUOUS
 10
41.3604787775
 20
97.9415528096
  0
VERTEX
  8
0
 62
7
  6
CONTINUOUS
 10
41.3434614579
 20
97.8921129899
  0
VERTEX
  8
0
 62
7
  6
CONTINUOUS
 10
41.3283306347
 20
97.8427545148
  0
VERTEX
  8
0
 62
7
  6
CONTINUOUS
 10
41.315122326
 20
97.7936214869
  0
VERTEX
  8
0
 62
7
  6
CONTINUOUS
 10
41.3038838198
 20
97.7448593306
  0
VERTEX
  8
0
 62
7
  6
CONTINUOUS
 10
41.2946393773
 20
97.6966091345
  0
VERTEX
  8
0
 62
7
  6
CONTINUOUS
 10
41.2874249492
 20
97.6490149885
  0
VERTEX
  8
0
 62
7
  6
CONTINUOUS
 10
41.2822527555
 20
97.6022133136
  0
VERTEX
  8
0
 62
7
  6
CONTINUOUS
 10
41.2791500254
 20
97.5564116167
  0
VERTEX
  8
0
 62
7
  6
CONTINUOUS
 10
41.2781076825
 20
97.511540729
  0
SEQEND
  0
LINE
  8
0
 62
7
  6
CONTINUOUS
 10
39.7224704087
 20
101.1041406215
 11
40.7831349965
 21
100.4917794898
  0
LINE
  8
0
 62
7
  6
CONTINUOUS
 10
40.429574246
 20
101.1041335669
 11
41.4902388337
 21
100.4917724351
  0
LINE
  8
0
 62
7
  6
CONTINUOUS
 10
40.429574246
 20
102.3288871925
 11
41.4902388337
 21
101.7165260608
  0
POLYLINE
  8
0
 62
7
  6
CONTINUOUS
 66
1
 70
0
  0
VERTEX
  8
0
 62
7
  6
CONTINUOUS
 10
64.4196412783
 20
88.1140301308
  0
VERTEX
  8
0
 62
7
  6
CONTINUOUS
 10
64.3984807119
 20
88.1268401714
  0
VERTEX
  8
0
 62
7
  6
CONTINUOUS
 10
64.3577299846
 20
88.1550713731
  0
VERTEX
  8
0
 62
7
  6
CONTINUOUS
 10
64.3191619852
 20
88.1867467272
  0
VERTEX
  8
0
 62
7
  6
CONTINUOUS
 10
64.2828565413
 20
88.2217829347
  0
VERTEX
  8
0
 62
7
  6
CONTINUOUS
 10
64.2489037255
 20
88.2601119149
  0
VERTEX
  8
0
 62
7
  6
CONTINUOUS
 10
64.2173723527
 20
88.3016358348
  0
VERTEX
  8
0
 62
7
  6
CONTINUOUS
 10
64.1883422025
 20
88.346271328
  0
VERTEX
  8
0
 62
7
  6
CONTINUOUS
 10
64.1618704539
 20
88.3939069132
  0
VERTEX
  8
0
 62
7
  6
CONTINUOUS
 10
64.1380258708
 20
88.4444446936
  0
VERTEX
  8
0
 62
7
  6
CONTINUOUS
 10
64.1168534786
 20
88.4977605489
  0
VERTEX
  8
0
 62
7
  6
CONTINUOUS
 10
64.0984104028
 20
88.5537429383
  0
VERTEX
  8
0
 62
7
  6
CONTINUOUS
 10
64.0827291076
 20
88.6122562271
  0
VERTEX
  8
0
 62
7
  6
CONTINUOUS
 10
64.0698545625
 20
88.6731762405
  0
VERTEX
  8
0
 62
7
  6
CONTINUOUS
 10
64.0598063763
 20
88.7363570573
  0
VERTEX
  8
0
 62
7
  6
CONTINUOUS
 10
64.0526169558
 20
88.8016629935
  0
VERTEX
  8
0
 62
7
  6
CONTINUOUS
 10
64.0482928767
 20
88.8689391631
  0
VERTEX
  8
0
 62
7
  6
CONTINUOUS
 10
64.0468536892
 20
88.9380396016
  0
VERTEX
  8
0
 62
7
  6
CONTINUOUS
 10
64.0482928767
 20
89.0088018606
  0
VERTEX
  8
0
 62
7
  6
CONTINUOUS
 10
64.0526169558
 20
89.0810710169
  0
VERTEX
  8
0
 62
7
  6
CONTINUOUS
 10
64.0598063763
 20
89.1546785313
  0
VERTEX
  8
0
 62
7
  6
CONTINUOUS
 10
64.0698545625
 20
89.2294619248
  0
VERTEX
  8
0
 62
7
  6
CONTINUOUS
 10
64.0827291076
 20
89.3052480936
  0
VERTEX
  8
0
 62
7
  6
CONTINUOUS
 10
64.0984104028
 20
89.3818684744
  0
VERTEX
  8
0
 62
7
  6
CONTINUOUS
 10
64.1168534786
 20
89.4591469663
  0
VERTEX
  8
0
 62
7
  6
CONTINUOUS
 10
64.1380258708
 20
89.5369104483
  0
VERTEX
  8
0
 62
7
  6
CONTINUOUS
 10
64.1618704539
 20
89.6149814173
  0
VERTEX
  8
0
 62
7
  6
CONTINUOUS
 10
64.1883422025
 20
89.6931837623
  0
VERTEX
  8
0
 62
7
  6
CONTINUOUS
 10
64.2173723527
 20
89.7713401856
  0
VERTEX
  8
0
 62
7
  6
CONTINUOUS
 10
64.2489037255
 20
89.8492731812
  0
VERTEX
  8
0
 62
7
  6
CONTINUOUS
 10
64.2828565413
 20
89.9268072621
  0
VERTEX
  8
0
 62
7
  6
CONTINUOUS
 10
64.3191619852
 20
90.003765135
  0
VERTEX
  8
0
 62
7
  6
CONTINUOUS
 10
64.3577299846
 20
90.0799747129
  0
VERTEX
  8
0
 62
7
  6
CONTINUOUS
 10
64.3984807119
 20
90.1552605206
  0
VERTEX
  8
0
 62
7
  6
CONTINUOUS
 10
64.4413146172
 20
90.2294554297
  0
VERTEX
  8
0
 62
7
  6
CONTINUOUS
 10
64.4861415831
 20
90.3023873723
  0
VERTEX
  8
0
 62
7
  6
CONTINUOUS
 10
64.5328534837
 20
90.3738956922
  0
VERTEX
  8
0
 62
7
  6
CONTINUOUS
 10
64.5813507282
 20
90.4438132867
  0
VERTEX
  8
0
 62
7
  6
CONTINUOUS
 10
64.6315175939
 20
90.5119874268
  0
VERTEX
  8
0
 62
7
  6
CONTINUOUS
 10
64.6832459185
 20
90.5782574887
  0
VERTEX
  8
0
 62
7
  6
CONTINUOUS
 10
64.7364134305
 20
90.6424800534
  0
VERTEX
  8
0
 62
7
  6
CONTINUOUS
 10
64.7909043754
 20
90.7045024308
  0
VERTEX
  8
0
 62
7
  6
CONTINUOUS
 10
64.8465910404
 20
90.7641918107
  0
VERTEX
  8
0
 62
7
  6
CONTINUOUS
 10
64.9033511272
 20
90.8214048193
  0
VERTEX
  8
0
 62
7
  6
CONTINUOUS
 10
64.9610526382
 20
90.8760204581
  0
VERTEX
  8
0
 62
7
  6
CONTINUOUS
 10
65.0195678387
 20
90.927905968
  0
VERTEX
  8
0
 62
7
  6
CONTINUOUS
 10
65.0787616418
 20
90.9769532581
  0
VERTEX
  8
0
 62
7
  6
CONTINUOUS
 10
65.1385020334
 20
91.023041386
  0
VERTEX
  8
0
 62
7
  6
CONTINUOUS
 10
65.1986520604
 20
91.0660761475
  0
VERTEX
  8
0
 62
7
  6
CONTINUOUS
 10
65.2590081455
 20
91.1059062093
  0
VERTEX
  8
0
 62
7
  6
CONTINUOUS
 10
65.3196381478
 20
91.1425820158
  0
SEQEND
  0
POLYLINE
  8
0
 62
7
  6
CONTINUOUS
 66
1
 70
0
  0
VERTEX
  8
0
 62
7
  6
CONTINUOUS
 10
66.2196350172
 20
91.231725199
  0
VERTEX
  8
0
 62
7
  6
CONTINUOUS
 10
66.2407955836
 20
91.2189151585
  0
VERTEX
  8
0
 62
7
  6
CONTINUOUS
 10
66.281546311
 20
91.1906839567
  0
VERTEX
  8
0
 62
7
  6
CONTINUOUS
 10
66.3201143104
 20
91.1590086027
  0
VERTEX
  8
0
 62
7
  6
CONTINUOUS
 10
66.3564197543
 20
91.1239723952
  0
VERTEX
  8
0
 62
7
  6
CONTINUOUS
 10
66.3903725701
 20
91.085643415
  0
VERTEX
  8
0
 62
7
  6
CONTINUOUS
 10
66.4219039428
 20
91.0441194951
  0
VERTEX
  8
0
 62
7
  6
CONTINUOUS
 10
66.4509340931
 20
90.9994840019
  0
VERTEX
  8
0
 62
7
  6
CONTINUOUS
 10
66.4774058416
 20
90.9518484167
  0
VERTEX
  8
0
 62
7
  6
CONTINUOUS
 10
66.5012504248
 20
90.9013106363
  0
VERTEX
  8
0
 62
7
  6
CONTINUOUS
 10
66.5224228169
 20
90.847994781
  0
VERTEX
  8
0
 62
7
  6
CONTINUOUS
 10
66.5408658927
 20
90.7920123916
  0
VERTEX
  8
0
 62
7
  6
CONTINUOUS
 10
66.556547188
 20
90.7334991028
  0
VERTEX
  8
0
 62
7
  6
CONTINUOUS
 10
66.5694217331
 20
90.6725790894
  0
VERTEX
  8
0
 62
7
  6
CONTINUOUS
 10
66.5794699193
 20
90.6093982726
  0
VERTEX
  8
0
 62
7
  6
CONTINUOUS
 10
66.5866593398
 20
90.5440923364
  0
VERTEX
  8
0
 62
7
  6
CONTINUOUS
 10
66.5909834189
 20
90.4768161667
  0
VERTEX
  8
0
 62
7
  6
CONTINUOUS
 10
66.5924226064
 20
90.4077157283
  0
VERTEX
  8
0
 62
7
  6
CONTINUOUS
 10
66.5909834189
 20
90.3369534693
  0
VERTEX
  8
0
 62
7
  6
CONTINUOUS
 10
66.5866593398
 20
90.264684313
  0
VERTEX
  8
0
 62
7
  6
CONTINUOUS
 10
66.5794699193
 20
90.1910767986
  0
VERTEX
  8
0
 62
7
  6
CONTINUOUS
 10
66.5694217331
 20
90.116293405
  0
VERTEX
  8
0
 62
7
  6
CONTINUOUS
 10
66.556547188
 20
90.0405072363
  0
VERTEX
  8
0
 62
7
  6
CONTINUOUS
 10
66.5408658927
 20
89.9638868555
  0
VERTEX
  8
0
 62
7
  6
CONTINUOUS
 10
66.5224228169
 20
89.8866083636
  0
VERTEX
  8
0
 62
7
  6
CONTINUOUS
 10
66.5012504248
 20
89.8088448816
  0
VERTEX
  8
0
 62
7
  6
CONTINUOUS
 10
66.4774058416
 20
89.7307739126
  0
VERTEX
  8
0
 62
7
  6
CONTINUOUS
 10
66.4509340931
 20
89.6525715676
  0
VERTEX
  8
0
 62
7
  6
CONTINUOUS
 10
66.4219039428
 20
89.5744151443
  0
VERTEX
  8
0
 62
7
  6
CONTINUOUS
 10
66.3903725701
 20
89.4964821487
  0
VERTEX
  8
0
 62
7
  6
CONTINUOUS
 10
66.3564197543
 20
89.4189480678
  0
VERTEX
  8
0
 62
7
  6
CONTINUOUS
 10
66.3201143104
 20
89.3419901949
  0
VERTEX
  8
0
 62
7
  6
CONTINUOUS
 10
66.281546311
 20
89.265780617
  0
VERTEX
  8
0
 62
7
  6
CONTINUOUS
 10
66.2407955836
 20
89.1904948093
  0
VERTEX
  8
0
 62
7
  6
CONTINUOUS
 10
66.1979616784
 20
89.1162999002
  0
VERTEX
  8
0
 62
7
  6
CONTINUOUS
 10
66.1531347125
 20
89.0433679576
  0
VERTEX
  8
0
 62
7
  6
CONTINUOUS
 10
66.1064228119
 20
88.9718596377
  0
VERTEX
  8
0
 62
7
  6
CONTINUOUS
 10
66.0579255674
 20
88.9019420432
  0
VERTEX
  8
0
 62
7
  6
CONTINUOUS
 10
66.0077587016
 20
88.8337679031
  0
VERTEX
  8
0
 62
7
  6
CONTINUOUS
 10
65.9560303771
 20
88.7674978412
  0
VERTEX
  8
0
 62
7
  6
CONTINUOUS
 10
65.9028628651
 20
88.7032752764
  0
VERTEX
  8
0
 62
7
  6
CONTINUOUS
 10
65.8483719202
 20
88.6412528991
  0
VERTEX
  8
0
 62
7
  6
CONTINUOUS
 10
65.7926852552
 20
88.5815635191
  0
VERTEX
  8
0
 62
7
  6
CONTINUOUS
 10
65.7359251684
 20
88.5243505106
  0
VERTEX
  8
0
 62
7
  6
CONTINUOUS
 10
65.6782236574
 20
88.4697348717
  0
VERTEX
  8
0
 62
7
  6
CONTINUOUS
 10
65.6197084569
 20
88.4178493619
  0
VERTEX
  8
0
 62
7
  6
CONTINUOUS
 10
65.5605146537
 20
88.3688020718
  0
VERTEX
  8
0
 62
7
  6
CONTINUOUS
 10
65.5007742622
 20
88.3227139438
  0
VERTEX
  8
0
 62
7
  6
CONTINUOUS
 10
65.4406242351
 20
88.2796791823
  0
VERTEX
  8
0
 62
7
  6
CONTINUOUS
 10
65.38026815
 20
88.2398491206
  0
VERTEX
  8
0
 62
7
  6
CONTINUOUS
 10
65.3196381478
 20
88.2031733141
  0
SEQEND
  0
LINE
  8
0
 62
7
  6
CONTINUOUS
 10
52.9453121646
 20
84.5181856231
 11
52.9453121646
 21
83.1239092954
  0
LINE
  8
0
 62
7
  6
CONTINUOUS
 10
53.7938456012
 20
104.7374622525
 11
53.7938456012
 21
88.9789656019
  0
LINE
  8
0
 62
7
  6
CONTINUOUS
 10
54.0059767524
 20
84.6106755538
 11
54.0059767524
 21
82.5115481636
  0
LINE
  8
0
 62
7
  6
CONTINUOUS
 10
46.7935176128
 20
104.3700850982
 11
47.50062145
 21
103.961847743
  0
LINE
  8
0
 62
7
  6
CONTINUOUS
 10
45.7328530251
 20
105.3907183466
 11
47.50062145
 21
104.3700989515
  0
LINE
  8
0
 62
7
  6
CONTINUOUS
 10
64.258982392
 20
95.0209790792
 11
63.1983178042
 21
95.633340211
  0
LINE
  8
0
 62
7
  6
CONTINUOUS
 10
88.0883728742
 20
129.8445431635
 11
82.7850940951
 21
126.7827120095
  0
LINE
  8
0
 62
7
  6
CONTINUOUS
 10
45.7328530251
 20
105.3907183466
 11
40.429574246
 21
102.3288871925
  0
LINE
  8
0
 62
7
  6
CONTINUOUS
 10
91.4824712928
 20
130.9876126849
 11
88.7954767114
 21
129.4362849002
  0
LINE
  8
0
 62
7
  6
CONTINUOUS
 10
82.0779902578
 20
125.5579654385
 11
46.4399568623
 21
104.9824600833
  0
LINE
  8
0
 62
7
  6
CONTINUOUS
 10
39.7224704087
 20
101.1041406215
 11
37.0354758273
 21
99.5528128368
  0
LINE
  8
0
 62
7
  6
CONTINUOUS
 10
89.1490374619
 20
129.2321820317
 11
83.8457586828
 21
126.1703508777
  0
LINE
  8
0
 62
7
  6
CONTINUOUS
 10
46.7935176128
 20
104.7783572148
 11
41.4902388337
 21
101.7165260608
  0
LINE
  8
0
 62
7
  6
CONTINUOUS
 10
82.7850940951
 20
125.5579583838
 11
82.43155123
 21
125.3538415339
  0
LINE
  8
0
 62
7
  6
CONTINUOUS
 10
40.429574246
 20
101.1041335669
 11
40.0760313809
 21
100.900016717
  0
LINE
  8
0
 62
7
  6
CONTINUOUS
 10
92.5431358805
 20
130.3752515532
 11
89.8561412991
 21
128.8239237684
  0
LINE
  8
0
 62
7
  6
CONTINUOUS
 10
83.1386548456
 20
124.9456043067
 11
47.50062145
 21
104.3700989515
  0
LINE
  8
0
 62
7
  6
CONTINUOUS
 10
40.7831349965
 20
100.4917794898
 11
38.096140415
 21
98.9404517051
  0
LINE
  8
0
 62
7
  6
CONTINUOUS
 10
89.8561412991
 20
128.4156725599
 11
89.1490374619
 21
128.007428406
  0
LINE
  8
0
 62
7
  6
CONTINUOUS
 10
83.8457586828
 20
124.945597252
 11
83.1386548456
 21
124.5373530981
  0
LINE
  8
0
 62
7
  6
CONTINUOUS
 10
47.50062145
 20
103.961847743
 11
46.7935176128
 21
103.5536035891
  0
LINE
  8
0
 62
7
  6
CONTINUOUS
 10
41.4902388337
 20
100.4917724351
 11
40.7831349965
 21
100.0835282812
  0
LINE
  8
0
 62
7
  6
CONTINUOUS
 10
76.8454306944
 20
118.0462216687
 11
66.3802939036
 21
112.0042081914
  0
LINE
  8
0
 62
7
  6
CONTINUOUS
 10
64.258982392
 20
110.7794757298
 11
53.7938456012
 21
104.7374622525
  0
LINE
  8
0
 62
7
  6
CONTINUOUS
 10
63.1983178042
 20
95.633340211
 11
63.1983178042
 21
110.1671043999
  0
LINE
  8
0
 62
7
  6
CONTINUOUS
 10
64.258982392
 20
95.0209790792
 11
64.258982392
 21
110.7794757298
  0
POLYLINE
  8
0
 62
7
  6
CONTINUOUS
 66
1
 70
0
  0
VERTEX
  8
0
 62
7
  6
CONTINUOUS
 10
65.5162047376
 20
91.2381113756
  0
VERTEX
  8
0
 62
7
  6
CONTINUOUS
 10
65.5188053315
 20
91.2217594044
  0
VERTEX
  8
0
 62
7
  6
CONTINUOUS
 10
65.5259947521
 20
91.1564534681
  0
VERTEX
  8
0
 62
7
  6
CONTINUOUS
 10
65.5303188312
 20
91.0891772985
  0
VERTEX
  8
0
 62
7
  6
CONTINUOUS
 10
65.5317580186
 20
91.0200768601
  0
VERTEX
  8
0
 62
7
  6
CONTINUOUS
 10
65.5303188312
 20
90.9493146011
  0
VERTEX
  8
0
 62
7
  6
CONTINUOUS
 10
65.5259947521
 20
90.8770454448
  0
VERTEX
  8
0
 62
7
  6
CONTINUOUS
 10
65.5188053315
 20
90.8034379304
  0
VERTEX
  8
0
 62
7
  6
CONTINUOUS
 10
65.5087571454
 20
90.7286545368
  0
VERTEX
  8
0
 62
7
  6
CONTINUOUS
 10
65.4958826003
 20
90.652868368
  0
VERTEX
  8
0
 62
7
  6
CONTINUOUS
 10
65.480201305
 20
90.5762479872
  0
VERTEX
  8
0
 62
7
  6
CONTINUOUS
 10
65.4617582292
 20
90.4989694954
  0
VERTEX
  8
0
 62
7
  6
CONTINUOUS
 10
65.440585837
 20
90.4212060134
  0
VERTEX
  8
0
 62
7
  6
CONTINUOUS
 10
65.4167412539
 20
90.3431350444
  0
VERTEX
  8
0
 62
7
  6
CONTINUOUS
 10
65.3902695053
 20
90.2649326993
  0
VERTEX
  8
0
 62
7
  6
CONTINUOUS
 10
65.3612393551
 20
90.1867762761
  0
VERTEX
  8
0
 62
7
  6
CONTINUOUS
 10
65.3297079824
 20
90.1088432805
  0
VERTEX
  8
0
 62
7
  6
CONTINUOUS
 10
65.2957551666
 20
90.0313091996
  0
VERTEX
  8
0
 62
7
  6
CONTINUOUS
 10
65.2594497227
 20
89.9543513267
  0
VERTEX
  8
0
 62
7
  6
CONTINUOUS
 10
65.2208817233
 20
89.8781417488
  0
VERTEX
  8
0
 62
7
  6
CONTINUOUS
 10
65.1801309959
 20
89.8028559411
  0
VERTEX
  8
0
 62
7
  6
CONTINUOUS
 10
65.1372970907
 20
89.7286610319
  0
VERTEX
  8
0
 62
7
  6
CONTINUOUS
 10
65.0924701248
 20
89.6557290893
  0
VERTEX
  8
0
 62
7
  6
CONTINUOUS
 10
65.0457582242
 20
89.5842207695
  0
VERTEX
  8
0
 62
7
  6
CONTINUOUS
 10
64.9972609797
 20
89.514303175
  0
VERTEX
  8
0
 62
7
  6
CONTINUOUS
 10
64.9470941139
 20
89.4461290349
  0
VERTEX
  8
0
 62
7
  6
CONTINUOUS
 10
64.8953657894
 20
89.379858973
  0
VERTEX
  8
0
 62
7
  6
CONTINUOUS
 10
64.8421982773
 20
89.3156364082
  0
VERTEX
  8
0
 62
7
  6
CONTINUOUS
 10
64.7877073325
 20
89.2536140309
  0
VERTEX
  8
0
 62
7
  6
CONTINUOUS
 10
64.7320206674
 20
89.1939246509
  0
VERTEX
  8
0
 62
7
  6
CONTINUOUS
 10
64.6752605807
 20
89.1367116424
  0
VERTEX
  8
0
 62
7
  6
CONTINUOUS
 10
64.6175590697
 20
89.0820960035
  0
VERTEX
  8
0
 62
7
  6
CONTINUOUS
 10
64.5590438691
 20
89.0302104937
  0
VERTEX
  8
0
 62
7
  6
CONTINUOUS
 10
64.499850066
 20
88.9811632036
  0
VERTEX
  8
0
 62
7
  6
CONTINUOUS
 10
64.4401096744
 20
88.9350750756
  0
VERTEX
  8
0
 62
7
  6
CONTINUOUS
 10
64.3799596474
 20
88.8920403141
  0
VERTEX
  8
0
 62
7
  6
CONTINUOUS
 10
64.3196035623
 20
88.8522102524
  0
VERTEX
  8
0
 62
7
  6
CONTINUOUS
 10
64.2589735601
 20
88.8155344459
  0
SEQEND
  0
LINE
  8
0
 62
7
  6
CONTINUOUS
 10
66.3802939036
 20
112.0042081914
 11
66.3802939036
 21
96.2457115408
  0
LINE
  8
0
 62
7
  6
CONTINUOUS
 10
76.8454306944
 20
102.2877250181
 11
75.7847661066
 21
102.9000861499
  0
LINE
  8
0
 62
7
  6
CONTINUOUS
 10
53.7938456012
 20
90.2036980635
 11
63.1983178042
 21
95.633340211
  0
LINE
  8
0
 62
7
  6
CONTINUOUS
 10
66.3802939036
 20
97.4704440025
 11
75.7847661066
 21
102.9000861499
  0
LINE
  8
0
 62
7
  6
CONTINUOUS
 10
53.7938456012
 20
88.9789656019
 11
64.258982392
 21
95.0209790792
  0
LINE
  8
0
 62
7
  6
CONTINUOUS
 10
66.3802939036
 20
96.2457115408
 11
76.8454306944
 21
102.2877250181
  0
LINE
  8
0
 62
7
  6
CONTINUOUS
 10
75.7847661066
 20
102.9000861499
 11
75.7847661066
 21
117.4338503388
  0
LINE
  8
0
 62
7
  6
CONTINUOUS
 10
76.6332995432
 20
95.5753610875
 11
76.6332995432
 21
97.6744884777
  0
LINE
  8
0
 62
7
  6
CONTINUOUS
 10
76.8454306944
 20
102.2877250181
 11
76.8454306944
 21
118.0462216687
  0
LINE
  8
0
 62
7
  6
CONTINUOUS
 10
76.6332995432
 20
97.6744884777
 11
84.4185127909
 21
105.9851543069
  0
POLYLINE
  8
0
 62
7
  6
CONTINUOUS
 66
1
 70
0
  0
VERTEX
  8
0
 62
7
  6
CONTINUOUS
 10
65.3196381478
 20
91.1425820158
  0
VERTEX
  8
0
 62
7
  6
CONTINUOUS
 10
65.38026815
 20
91.1759152877
  0
VERTEX
  8
0
 62
7
  6
CONTINUOUS
 10
65.4406242351
 20
91.2057780138
  0
VERTEX
  8
0
 62
7
  6
CONTINUOUS
 10
65.5007742622
 20
91.2321981063
  0
VERTEX
  8
0
 62
7
  6
CONTINUOUS
 10
65.5605146537
 20
91.2550918289
  0
VERTEX
  8
0
 62
7
  6
CONTINUOUS
 10
65.6197084569
 20
91.2743952472
  0
VERTEX
  8
0
 62
7
  6
CONTINUOUS
 10
65.6782236574
 20
91.2900768676
  0
VERTEX
  8
0
 62
7
  6
CONTINUOUS
 10
65.7359251684
 20
91.3020887968
  0
VERTEX
  8
0
 62
7
  6
CONTINUOUS
 10
65.7926852552
 20
91.3104162998
  0
VERTEX
  8
0
 62
7
  6
CONTINUOUS
 10
65.8483719202
 20
91.3150279581
  0
VERTEX
  8
0
 62
7
  6
CONTINUOUS
 10
65.9028628651
 20
91.3159259286
  0
VERTEX
  8
0
 62
7
  6
CONTINUOUS
 10
65.9560303771
 20
91.3130955521
  0
VERTEX
  8
0
 62
7
  6
CONTINUOUS
 10
66.0077587016
 20
91.3065558578
  0
VERTEX
  8
0
 62
7
  6
CONTINUOUS
 10
66.0579255674
 20
91.2963090789
  0
VERTEX
  8
0
 62
7
  6
CONTINUOUS
 10
66.1064228119
 20
91.2823909444
  0
VERTEX
  8
0
 62
7
  6
CONTINUOUS
 10
66.1531347125
 20
91.2648205594
  0
VERTEX
  8
0
 62
7
  6
CONTINUOUS
 10
66.1979616784
 20
91.2436500295
  0
VERTEX
  8
0
 62
7
  6
CONTINUOUS
 10
66.2196350172
 20
91.231725199
  0
SEQEND
  0
POLYLINE
  8
0
 62
7
  6
CONTINUOUS
 66
1
 70
0
  0
VERTEX
  8
0
 62
7
  6
CONTINUOUS
 10
64.2589735601
 20
88.8155344459
  0
VERTEX
  8
0
 62
7
  6
CONTINUOUS
 10
64.1983435578
 20
88.782201174
  0
VERTEX
  8
0
 62
7
  6
CONTINUOUS
 10
64.1379874727
 20
88.7523384478
  0
VERTEX
  8
0
 62
7
  6
CONTINUOUS
 10
64.0778374457
 20
88.7259183553
  0
VERTEX
  8
0
 62
7
  6
CONTINUOUS
 10
64.0624069703
 20
88.720005086
  0
SEQEND
  0
POLYLINE
  8
0
 62
7
  6
CONTINUOUS
 66
1
 70
0
  0
VERTEX
  8
0
 62
7
  6
CONTINUOUS
 10
65.3196381478
 20
88.2031733141
  0
VERTEX
  8
0
 62
7
  6
CONTINUOUS
 10
65.2590081455
 20
88.1698400422
  0
VERTEX
  8
0
 62
7
  6
CONTINUOUS
 10
65.1986520604
 20
88.1399773161
  0
VERTEX
  8
0
 62
7
  6
CONTINUOUS
 10
65.1385020334
 20
88.1135572235
  0
VERTEX
  8
0
 62
7
  6
CONTINUOUS
 10
65.0787616418
 20
88.0906635009
  0
VERTEX
  8
0
 62
7
  6
CONTINUOUS
 10
65.0195678387
 20
88.0713600827
  0
VERTEX
  8
0
 62
7
  6
CONTINUOUS
 10
64.9610526382
 20
88.0556784623
  0
VERTEX
  8
0
 62
7
  6
CONTINUOUS
 10
64.9033511272
 20
88.0436665331
  0
VERTEX
  8
0
 62
7
  6
CONTINUOUS
 10
64.8465910404
 20
88.0353390301
  0
VERTEX
  8
0
 62
7
  6
CONTINUOUS
 10
64.7909043754
 20
88.0307273718
  0
VERTEX
  8
0
 62
7
  6
CONTINUOUS
 10
64.7364134305
 20
88.0298294013
  0
VERTEX
  8
0
 62
7
  6
CONTINUOUS
 10
64.6832459185
 20
88.0326597778
  0
VERTEX
  8
0
 62
7
  6
CONTINUOUS
 10
64.6315175939
 20
88.0391994721
  0
VERTEX
  8
0
 62
7
  6
CONTINUOUS
 10
64.5813507282
 20
88.049446251
  0
VERTEX
  8
0
 62
7
  6
CONTINUOUS
 10
64.5328534837
 20
88.0633643855
  0
VERTEX
  8
0
 62
7
  6
CONTINUOUS
 10
64.4861415831
 20
88.0809347705
  0
VERTEX
  8
0
 62
7
  6
CONTINUOUS
 10
64.4413146172
 20
88.1021053004
  0
VERTEX
  8
0
 62
7
  6
CONTINUOUS
 10
64.4196412783
 20
88.1140301308
  0
SEQEND
  0
LINE
  8
0
 62
7
  6
CONTINUOUS
 10
82.7850940951
 20
126.7827120095
 11
82.7850940951
 21
125.5579583838
  0
LINE
  8
0
 62
7
  6
CONTINUOUS
 10
83.1386548456
 20
124.5373530981
 11
83.1386548456
 21
124.9456043067
  0
LINE
  8
0
 62
7
  6
CONTINUOUS
 10
83.8457586828
 20
126.1703508777
 11
83.8457586828
 21
124.945597252
  0
LINE
  8
0
 62
7
  6
CONTINUOUS
 10
84.4185127909
 20
105.9851543069
 11
92.5431358805
 21
127.9257443018
  0
LINE
  8
0
 62
7
  6
CONTINUOUS
 10
89.1490374619
 20
128.007428406
 11
89.1490374619
 21
129.2321820317
  0
LINE
  8
0
 62
7
  6
CONTINUOUS
 10
89.8561412991
 20
128.8239237684
 11
89.8561412991
 21
128.4156725599
  0
LINE
  8
0
 62
7
  6
CONTINUOUS
 10
82.0779902578
 20
125.5579654385
 11
83.1386548456
 21
124.9456043067
  0
LINE
  8
0
 62
7
  6
CONTINUOUS
 10
82.7850940951
 20
125.5579583838
 11
83.8457586828
 21
124.945597252
  0
LINE
  8
0
 62
7
  6
CONTINUOUS
 10
82.7850940951
 20
126.7827120095
 11
83.8457586828
 21
126.1703508777
  0
LINE
  8
0
 62
7
  6
CONTINUOUS
 10
92.5431358805
 20
127.9257443018
 11
92.5431358805
 21
130.3752515532
  0
LINE
  8
0
 62
7
  6
CONTINUOUS
 10
89.1490374619
 20
128.8239099151
 11
89.8561412991
 21
128.4156725599
  0
LINE
  8
0
 62
7
  6
CONTINUOUS
 10
88.0883728742
 20
129.8445431635
 11
89.8561412991
 21
128.8239237684
  0
LINE
  8
0
 62
7
  6
CONTINUOUS
 10
91.4824712928
 20
130.9876126849
 11
92.5431358805
 21
130.3752515532
  0
LINE
  8
0
 62
7
  6
CONTINUOUS
 10
175.1382250269
 20
156.3178537863
 11
175.1382250269
 21
159.3178537863
  0
LINE
  8
0
 62
7
  6
CONTINUOUS
 10
178.9382250269
 20
159.3178537863
 11
178.9382250269
 21
158.8178537863
  0
LINE
  8
0
 62
7
  6
CONTINUOUS
 10
179.9382250269
 20
158.8178537863
 11
179.9382250269
 21
160.3178537863
  0
LINE
  8
0
 62
7
  6
CONTINUOUS
 10
187.4382250269
 20
160.3178537863
 11
187.4382250269
 21
158.8178537863
  0
LINE
  8
0
 62
7
  6
CONTINUOUS
 10
188.4382250269
 20
158.8178537863
 11
188.4382250269
 21
159.3178537863
  0
LINE
  8
0
 62
7
  6
CONTINUOUS
 10
186.6282250269
 20
135.1913215127
 11
175.1382250269
 21
156.3178537863
  0
LINE
  8
0
 62
7
  6
CONTINUOUS
 10
197.6382250269
 20
130.5178537863
 11
186.6282250269
 21
135.1913215127
  0
LINE
  8
0
 62
7
  6
CONTINUOUS
 10
197.3382250269
 20
136.0178537863
 11
197.3382250269
 21
155.3178537863
  0
LINE
  8
0
 62
7
  6
CONTINUOUS
 10
197.6382250269
 20
127.9469766569
 11
197.6382250269
 21
130.5178537863
  0
LINE
  8
0
 62
7
  6
CONTINUOUS
 10
229.9382250269
 20
136.0178537863
 11
215.1382250269
 21
136.0178537863
  0
LINE
  8
0
 62
7
  6
CONTINUOUS
 10
212.1382250269
 20
136.0178537863
 11
197.3382250269
 21
136.0178537863
  0
LINE
  8
0
 62
7
  6
CONTINUOUS
 10
212.1382250269
 20
155.3178537863
 11
212.1382250269
 21
136.0178537863
  0
LINE
  8
0
 62
7
  6
CONTINUOUS
 10
215.1382250269
 20
136.0178537863
 11
215.1382250269
 21
155.3178537863
  0
LINE
  8
0
 62
7
  6
CONTINUOUS
 10
197.3382250269
 20
155.3178537863
 11
212.1382250269
 21
155.3178537863
  0
LINE
  8
0
 62
7
  6
CONTINUOUS
 10
215.1382250269
 20
155.3178537863
 11
229.9382250269
 21
155.3178537863
  0
LINE
  8
0
 62
7
  6
CONTINUOUS
 10
229.6382250269
 20
130.5178537863
 11
229.6382250269
 21
127.9469766569
  0
LINE
  8
0
 62
7
  6
CONTINUOUS
 10
229.9382250269
 20
155.3178537863
 11
229.9382250269
 21
136.0178537863
  0
LINE
  8
0
 62
7
  6
CONTINUOUS
 10
178.9382250269
 20
158.8178537863
 11
179.9382250269
 21
158.8178537863
  0
LINE
  8
0
 62
7
  6
CONTINUOUS
 10
187.4382250269
 20
158.8178537863
 11
188.4382250269
 21
158.8178537863
  0
LINE
  8
0
 62
7
  6
CONTINUOUS
 10
238.8382250269
 20
158.8178537863
 11
239.8382250269
 21
158.8178537863
  0
LINE
  8
0
 62
7
  6
CONTINUOUS
 10
247.3382250269
 20
158.8178537863
 11
248.3382250269
 21
158.8178537863
  0
LINE
  8
0
 62
7
  6
CONTINUOUS
 10
175.1382250269
 20
159.3178537863
 11
178.9382250269
 21
159.3178537863
  0
LINE
  8
0
 62
7
  6
CONTINUOUS
 10
188.4382250269
 20
159.3178537863
 11
238.8382250269
 21
159.3178537863
  0
LINE
  8
0
 62
7
  6
CONTINUOUS
 10
248.3382250269
 20
159.3178537863
 11
252.1382250269
 21
159.3178537863
  0
LINE
  8
0
 62
7
  6
CONTINUOUS
 10
240.6482250269
 20
135.1913215127
 11
229.6382250269
 21
130.5178537863
  0
LINE
  8
0
 62
7
  6
CONTINUOUS
 10
179.9382250269
 20
160.3178537863
 11
187.4382250269
 21
160.3178537863
  0
LINE
  8
0
 62
7
  6
CONTINUOUS
 10
239.8382250269
 20
160.3178537863
 11
247.3382250269
 21
160.3178537863
  0
LINE
  8
0
 62
7
  6
CONTINUOUS
 10
238.8382250269
 20
159.3178537863
 11
238.8382250269
 21
158.8178537863
  0
LINE
  8
0
 62
7
  6
CONTINUOUS
 10
239.8382250269
 20
158.8178537863
 11
239.8382250269
 21
160.3178537863
  0
LINE
  8
0
 62
7
  6
CONTINUOUS
 10
252.1382250269
 20
156.3178537863
 11
240.6482250269
 21
135.1913215127
  0
LINE
  8
0
 62
7
  6
CONTINUOUS
 10
247.3382250269
 20
160.3178537863
 11
247.3382250269
 21
158.8178537863
  0
LINE
  8
0
 62
7
  6
CONTINUOUS
 10
248.3382250269
 20
158.8178537863
 11
248.3382250269
 21
159.3178537863
  0
LINE
  8
0
 62
7
  6
CONTINUOUS
 10
252.1382250269
 20
159.3178537863
 11
252.1382250269
 21
156.3178537863
  0
LINE
  8
0
 62
7
  6
CONTINUOUS
 10
175.1382250269
 20
66.4321462137
 11
175.1382250269
 21
67.9321462137
  0
LINE
  8
0
 62
7
  6
CONTINUOUS
 10
178.9382250269
 20
66.4321462137
 11
178.9382250269
 21
67.9321462137
  0
LINE
  8
0
 62
7
  6
CONTINUOUS
 10
179.9382250269
 20
66.4321462137
 11
179.9382250269
 21
67.9321462137
  0
LINE
  8
0
 62
7
  6
CONTINUOUS
 10
187.4382250269
 20
66.4321462137
 11
187.4382250269
 21
67.9321462137
  0
LINE
  8
0
 62
7
  6
CONTINUOUS
 10
188.4382250269
 20
66.4321462137
 11
188.4382250269
 21
67.9321462137
  0
LINE
  8
0
 62
7
  6
CONTINUOUS
 10
175.1382250269
 20
66.4321462137
 11
252.1382250269
 21
66.4321462137
  0
LINE
  8
0
 62
7
  6
CONTINUOUS
 10
175.1382250269
 20
67.9321462137
 11
252.1382250269
 21
67.9321462137
  0
LINE
  8
0
 62
7
  6
CONTINUOUS
 10
238.8382250269
 20
66.4321462137
 11
238.8382250269
 21
67.9321462137
  0
LINE
  8
0
 62
7
  6
CONTINUOUS
 10
239.8382250269
 20
66.4321462137
 11
239.8382250269
 21
67.9321462137
  0
LINE
  8
0
 62
7
  6
CONTINUOUS
 10
247.3382250269
 20
66.4321462137
 11
247.3382250269
 21
67.9321462137
  0
LINE
  8
0
 62
7
  6
CONTINUOUS
 10
248.3382250269
 20
66.4321462137
 11
248.3382250269
 21
67.9321462137
  0
LINE
  8
0
 62
7
  6
CONTINUOUS
 10
252.1382250269
 20
66.4321462137
 11
252.1382250269
 21
67.9321462137
  0
ARC
  8
0
 62
7
  6
CONTINUOUS
 10
213.6382250269
 20
175.3178537863
 40
50.0
 50
251.3370751151
 51
288.6629248849
  0
CIRCLE
  8
0
 62
7
  6
CONTINUOUS
 10
213.6382250269
 20
128.7178537863
 40
1.8
  0
CIRCLE
  8
0
 62
7
  6
CONTINUOUS
 10
246.6382250269
 20
155.3178537863
 40
1.0
  0
ENDSEC
  0
EOF
