999
DXF file: esr3339010.dxf
999
Pro/ENGINEER 2022024 by Parametric Technology Corporation
  0
SECTION
  2
HEADER
  9
$EXTMAX
 10
210.0
 20
297.0
 30
0.0
  9
$EXTMIN
 10
0.0
 20
0.0
 30
0.0
  9
$LIMMIN
 10
0.0
 20
0.0
  9
$LIMMAX
 10
210.0
 20
297.0
  9
$VIEWCTR
 10
105.0
 20
148.5
  9
$VIEWSIZE
 40
297.0
  9
$CLAYER
  8
0
  9
$LTSCALE
 40
19.36
  9
$CELTYPE
  6
BYLAYER
  9
$DIMSCALE
 40
1.0
  9
$DIMASZ
 40
3.5
  9
$DIMEXO
 40
0.0
  9
$DIMDLI
 40
13.376
  9
$DIMEXE
 40
1.5
  9
$DIMCEN
 40
3.168
  9
$DIMLFAC
 40
1.0
  9
$DIMBLK
  1
_FILLED
  9
$DIMALT
 70
0
  9
$DIMALTF
 40
0.0393700787
  9
$DIMTXT
 40
3.0
  9
$AUNITS
 70
0
  9
$PDMODE
 70
3
  9
$PDSIZE
 40
0.3125
  9
$TILEMODE
 70
1
  0
ENDSEC
  0
SECTION
  2
TABLES
  0
TABLE
  2
LTYPE
 70
6
  0
LTYPE
  2
BYBLOCK
 70
0
  3

 72
65
 73
0
 40
0.0
  0
LTYPE
  2
BYLAYER
 70
0
  3

 72
65
 73
0
 40
0.0
  0
LTYPE
  2
CONTINUOUS
 70
64
  3
Solid line
 72
65
 73
0
 40
0.0
  0
LTYPE
  2
CENTER
 70
64
  3
____ _ ____ _ ____ _ ____ _ ____ _ ____ _ ____
 72
65
 73
4
 40
0.6
 49
0.375
 49
-0.075
 49
0.075
 49
-0.075
  0
LTYPE
  2
HIDDEN
 70
64
  3
- - - - - - - - - - - - - - - - - - - -
 72
65
 73
2
 40
0.2
 49
0.1
 49
-0.1
  0
LTYPE
  2
PHANTOM
 70
64
  3
_____ _ _ _____ _ _ _____ _ _ _____
 72
65
 73
6
 40
0.8
 49
0.45
 49
-0.05
 49
0.1
 49
-0.05
 49
0.1
 49
-0.05
  0
LTYPE
  2
DOT
 70
64
  3
. . . . . . . . . . . . . . . . . . . .
 72
65
 73
2
 40
0.2
 49
0.1
 49
-0.1
  0
LTYPE
  2
DASHED
 70
64
  3
- - - - - - - - - - - - - - - - - - - -
 72
65
 73
2
 40
0.2
 49
0.1
 49
-0.1
  0
ENDTAB
  0
TABLE
  2
LAYER
 70
36
  0
LAYER
  2
0
 70
0
 62
7
  6
CONTINUOUS
  0
LAYER
  2
DEFAULT_1
 70
0
 62
7
  6
CENTER
  0
LAYER
  2
DEFAULT_2
 70
0
 62
8
  6
HIDDEN
  0
LAYER
  2
DEFAULT_3
 70
0
 62
7
  6
PHANTOM
  0
LAYER
  2
01_ALL_DTM_PLN
 70
0
 62
7
  6
CONTINUOUS
  0
LAYER
  2
01__ASM_ALL_DTM_PLN
 70
0
 62
7
  6
CONTINUOUS
  0
LAYER
  2
01__ASM_DEF_DTM_PLN
 70
0
 62
7
  6
CONTINUOUS
  0
LAYER
  2
01___PRT_ALL_DTM_PLN
 70
0
 62
7
  6
CONTINUOUS
  0
LAYER
  2
01___PRT_DEF_DTM_PLN
 70
0
 62
7
  6
CONTINUOUS
  0
LAYER
  2
02_ALL_AXES
 70
0
 62
7
  6
CONTINUOUS
  0
LAYER
  2
02__ASM_ALL_AXES
 70
0
 62
7
  6
CONTINUOUS
  0
LAYER
  2
02___PRT_ALL_AXES
 70
0
 62
7
  6
CONTINUOUS
  0
LAYER
  2
03_ALL_CURVES
 70
0
 62
7
  6
CONTINUOUS
  0
LAYER
  2
03__ASM_ALL_CURVES
 70
0
 62
7
  6
CONTINUOUS
  0
LAYER
  2
03___PRT_ALL_CURVES
 70
0
 62
7
  6
CONTINUOUS
  0
LAYER
  2
04_ALL_DTM_PNT
 70
0
 62
7
  6
CONTINUOUS
  0
LAYER
  2
04__ASM_ALL_DTM_PNT
 70
0
 62
7
  6
CONTINUOUS
  0
LAYER
  2
04___PRT_ALL_DTM_PNT
 70
0
 62
7
  6
CONTINUOUS
  0
LAYER
  2
05_ALL_DTM_CSYS
 70
0
 62
7
  6
CONTINUOUS
  0
LAYER
  2
05__ASM_ALL_DTM_CSYS
 70
0
 62
7
  6
CONTINUOUS
  0
LAYER
  2
05__ASM_DEF_DTM_CSYS
 70
0
 62
7
  6
CONTINUOUS
  0
LAYER
  2
05___PRT_ALL_DTM_CSYS
 70
0
 62
7
  6
CONTINUOUS
  0
LAYER
  2
05___PRT_DEF_DTM_CSYS
 70
0
 62
7
  6
CONTINUOUS
  0
LAYER
  2
06_ALL_SURFS
 70
0
 62
7
  6
CONTINUOUS
  0
LAYER
  2
06__ASM_ALL_SURFS
 70
0
 62
7
  6
CONTINUOUS
  0
LAYER
  2
06___PRT_ALL_SURFS
 70
0
 62
7
  6
CONTINUOUS
  0
LAYER
  2
07__ASM_ALL_SKELETONS
 70
0
 62
7
  6
CONTINUOUS
  0
ENDTAB
  0
TABLE
  2
STYLE
 70
1
  0
STYLE
  2
STANDARD
 70
0
 40
0.0
 41
0.8
 50
0.0
 71
0
 42
0.2
  3
txt
  4

  0
STYLE
  2
TEXTSTYLE_1
 70
0
 40
0.0
 41
0.8
 50
0.0
 71
0
 42
0.2
  3
gdt
  4

  0
STYLE
  2
TEXTSTYLE_2
 70
0
 40
0.0
 41
1.0
 50
0.0
 71
0
 42
0.2
  3
symbol_asme.ttf
  4

  0
ENDTAB
  0
ENDSEC
  0
SECTION
  2
BLOCKS
  0
BLOCK
  8
0
  2
_FILLED
 70
64
 10
0.0
 20
0.0
  0
SOLID
  8
0
  6
BYBLOCK
 62
0
 10
0.0
 20
0.0
 11
-1.0
 21
0.125
 12
-1.0
 22
-0.125
 13
-1.0
 23
-0.125
  0
ENDBLK
  8
0
  6
BYBLOCK
 62
0
  0
BLOCK
  8
0
 62
2
  6
CONTINUOUS
  2
*D0
 70
65
 10
0.0
 20
0.0
  0
TEXT
  8
0
 62
2
  6
CONTINUOUS
 10
28.0266078142
 20
123.6530900913
  7
STANDARD
 40
3.0
  1
45
 41
0.8
 72
1
 11
30.4266078142
 21
123.6530900913
  0
LINE
  8
0
 62
2
  6
CONTINUOUS
 10
7.9266078142
 20
118.8465527658
 11
7.9266078142
 21
124.4030900913
  0
LINE
  8
0
 62
2
  6
CONTINUOUS
 10
52.9266078142
 20
118.8465527658
 11
52.9266078142
 21
124.4030900913
  0
LINE
  8
0
 62
2
  6
CONTINUOUS
 10
7.9266078142
 20
122.9030900913
 11
30.4266078142
 21
122.9030900913
  0
LINE
  8
0
 62
2
  6
CONTINUOUS
 10
52.9266078142
 20
122.9030900913
 11
30.4266078142
 21
122.9030900913
  0
INSERT
  8
0
 62
2
  6
CONTINUOUS
  2
_FILLED
 10
7.9266078142
 20
122.9030900913
 41
3.5
 42
3.5
 43
3.5
 50
180.0
  0
INSERT
  8
0
 62
2
  6
CONTINUOUS
  2
_FILLED
 10
52.9266078142
 20
122.9030900913
 41
3.5
 42
3.5
 43
3.5
  0
ENDBLK
  8
0
  6
BYBLOCK
 62
0
  0
BLOCK
  8
0
 62
2
  6
CONTINUOUS
  2
*D1
 70
65
 10
0.0
 20
0.0
  0
TEXT
  8
0
 62
2
  6
CONTINUOUS
 10
73.0266078142
 20
123.6530900913
  7
STANDARD
 40
3.0
  1
45
 41
0.8
 72
1
 11
75.4266078142
 21
123.6530900913
  0
LINE
  8
0
 62
2
  6
CONTINUOUS
 10
52.9266078142
 20
118.8465527658
 11
52.9266078142
 21
124.4030900913
  0
LINE
  8
0
 62
2
  6
CONTINUOUS
 10
97.9266078142
 20
118.8465527658
 11
97.9266078142
 21
124.4030900913
  0
LINE
  8
0
 62
2
  6
CONTINUOUS
 10
52.9266078142
 20
122.9030900913
 11
75.4266078142
 21
122.9030900913
  0
LINE
  8
0
 62
2
  6
CONTINUOUS
 10
97.9266078142
 20
122.9030900913
 11
75.4266078142
 21
122.9030900913
  0
INSERT
  8
0
 62
2
  6
CONTINUOUS
  2
_FILLED
 10
52.9266078142
 20
122.9030900913
 41
3.5
 42
3.5
 43
3.5
 50
180.0
  0
INSERT
  8
0
 62
2
  6
CONTINUOUS
  2
_FILLED
 10
97.9266078142
 20
122.9030900913
 41
3.5
 42
3.5
 43
3.5
  0
ENDBLK
  8
0
  6
BYBLOCK
 62
0
  0
BLOCK
  8
0
 62
2
  6
CONTINUOUS
  2
*D2
 70
65
 10
0.0
 20
0.0
  0
TEXT
  8
0
 62
2
  6
CONTINUOUS
 10
118.0266078142
 20
123.6530900913
  7
STANDARD
 40
3.0
  1
45
 41
0.8
 72
1
 11
120.4266078142
 21
123.6530900913
  0
LINE
  8
0
 62
2
  6
CONTINUOUS
 10
97.9266078142
 20
118.8465527658
 11
97.9266078142
 21
124.4030900913
  0
LINE
  8
0
 62
2
  6
CONTINUOUS
 10
142.9266078142
 20
118.8465527658
 11
142.9266078142
 21
124.4030900913
  0
LINE
  8
0
 62
2
  6
CONTINUOUS
 10
97.9266078142
 20
122.9030900913
 11
120.4266078142
 21
122.9030900913
  0
LINE
  8
0
 62
2
  6
CONTINUOUS
 10
142.9266078142
 20
122.9030900913
 11
120.4266078142
 21
122.9030900913
  0
INSERT
  8
0
 62
2
  6
CONTINUOUS
  2
_FILLED
 10
97.9266078142
 20
122.9030900913
 41
3.5
 42
3.5
 43
3.5
 50
180.0
  0
INSERT
  8
0
 62
2
  6
CONTINUOUS
  2
_FILLED
 10
142.9266078142
 20
122.9030900913
 41
3.5
 42
3.5
 43
3.5
  0
ENDBLK
  8
0
  6
BYBLOCK
 62
0
  0
BLOCK
  8
0
 62
2
  6
CONTINUOUS
  2
*D3
 70
65
 10
0.0
 20
0.0
  0
TEXT
  8
0
 62
2
  6
CONTINUOUS
 10
204.1074336775
 20
95.1080129766
  7
STANDARD
 40
3.0
  1
45
 50
90.0
 41
0.8
 72
1
 11
204.1074336775
 21
97.5080129766
  0
LINE
  8
0
 62
2
  6
CONTINUOUS
 10
197.2901416488
 20
118.8465527658
 11
206.3574336775
 21
118.8465527658
  0
LINE
  8
0
 62
2
  6
CONTINUOUS
 10
197.2901416488
 20
73.8465527658
 11
206.3574336775
 21
73.8465527658
  0
LINE
  8
0
 62
2
  6
CONTINUOUS
 10
204.8574336775
 20
118.8465527658
 11
204.8574336775
 21
96.3465527658
  0
LINE
  8
0
 62
2
  6
CONTINUOUS
 10
204.8574336775
 20
73.8465527658
 11
204.8574336775
 21
96.3465527658
  0
INSERT
  8
0
 62
2
  6
CONTINUOUS
  2
_FILLED
 10
204.8574336775
 20
118.8465527658
 41
3.5
 42
3.5
 43
3.5
 50
90.0
  0
INSERT
  8
0
 62
2
  6
CONTINUOUS
  2
_FILLED
 10
204.8574336775
 20
73.8465527658
 41
3.5
 42
3.5
 43
3.5
 50
270.0
  0
ENDBLK
  8
0
  6
BYBLOCK
 62
0
  0
BLOCK
  8
0
 62
2
  6
CONTINUOUS
  2
*D4
 70
65
 10
0.0
 20
0.0
  0
TEXT
  8
0
 62
2
  6
CONTINUOUS
 10
150.5778955465
 20
93.9465527658
  7
STANDARD
 40
3.0
  1
40
 50
90.0
 41
0.8
 72
1
 11
150.5778955465
 21
96.3465527658
  0
LINE
  8
0
 62
2
  6
CONTINUOUS
 10
157.8901416488
 20
116.3465527658
 11
149.8278955465
 21
116.3465527658
  0
LINE
  8
0
 62
2
  6
CONTINUOUS
 10
157.8901416488
 20
76.3465527658
 11
149.8278955465
 21
76.3465527658
  0
LINE
  8
0
 62
2
  6
CONTINUOUS
 10
151.3278955465
 20
116.3465527658
 11
151.3278955465
 21
96.3465527658
  0
LINE
  8
0
 62
2
  6
CONTINUOUS
 10
151.3278955465
 20
76.3465527658
 11
151.3278955465
 21
96.3465527658
  0
INSERT
  8
0
 62
2
  6
CONTINUOUS
  2
_FILLED
 10
151.3278955465
 20
116.3465527658
 41
3.5
 42
3.5
 43
3.5
 50
90.0
  0
INSERT
  8
0
 62
2
  6
CONTINUOUS
  2
_FILLED
 10
151.3278955465
 20
76.3465527658
 41
3.5
 42
3.5
 43
3.5
 50
270.0
  0
ENDBLK
  8
0
  6
BYBLOCK
 62
0
  0
BLOCK
  8
0
 62
2
  6
CONTINUOUS
  2
*D5
 70
65
 10
0.0
 20
0.0
  0
TEXT
  8
0
 62
2
  6
CONTINUOUS
 10
68.342759134
 20
49.9395231807
  7
STANDARD
 40
3.0
  1
130
 41
0.8
 72
1
 11
71.942759134
 21
49.9395231807
  0
LINE
  8
0
 62
2
  6
CONTINUOUS
 10
10.4266078142
 20
44.2340602376
 11
10.4266078142
 21
50.6895231807
  0
LINE
  8
0
 62
2
  6
CONTINUOUS
 10
140.4266078142
 20
44.2340602376
 11
140.4266078142
 21
50.6895231807
  0
LINE
  8
0
 62
2
  6
CONTINUOUS
 10
10.4266078142
 20
49.1895231807
 11
75.4266078142
 21
49.1895231807
  0
LINE
  8
0
 62
2
  6
CONTINUOUS
 10
140.4266078142
 20
49.1895231807
 11
75.4266078142
 21
49.1895231807
  0
INSERT
  8
0
 62
2
  6
CONTINUOUS
  2
_FILLED
 10
10.4266078142
 20
49.1895231807
 41
3.5
 42
3.5
 43
3.5
 50
180.0
  0
INSERT
  8
0
 62
2
  6
CONTINUOUS
  2
_FILLED
 10
140.4266078142
 20
49.1895231807
 41
3.5
 42
3.5
 43
3.5
  0
ENDBLK
  8
0
  6
BYBLOCK
 62
0
  0
BLOCK
  8
0
 62
2
  6
CONTINUOUS
  2
*D6
 70
65
 10
0.0
 20
0.0
  0
TEXT
  8
0
 62
2
  6
CONTINUOUS
 10
69.159429381
 20
66.5329259734
  7
STANDARD
 40
3.0
  1
135
 41
0.8
 72
1
 11
72.759429381
 21
66.5329259734
  0
LINE
  8
0
 62
2
  6
CONTINUOUS
 10
7.9266078142
 20
73.8465527658
 11
7.9266078142
 21
64.2829259734
  0
LINE
  8
0
 62
2
  6
CONTINUOUS
 10
142.9266078142
 20
73.8465527658
 11
142.9266078142
 21
64.2829259734
  0
LINE
  8
0
 62
2
  6
CONTINUOUS
 10
7.9266078142
 20
65.7829259734
 11
75.4266078142
 21
65.7829259734
  0
LINE
  8
0
 62
2
  6
CONTINUOUS
 10
142.9266078142
 20
65.7829259734
 11
75.4266078142
 21
65.7829259734
  0
INSERT
  8
0
 62
2
  6
CONTINUOUS
  2
_FILLED
 10
7.9266078142
 20
65.7829259734
 41
3.5
 42
3.5
 43
3.5
 50
180.0
  0
INSERT
  8
0
 62
2
  6
CONTINUOUS
  2
_FILLED
 10
142.9266078142
 20
65.7829259734
 41
3.5
 42
3.5
 43
3.5
  0
ENDBLK
  8
0
  6
BYBLOCK
 62
0
  0
BLOCK
  8
0
 62
2
  6
CONTINUOUS
  2
*D7
 70
65
 10
0.0
 20
0.0
  0
TEXT
  8
0
 62
2
  6
CONTINUOUS
 10
189.2901416488
 20
122.6841096469
  7
STANDARD
 40
3.0
  1
8.8
 41
0.8
 72
1
 11
192.8901416488
 21
122.6841096469
  0
LINE
  8
0
 62
2
  6
CONTINUOUS
 10
197.2901416488
 20
118.8465527658
 11
197.2901416488
 21
123.4341096469
  0
LINE
  8
0
 62
2
  6
CONTINUOUS
 10
188.4901416488
 20
118.8465527658
 11
188.4901416488
 21
123.4341096469
  0
LINE
  8
0
 62
2
  6
CONTINUOUS
 10
197.2901416488
 20
121.9341096469
 11
203.2901416488
 21
121.9341096469
  0
LINE
  8
0
 62
2
  6
CONTINUOUS
 10
203.2901416488
 20
121.9341096469
 11
192.8901416488
 21
121.9341096469
  0
LINE
  8
0
 62
2
  6
CONTINUOUS
 10
188.4901416488
 20
121.9341096469
 11
182.4901416488
 21
121.9341096469
  0
LINE
  8
0
 62
2
  6
CONTINUOUS
 10
182.4901416488
 20
121.9341096469
 11
192.8901416488
 21
121.9341096469
  0
INSERT
  8
0
 62
2
  6
CONTINUOUS
  2
_FILLED
 10
197.2901416488
 20
121.9341096469
 41
3.5
 42
3.5
 43
3.5
 50
180.0
  0
INSERT
  8
0
 62
2
  6
CONTINUOUS
  2
_FILLED
 10
188.4901416488
 20
121.9341096469
 41
3.5
 42
3.5
 43
3.5
  0
ENDBLK
  8
0
  6
BYBLOCK
 62
0
  0
BLOCK
  8
0
 62
2
  6
CONTINUOUS
  2
*D8
 70
65
 10
0.0
 20
0.0
  0
TEXT
  8
0
 62
2
  6
CONTINUOUS
 10
165.6472804614
 20
50.8905885548
  7
TEXTSTYLE_2
 40
3.0
  1
?
 50
-45.8188847593
 41
1.0
 72
0
  0
TEXT
  8
0
 62
2
  6
CONTINUOUS
 10
168.1133361104
 20
48.3530149904
  7
STANDARD
 40
3.0
  1
38.3
 50
-45.8188847593
 41
0.8
 72
0
  0
LINE
  8
0
 62
2
  6
CONTINUOUS
 10
133.7727937668
 20
82.6133149642
 11
120.4266078142
 21
96.3465527658
  0
LINE
  8
0
 62
2
  6
CONTINUOUS
 10
120.4266078142
 20
96.3465527658
 11
174.2659970396
 21
40.9457710029
  0
LINE
  8
0
 62
2
  6
CONTINUOUS
 10
107.0804218615
 20
110.0797905675
 11
120.4266078142
 21
96.3465527658
  0
INSERT
  8
0
 62
2
  6
CONTINUOUS
  2
_FILLED
 10
133.7727937668
 20
82.6133149642
 41
3.5
 42
3.5
 43
3.5
 50
314.1811152407
  0
INSERT
  8
0
 62
2
  6
CONTINUOUS
  2
_FILLED
 10
107.0804218615
 20
110.0797905675
 41
3.5
 42
3.5
 43
3.5
 50
134.1811152407
  0
ENDBLK
  8
0
  6
BYBLOCK
 62
0
  0
BLOCK
  8
0
 62
2
  6
CONTINUOUS
  2
*D9
 70
65
 10
0.0
 20
0.0
  0
TEXT
  8
0
 62
2
  6
CONTINUOUS
 10
168.9488721034
 20
66.1474221267
  7
STANDARD
 40
3.0
  1
30.6
 41
0.8
 72
1
 11
173.7488721034
 21
66.1474221267
  0
LINE
  8
0
 62
2
  6
CONTINUOUS
 10
188.4901416488
 20
73.8465527658
 11
188.4901416488
 21
63.8974221267
  0
LINE
  8
0
 62
2
  6
CONTINUOUS
 10
157.8901416488
 20
76.3465527658
 11
157.8901416488
 21
63.8974221267
  0
LINE
  8
0
 62
2
  6
CONTINUOUS
 10
188.4901416488
 20
65.3974221267
 11
173.1901416488
 21
65.3974221267
  0
LINE
  8
0
 62
2
  6
CONTINUOUS
 10
157.8901416488
 20
65.3974221267
 11
173.1901416488
 21
65.3974221267
  0
INSERT
  8
0
 62
2
  6
CONTINUOUS
  2
_FILLED
 10
188.4901416488
 20
65.3974221267
 41
3.5
 42
3.5
 43
3.5
  0
INSERT
  8
0
 62
2
  6
CONTINUOUS
  2
_FILLED
 10
157.8901416488
 20
65.3974221267
 41
3.5
 42
3.5
 43
3.5
 50
180.0
  0
ENDBLK
  8
0
  6
BYBLOCK
 62
0
  0
ENDSEC
  0
SECTION
  2
ENTITIES
  0
DIMENSION
  8
0
 62
2
  6
CONTINUOUS
  2
*D0
 10
52.9266078142
 20
122.9030900913
 11
30.5016030273
 21
122.9030900913
 70
128
 13
7.9266078142
 23
118.8465527658
 14
52.9266078142
 24
118.8465527658
  0
DIMENSION
  8
0
 62
2
  6
CONTINUOUS
  2
*D1
 10
97.9266078142
 20
122.9030900913
 11
75.5016040039
 21
122.9030900913
 70
128
 13
52.9266078142
 23
118.8465527658
 14
97.9266078142
 24
118.8465527658
  0
DIMENSION
  8
0
 62
2
  6
CONTINUOUS
  2
*D2
 10
142.9266078142
 20
122.9030900913
 11
120.5016103516
 21
122.9030900913
 70
128
 13
97.9266078142
 23
118.8465527658
 14
142.9266078142
 24
118.8465527658
  0
DIMENSION
  8
0
 62
2
  6
CONTINUOUS
  2
*D3
 10
204.8574336775
 20
73.8465527658
 11
204.8574336775
 21
97.5830119163
 70
128
 13
197.2901416488
 23
118.8465527658
 14
197.2901416488
 24
73.8465527658
 50
270.0
  0
DIMENSION
  8
0
 62
2
  6
CONTINUOUS
  2
*D4
 10
151.3278955465
 20
76.3465527658
 11
151.3278955465
 21
96.3465537038
 70
128
 13
157.8901416488
 23
116.3465527658
 14
157.8901416488
 24
76.3465527658
 50
270.0
  0
DIMENSION
  8
0
 62
2
  6
CONTINUOUS
  2
*D5
 10
140.4266078142
 20
49.1895231807
 11
72.2427573242
 21
49.1895231807
 70
128
 13
10.4266078142
 23
44.2340602376
 14
140.4266078142
 24
44.2340602376
  0
DIMENSION
  8
0
 62
2
  6
CONTINUOUS
  2
*D6
 10
142.9266078142
 20
65.7829259734
 11
73.1344287109
 21
65.7829259734
 70
128
 13
7.9266078142
 23
73.8465527658
 14
142.9266078142
 24
73.8465527658
  0
DIMENSION
  8
0
 62
2
  6
CONTINUOUS
  2
*D7
 10
188.4901416488
 20
121.9341096469
 11
192.8901396484
 21
121.9341096469
 70
128
 13
197.2901416488
 23
118.8465527658
 14
188.4901416488
 24
118.8465527658
 50
180.0
  0
DIMENSION
  8
0
 62
2
  6
CONTINUOUS
  2
*D8
 10
133.7727937668
 20
82.6133149642
 11
171.3012769164
 21
47.2249212233
 70
131
 15
107.0804218615
 25
110.0797905675
  0
DIMENSION
  8
0
 62
2
  6
CONTINUOUS
  2
*D9
 10
157.8901416488
 20
65.3974221267
 11
173.7488720703
 21
65.3974221267
 70
128
 13
188.4901416488
 23
73.8465527658
 14
157.8901416488
 24
76.3465527658
 50
180.0
  0
LINE
  8
0
 62
7
  6
CONTINUOUS
 10
0.0
 20
0.0
 11
210.0
 21
0.0
  0
LINE
  8
0
 62
7
  6
CONTINUOUS
 10
0.0
 20
0.0
 11
0.0
 21
297.0
  0
LINE
  8
0
 62
7
  6
CONTINUOUS
 10
210.0
 20
0.0
 11
210.0
 21
297.0
  0
LINE
  8
0
 62
7
  6
CONTINUOUS
 10
0.0
 20
297.0
 11
210.0
 21
297.0
  0
LINE
  8
0
 62
7
  6
CONTINUOUS
 10
51.8636778402
 20
261.2526237611
 11
45.6411640727
 21
257.660075207
  0
LINE
  8
0
 62
7
  6
CONTINUOUS
 10
45.6411640727
 20
257.660075207
 11
45.6411640727
 21
220.9174664362
  0
POLYLINE
  8
02___PRT_ALL_AXES
 62
7
  6
CONTINUOUS
 66
1
 70
0
  0
VERTEX
  8
02___PRT_ALL_AXES
 62
7
  6
CONTINUOUS
 10
48.009981652
 20
237.921164294
  0
VERTEX
  8
02___PRT_ALL_AXES
 62
7
  6
CONTINUOUS
 10
48.0447897268
 20
239.0193496458
  0
VERTEX
  8
02___PRT_ALL_AXES
 62
7
  6
CONTINUOUS
 10
48.1478110468
 20
240.0668280968
  0
VERTEX
  8
02___PRT_ALL_AXES
 62
7
  6
CONTINUOUS
 10
48.3195681313
 20
241.0660715558
  0
VERTEX
  8
02___PRT_ALL_AXES
 62
7
  6
CONTINUOUS
 10
48.5584934224
 20
242.0096642961
  0
VERTEX
  8
02___PRT_ALL_AXES
 62
7
  6
CONTINUOUS
 10
48.8638784007
 20
242.8923541175
  0
VERTEX
  8
02___PRT_ALL_AXES
 62
7
  6
CONTINUOUS
 10
49.2336684698
 20
243.7101223497
  0
VERTEX
  8
02___PRT_ALL_AXES
 62
7
  6
CONTINUOUS
 10
49.6664645844
 20
244.4582895141
  0
VERTEX
  8
02___PRT_ALL_AXES
 62
7
  6
CONTINUOUS
 10
50.1595915722
 20
245.1335858351
  0
VERTEX
  8
02___PRT_ALL_AXES
 62
7
  6
CONTINUOUS
 10
50.7109883422
 20
245.7319998167
  0
VERTEX
  8
02___PRT_ALL_AXES
 62
7
  6
CONTINUOUS
 10
51.3174136053
 20
246.2510771408
  0
VERTEX
  8
02___PRT_ALL_AXES
 62
7
  6
CONTINUOUS
 10
51.976175614
 20
246.6877649949
  0
SEQEND
  0
LINE
  8
0
 62
7
  6
CONTINUOUS
 10
75.2688295718
 20
270.6830369404
 11
55.3992570141
 21
259.2114023519
  0
POLYLINE
  8
02___PRT_ALL_AXES
 62
7
  6
CONTINUOUS
 66
1
 70
0
  0
VERTEX
  8
02___PRT_ALL_AXES
 62
7
  6
CONTINUOUS
 10
51.976175614
 20
246.6877649949
  0
VERTEX
  8
02___PRT_ALL_AXES
 62
7
  6
CONTINUOUS
 10
52.6835646513
 20
247.0398473664
  0
VERTEX
  8
02___PRT_ALL_AXES
 62
7
  6
CONTINUOUS
 10
53.4363023261
 20
247.3055055664
  0
VERTEX
  8
02___PRT_ALL_AXES
 62
7
  6
CONTINUOUS
 10
54.2302338147
 20
247.4838394248
  0
VERTEX
  8
02___PRT_ALL_AXES
 62
7
  6
CONTINUOUS
 10
55.0616130186
 20
247.573268974
  0
VERTEX
  8
02___PRT_ALL_AXES
 62
7
  6
CONTINUOUS
 10
55.9259353716
 20
247.5740149179
  0
VERTEX
  8
02___PRT_ALL_AXES
 62
7
  6
CONTINUOUS
 10
56.8190316214
 20
247.4853952887
  0
VERTEX
  8
02___PRT_ALL_AXES
 62
7
  6
CONTINUOUS
 10
57.7361497281
 20
247.3085381328
  0
VERTEX
  8
02___PRT_ALL_AXES
 62
7
  6
CONTINUOUS
 10
58.6727821597
 20
247.0436733653
  0
VERTEX
  8
02___PRT_ALL_AXES
 62
7
  6
CONTINUOUS
 10
59.6240261403
 20
246.6928134112
  0
VERTEX
  8
02___PRT_ALL_AXES
 62
7
  6
CONTINUOUS
 10
60.5851276184
 20
246.2570953883
  0
VERTEX
  8
02___PRT_ALL_AXES
 62
7
  6
CONTINUOUS
 10
61.5511328886
 20
245.7393751329
  0
VERTEX
  8
02___PRT_ALL_AXES
 62
7
  6
CONTINUOUS
 10
62.5171381587
 20
245.141673817
  0
VERTEX
  8
02___PRT_ALL_AXES
 62
7
  6
CONTINUOUS
 10
63.4782396368
 20
244.4676325518
  0
VERTEX
  8
02___PRT_ALL_AXES
 62
7
  6
CONTINUOUS
 10
64.4294836174
 20
243.720115418
  0
VERTEX
  8
02___PRT_ALL_AXES
 62
7
  6
CONTINUOUS
 10
65.366116049
 20
242.9034746793
  0
VERTEX
  8
02___PRT_ALL_AXES
 62
7
  6
CONTINUOUS
 10
66.2832341557
 20
242.0213590209
  0
VERTEX
  8
02___PRT_ALL_AXES
 62
7
  6
CONTINUOUS
 10
67.1763304056
 20
241.0787432592
  0
VERTEX
  8
02___PRT_ALL_AXES
 62
7
  6
CONTINUOUS
 10
68.0406527585
 20
240.0799864071
  0
VERTEX
  8
02___PRT_ALL_AXES
 62
7
  6
CONTINUOUS
 10
68.8720319624
 20
239.030584561
  0
VERTEX
  8
02___PRT_ALL_AXES
 62
7
  6
CONTINUOUS
 10
69.665963451
 20
237.9355183245
  0
VERTEX
  8
02___PRT_ALL_AXES
 62
7
  6
CONTINUOUS
 10
70.4187011258
 20
236.8006931894
  0
VERTEX
  8
02___PRT_ALL_AXES
 62
7
  6
CONTINUOUS
 10
71.1260795945
 20
235.6316099592
  0
VERTEX
  8
02___PRT_ALL_AXES
 62
7
  6
CONTINUOUS
 10
71.7848521719
 20
234.4344633023
  0
VERTEX
  8
02___PRT_ALL_AXES
 62
7
  6
CONTINUOUS
 10
72.3912774349
 20
233.2151622417
  0
VERTEX
  8
02___PRT_ALL_AXES
 62
7
  6
CONTINUOUS
 10
72.9426742049
 20
231.9800645165
  0
VERTEX
  8
02___PRT_ALL_AXES
 62
7
  6
CONTINUOUS
 10
73.4358011927
 20
230.7353670789
  0
VERTEX
  8
02___PRT_ALL_AXES
 62
7
  6
CONTINUOUS
 10
73.8685973073
 20
229.4874613135
  0
VERTEX
  8
02___PRT_ALL_AXES
 62
7
  6
CONTINUOUS
 10
74.2383873764
 20
228.2427059492
  0
VERTEX
  8
02___PRT_ALL_AXES
 62
7
  6
CONTINUOUS
 10
74.5437723547
 20
227.0073959063
  0
VERTEX
  8
02___PRT_ALL_AXES
 62
7
  6
CONTINUOUS
 10
74.7826976458
 20
225.787922245
  0
VERTEX
  8
02___PRT_ALL_AXES
 62
7
  6
CONTINUOUS
 10
74.9544547303
 20
224.5903552747
  0
VERTEX
  8
02___PRT_ALL_AXES
 62
7
  6
CONTINUOUS
 10
75.0574760503
 20
223.4239207412
  0
VERTEX
  8
02___PRT_ALL_AXES
 62
7
  6
CONTINUOUS
 10
75.0922841251
 20
222.2855433958
  0
SEQEND
  0
LINE
  8
02___PRT_ALL_AXES
 62
7
  6
CONTINUOUS
 10
60.7378507218
 20
245.2695590637
 11
60.7674431673
 21
246.159385308
  0
POLYLINE
  8
02___PRT_ALL_AXES
 62
7
  6
CONTINUOUS
 66
1
 70
0
  0
VERTEX
  8
02___PRT_ALL_AXES
 62
7
  6
CONTINUOUS
 10
75.0922841251
 20
222.2855433958
  0
VERTEX
  8
02___PRT_ALL_AXES
 62
7
  6
CONTINUOUS
 10
75.0574760503
 20
221.187358044
  0
VERTEX
  8
02___PRT_ALL_AXES
 62
7
  6
CONTINUOUS
 10
74.9544547303
 20
220.139879593
  0
VERTEX
  8
02___PRT_ALL_AXES
 62
7
  6
CONTINUOUS
 10
74.7826976458
 20
219.140636134
  0
VERTEX
  8
02___PRT_ALL_AXES
 62
7
  6
CONTINUOUS
 10
74.5437723547
 20
218.1970433937
  0
VERTEX
  8
02___PRT_ALL_AXES
 62
7
  6
CONTINUOUS
 10
74.2383873764
 20
217.3143535723
  0
VERTEX
  8
02___PRT_ALL_AXES
 62
7
  6
CONTINUOUS
 10
73.8685973073
 20
216.4965853402
  0
VERTEX
  8
02___PRT_ALL_AXES
 62
7
  6
CONTINUOUS
 10
73.4358011927
 20
215.7484181757
  0
VERTEX
  8
02___PRT_ALL_AXES
 62
7
  6
CONTINUOUS
 10
72.9426742049
 20
215.0731218547
  0
VERTEX
  8
02___PRT_ALL_AXES
 62
7
  6
CONTINUOUS
 10
72.3912774349
 20
214.4747078731
  0
VERTEX
  8
02___PRT_ALL_AXES
 62
7
  6
CONTINUOUS
 10
71.7848521719
 20
213.955630549
  0
VERTEX
  8
02___PRT_ALL_AXES
 62
7
  6
CONTINUOUS
 10
71.1260901631
 20
213.5189426949
  0
SEQEND
  0
LINE
  8
0
 62
7
  6
CONTINUOUS
 10
83.6836154718
 20
242.8817898077
 11
77.4611017044
 21
239.2892412536
  0
LINE
  8
0
 62
7
  6
CONTINUOUS
 10
77.4611017044
 20
239.2892412536
 11
77.4611017044
 21
202.5466324828
  0
POLYLINE
  8
02___PRT_ALL_AXES
 62
7
  6
CONTINUOUS
 66
1
 70
0
  0
VERTEX
  8
02___PRT_ALL_AXES
 62
7
  6
CONTINUOUS
 10
79.8299192836
 20
219.5503303406
  0
VERTEX
  8
02___PRT_ALL_AXES
 62
7
  6
CONTINUOUS
 10
79.8647273584
 20
220.6485156924
  0
VERTEX
  8
02___PRT_ALL_AXES
 62
7
  6
CONTINUOUS
 10
79.9677486785
 20
221.6959941434
  0
VERTEX
  8
02___PRT_ALL_AXES
 62
7
  6
CONTINUOUS
 10
80.139505763
 20
222.6952376024
  0
VERTEX
  8
02___PRT_ALL_AXES
 62
7
  6
CONTINUOUS
 10
80.378431054
 20
223.6388303427
  0
VERTEX
  8
02___PRT_ALL_AXES
 62
7
  6
CONTINUOUS
 10
80.6838160323
 20
224.5215201641
  0
VERTEX
  8
02___PRT_ALL_AXES
 62
7
  6
CONTINUOUS
 10
81.0536061015
 20
225.3392883962
  0
VERTEX
  8
02___PRT_ALL_AXES
 62
7
  6
CONTINUOUS
 10
81.486402216
 20
226.0874555607
  0
VERTEX
  8
02___PRT_ALL_AXES
 62
7
  6
CONTINUOUS
 10
81.9795292038
 20
226.7627518817
  0
VERTEX
  8
02___PRT_ALL_AXES
 62
7
  6
CONTINUOUS
 10
82.5309259739
 20
227.3611658633
  0
VERTEX
  8
02___PRT_ALL_AXES
 62
7
  6
CONTINUOUS
 10
83.1373512369
 20
227.8802431874
  0
VERTEX
  8
02___PRT_ALL_AXES
 62
7
  6
CONTINUOUS
 10
83.7961132457
 20
228.3169310415
  0
SEQEND
  0
LINE
  8
0
 62
7
  6
CONTINUOUS
 10
45.6411640727
 20
220.9174664362
 11
141.1009769676
 21
165.804964576
  0
POLYLINE
  8
02___PRT_ALL_AXES
 62
7
  6
CONTINUOUS
 66
1
 70
0
  0
VERTEX
  8
02___PRT_ALL_AXES
 62
7
  6
CONTINUOUS
 10
83.7961132457
 20
228.3169310415
  0
VERTEX
  8
02___PRT_ALL_AXES
 62
7
  6
CONTINUOUS
 10
84.5035022829
 20
228.669013413
  0
VERTEX
  8
02___PRT_ALL_AXES
 62
7
  6
CONTINUOUS
 10
85.2562399577
 20
228.934671613
  0
VERTEX
  8
02___PRT_ALL_AXES
 62
7
  6
CONTINUOUS
 10
86.0501714463
 20
229.1130054714
  0
VERTEX
  8
02___PRT_ALL_AXES
 62
7
  6
CONTINUOUS
 10
86.8815506502
 20
229.2024350206
  0
VERTEX
  8
02___PRT_ALL_AXES
 62
7
  6
CONTINUOUS
 10
87.7458730032
 20
229.2031809645
  0
VERTEX
  8
02___PRT_ALL_AXES
 62
7
  6
CONTINUOUS
 10
88.638969253
 20
229.1145613353
  0
VERTEX
  8
02___PRT_ALL_AXES
 62
7
  6
CONTINUOUS
 10
89.5560873597
 20
228.9377041794
  0
VERTEX
  8
02___PRT_ALL_AXES
 62
7
  6
CONTINUOUS
 10
90.4927197913
 20
228.6728394119
  0
VERTEX
  8
02___PRT_ALL_AXES
 62
7
  6
CONTINUOUS
 10
91.4439637719
 20
228.3219794578
  0
VERTEX
  8
02___PRT_ALL_AXES
 62
7
  6
CONTINUOUS
 10
92.40506525
 20
227.8862614349
  0
VERTEX
  8
02___PRT_ALL_AXES
 62
7
  6
CONTINUOUS
 10
93.3710705202
 20
227.3685411795
  0
VERTEX
  8
02___PRT_ALL_AXES
 62
7
  6
CONTINUOUS
 10
94.3370757903
 20
226.7708398636
  0
VERTEX
  8
02___PRT_ALL_AXES
 62
7
  6
CONTINUOUS
 10
95.2981772684
 20
226.0967985984
  0
VERTEX
  8
02___PRT_ALL_AXES
 62
7
  6
CONTINUOUS
 10
96.249421249
 20
225.3492814646
  0
VERTEX
  8
02___PRT_ALL_AXES
 62
7
  6
CONTINUOUS
 10
97.1860536806
 20
224.5326407259
  0
VERTEX
  8
02___PRT_ALL_AXES
 62
7
  6
CONTINUOUS
 10
98.1031717874
 20
223.6505250675
  0
VERTEX
  8
02___PRT_ALL_AXES
 62
7
  6
CONTINUOUS
 10
98.9962680372
 20
222.7079093058
  0
VERTEX
  8
02___PRT_ALL_AXES
 62
7
  6
CONTINUOUS
 10
99.8605903901
 20
221.7091524536
  0
VERTEX
  8
02___PRT_ALL_AXES
 62
7
  6
CONTINUOUS
 10
100.691969594
 20
220.6597506076
  0
VERTEX
  8
02___PRT_ALL_AXES
 62
7
  6
CONTINUOUS
 10
101.4859010826
 20
219.5646843711
  0
VERTEX
  8
02___PRT_ALL_AXES
 62
7
  6
CONTINUOUS
 10
102.2386387574
 20
218.429859236
  0
VERTEX
  8
02___PRT_ALL_AXES
 62
7
  6
CONTINUOUS
 10
102.9460172261
 20
217.2607760058
  0
VERTEX
  8
02___PRT_ALL_AXES
 62
7
  6
CONTINUOUS
 10
103.6047898035
 20
216.0636293489
  0
VERTEX
  8
02___PRT_ALL_AXES
 62
7
  6
CONTINUOUS
 10
104.2112150665
 20
214.8443282883
  0
VERTEX
  8
02___PRT_ALL_AXES
 62
7
  6
CONTINUOUS
 10
104.7626118365
 20
213.6092305631
  0
VERTEX
  8
02___PRT_ALL_AXES
 62
7
  6
CONTINUOUS
 10
105.2557388243
 20
212.3645331254
  0
VERTEX
  8
02___PRT_ALL_AXES
 62
7
  6
CONTINUOUS
 10
105.6885349389
 20
211.1166273601
  0
VERTEX
  8
02___PRT_ALL_AXES
 62
7
  6
CONTINUOUS
 10
106.058325008
 20
209.8718719958
  0
VERTEX
  8
02___PRT_ALL_AXES
 62
7
  6
CONTINUOUS
 10
106.3637099863
 20
208.6365619529
  0
VERTEX
  8
02___PRT_ALL_AXES
 62
7
  6
CONTINUOUS
 10
106.6026352774
 20
207.4170882916
  0
VERTEX
  8
02___PRT_ALL_AXES
 62
7
  6
CONTINUOUS
 10
106.7743923619
 20
206.2195213213
  0
VERTEX
  8
02___PRT_ALL_AXES
 62
7
  6
CONTINUOUS
 10
106.8774136819
 20
205.0530867878
  0
VERTEX
  8
02___PRT_ALL_AXES
 62
7
  6
CONTINUOUS
 10
106.9122217567
 20
203.9147094424
  0
SEQEND
  0
LINE
  8
02___PRT_ALL_AXES
 62
7
  6
CONTINUOUS
 10
92.5577883535
 20
226.8987251102
 11
92.5873807989
 21
227.7885513546
  0
POLYLINE
  8
02___PRT_ALL_AXES
 62
7
  6
CONTINUOUS
 66
1
 70
0
  0
VERTEX
  8
02___PRT_ALL_AXES
 62
7
  6
CONTINUOUS
 10
71.1260901631
 20
213.5189426949
  0
VERTEX
  8
02___PRT_ALL_AXES
 62
7
  6
CONTINUOUS
 10
70.4187011258
 20
213.1668603234
  0
VERTEX
  8
02___PRT_ALL_AXES
 62
7
  6
CONTINUOUS
 10
69.665963451
 20
212.9012021234
  0
VERTEX
  8
02___PRT_ALL_AXES
 62
7
  6
CONTINUOUS
 10
68.8720319624
 20
212.722868265
  0
VERTEX
  8
02___PRT_ALL_AXES
 62
7
  6
CONTINUOUS
 10
68.0406527585
 20
212.6334387158
  0
VERTEX
  8
02___PRT_ALL_AXES
 62
7
  6
CONTINUOUS
 10
67.1763304056
 20
212.6326927719
  0
VERTEX
  8
02___PRT_ALL_AXES
 62
7
  6
CONTINUOUS
 10
66.2832341557
 20
212.7213124011
  0
VERTEX
  8
02___PRT_ALL_AXES
 62
7
  6
CONTINUOUS
 10
65.366116049
 20
212.898169557
  0
VERTEX
  8
02___PRT_ALL_AXES
 62
7
  6
CONTINUOUS
 10
64.4294836174
 20
213.1630343245
  0
VERTEX
  8
02___PRT_ALL_AXES
 62
7
  6
CONTINUOUS
 10
63.4782396368
 20
213.5138942786
  0
VERTEX
  8
02___PRT_ALL_AXES
 62
7
  6
CONTINUOUS
 10
62.5171381587
 20
213.9496123015
  0
VERTEX
  8
02___PRT_ALL_AXES
 62
7
  6
CONTINUOUS
 10
61.5511328886
 20
214.4673325569
  0
VERTEX
  8
02___PRT_ALL_AXES
 62
7
  6
CONTINUOUS
 10
60.5851276184
 20
215.0650338728
  0
VERTEX
  8
02___PRT_ALL_AXES
 62
7
  6
CONTINUOUS
 10
59.6240261403
 20
215.739075138
  0
VERTEX
  8
02___PRT_ALL_AXES
 62
7
  6
CONTINUOUS
 10
58.6727821597
 20
216.4865922718
  0
VERTEX
  8
02___PRT_ALL_AXES
 62
7
  6
CONTINUOUS
 10
57.7361497281
 20
217.3032330105
  0
VERTEX
  8
02___PRT_ALL_AXES
 62
7
  6
CONTINUOUS
 10
56.8190316214
 20
218.1853486689
  0
VERTEX
  8
02___PRT_ALL_AXES
 62
7
  6
CONTINUOUS
 10
55.9259353716
 20
219.1279644306
  0
VERTEX
  8
02___PRT_ALL_AXES
 62
7
  6
CONTINUOUS
 10
55.0616130186
 20
220.1267212828
  0
VERTEX
  8
02___PRT_ALL_AXES
 62
7
  6
CONTINUOUS
 10
54.2302338147
 20
221.1761231288
  0
VERTEX
  8
02___PRT_ALL_AXES
 62
7
  6
CONTINUOUS
 10
53.4363023261
 20
222.2711893653
  0
VERTEX
  8
02___PRT_ALL_AXES
 62
7
  6
CONTINUOUS
 10
52.6835646513
 20
223.4060145004
  0
VERTEX
  8
02___PRT_ALL_AXES
 62
7
  6
CONTINUOUS
 10
51.9761861826
 20
224.5750977306
  0
VERTEX
  8
02___PRT_ALL_AXES
 62
7
  6
CONTINUOUS
 10
51.3174136053
 20
225.7722443875
  0
VERTEX
  8
02___PRT_ALL_AXES
 62
7
  6
CONTINUOUS
 10
50.7109883422
 20
226.9915454481
  0
VERTEX
  8
02___PRT_ALL_AXES
 62
7
  6
CONTINUOUS
 10
50.1595915722
 20
228.2266431733
  0
VERTEX
  8
02___PRT_ALL_AXES
 62
7
  6
CONTINUOUS
 10
49.6664645844
 20
229.471340611
  0
VERTEX
  8
02___PRT_ALL_AXES
 62
7
  6
CONTINUOUS
 10
49.2336684698
 20
230.7192463763
  0
VERTEX
  8
02___PRT_ALL_AXES
 62
7
  6
CONTINUOUS
 10
48.8638784007
 20
231.9640017406
  0
VERTEX
  8
02___PRT_ALL_AXES
 62
7
  6
CONTINUOUS
 10
48.5584934224
 20
233.1993117835
  0
VERTEX
  8
02___PRT_ALL_AXES
 62
7
  6
CONTINUOUS
 10
48.3195681313
 20
234.4187854448
  0
VERTEX
  8
02___PRT_ALL_AXES
 62
7
  6
CONTINUOUS
 10
48.1478110468
 20
235.6163524151
  0
VERTEX
  8
02___PRT_ALL_AXES
 62
7
  6
CONTINUOUS
 10
48.0447897268
 20
236.7827869486
  0
VERTEX
  8
02___PRT_ALL_AXES
 62
7
  6
CONTINUOUS
 10
48.009981652
 20
237.921164294
  0
SEQEND
  0
POLYLINE
  8
02___PRT_ALL_AXES
 62
7
  6
CONTINUOUS
 66
1
 70
0
  0
VERTEX
  8
02___PRT_ALL_AXES
 62
7
  6
CONTINUOUS
 10
138.7039777923
 20
184.6547537514
  0
VERTEX
  8
02___PRT_ALL_AXES
 62
7
  6
CONTINUOUS
 10
137.9188772216
 20
185.07424263
  0
VERTEX
  8
02___PRT_ALL_AXES
 62
7
  6
CONTINUOUS
 10
136.9069457225
 20
185.702006613
  0
VERTEX
  8
02___PRT_ALL_AXES
 62
7
  6
CONTINUOUS
 10
135.9006970024
 20
186.4140525558
  0
VERTEX
  8
02___PRT_ALL_AXES
 62
7
  6
CONTINUOUS
 10
134.9056876016
 20
187.2057136012
  0
VERTEX
  8
02___PRT_ALL_AXES
 62
7
  6
CONTINUOUS
 10
133.9275995943
 20
188.073212127
  0
VERTEX
  8
02___PRT_ALL_AXES
 62
7
  6
CONTINUOUS
 10
132.9717391578
 20
189.0110858353
  0
VERTEX
  8
02___PRT_ALL_AXES
 62
7
  6
CONTINUOUS
 10
132.043660733
 20
190.0146584605
  0
VERTEX
  8
02___PRT_ALL_AXES
 62
7
  6
CONTINUOUS
 10
131.1483016033
 20
191.0777942827
  0
VERTEX
  8
02___PRT_ALL_AXES
 62
7
  6
CONTINUOUS
 10
130.2909644996
 20
192.1950228534
  0
VERTEX
  8
02___PRT_ALL_AXES
 62
7
  6
CONTINUOUS
 10
129.4761075202
 20
193.3596720921
  0
VERTEX
  8
02___PRT_ALL_AXES
 62
7
  6
CONTINUOUS
 10
128.7086632316
 20
194.565599568
  0
VERTEX
  8
02___PRT_ALL_AXES
 62
7
  6
CONTINUOUS
 10
127.9925109609
 20
195.8057458837
  0
VERTEX
  8
02___PRT_ALL_AXES
 62
7
  6
CONTINUOUS
 10
127.3321029248
 20
197.0734338379
  0
VERTEX
  8
02___PRT_ALL_AXES
 62
7
  6
CONTINUOUS
 10
126.7306530211
 20
198.3613744112
  0
VERTEX
  8
02___PRT_ALL_AXES
 62
7
  6
CONTINUOUS
 10
126.1920336616
 20
199.6625047894
  0
VERTEX
  8
02___PRT_ALL_AXES
 62
7
  6
CONTINUOUS
 10
125.7187215219
 20
200.9694691562
  0
VERTEX
  8
02___PRT_ALL_AXES
 62
7
  6
CONTINUOUS
 10
125.3139227055
 20
202.2749768559
  0
VERTEX
  8
02___PRT_ALL_AXES
 62
7
  6
CONTINUOUS
 10
124.9793213409
 20
203.5717695918
  0
VERTEX
  8
02___PRT_ALL_AXES
 62
7
  6
CONTINUOUS
 10
124.7173856043
 20
204.8524917283
  0
VERTEX
  8
02___PRT_ALL_AXES
 62
7
  6
CONTINUOUS
 10
124.5289694563
 20
206.1101446266
  0
VERTEX
  8
02___PRT_ALL_AXES
 62
7
  6
CONTINUOUS
 10
124.415959169
 20
207.3340964548
  0
VERTEX
  8
02___PRT_ALL_AXES
 62
7
  6
CONTINUOUS
 10
124.3777259851
 20
208.5278911568
  0
SEQEND
  0
POLYLINE
  8
02___PRT_ALL_AXES
 62
7
  6
CONTINUOUS
 66
1
 70
0
  0
VERTEX
  8
02___PRT_ALL_AXES
 62
7
  6
CONTINUOUS
 10
106.8840401607
 20
203.0255877048
  0
VERTEX
  8
02___PRT_ALL_AXES
 62
7
  6
CONTINUOUS
 10
106.09893959
 20
203.4450765834
  0
VERTEX
  8
02___PRT_ALL_AXES
 62
7
  6
CONTINUOUS
 10
105.0870080908
 20
204.0728405664
  0
VERTEX
  8
02___PRT_ALL_AXES
 62
7
  6
CONTINUOUS
 10
104.0807593708
 20
204.7848865092
  0
VERTEX
  8
02___PRT_ALL_AXES
 62
7
  6
CONTINUOUS
 10
103.08574997
 20
205.5765475546
  0
VERTEX
  8
02___PRT_ALL_AXES
 62
7
  6
CONTINUOUS
 10
102.1076619627
 20
206.4440460804
  0
VERTEX
  8
02___PRT_ALL_AXES
 62
7
  6
CONTINUOUS
 10
101.1518015261
 20
207.3819197887
  0
VERTEX
  8
02___PRT_ALL_AXES
 62
7
  6
CONTINUOUS
 10
100.2237231014
 20
208.385492414
  0
VERTEX
  8
02___PRT_ALL_AXES
 62
7
  6
CONTINUOUS
 10
99.3283639717
 20
209.4486282362
  0
VERTEX
  8
02___PRT_ALL_AXES
 62
7
  6
CONTINUOUS
 10
98.471026868
 20
210.5658568068
  0
VERTEX
  8
02___PRT_ALL_AXES
 62
7
  6
CONTINUOUS
 10
97.6561698886
 20
211.7305060455
  0
VERTEX
  8
02___PRT_ALL_AXES
 62
7
  6
CONTINUOUS
 10
96.8887256
 20
212.9364335215
  0
VERTEX
  8
02___PRT_ALL_AXES
 62
7
  6
CONTINUOUS
 10
96.1725733293
 20
214.1765798372
  0
VERTEX
  8
02___PRT_ALL_AXES
 62
7
  6
CONTINUOUS
 10
95.5121652931
 20
215.4442677913
  0
VERTEX
  8
02___PRT_ALL_AXES
 62
7
  6
CONTINUOUS
 10
94.9107153895
 20
216.7322083646
  0
VERTEX
  8
02___PRT_ALL_AXES
 62
7
  6
CONTINUOUS
 10
94.37209603
 20
218.0333387428
  0
VERTEX
  8
02___PRT_ALL_AXES
 62
7
  6
CONTINUOUS
 10
93.8987838903
 20
219.3403031096
  0
VERTEX
  8
02___PRT_ALL_AXES
 62
7
  6
CONTINUOUS
 10
93.4939850739
 20
220.6458108093
  0
VERTEX
  8
02___PRT_ALL_AXES
 62
7
  6
CONTINUOUS
 10
93.1593837093
 20
221.9426035452
  0
VERTEX
  8
02___PRT_ALL_AXES
 62
7
  6
CONTINUOUS
 10
92.8974479727
 20
223.2233256817
  0
VERTEX
  8
02___PRT_ALL_AXES
 62
7
  6
CONTINUOUS
 10
92.7090318247
 20
224.4809785801
  0
VERTEX
  8
02___PRT_ALL_AXES
 62
7
  6
CONTINUOUS
 10
92.5960215374
 20
225.7049304082
  0
VERTEX
  8
02___PRT_ALL_AXES
 62
7
  6
CONTINUOUS
 10
92.5577883535
 20
226.8987251102
  0
SEQEND
  0
POLYLINE
  8
02___PRT_ALL_AXES
 62
7
  6
CONTINUOUS
 66
1
 70
0
  0
VERTEX
  8
02___PRT_ALL_AXES
 62
7
  6
CONTINUOUS
 10
75.0641025291
 20
221.3964216582
  0
VERTEX
  8
02___PRT_ALL_AXES
 62
7
  6
CONTINUOUS
 10
74.2790019584
 20
221.8159105369
  0
VERTEX
  8
02___PRT_ALL_AXES
 62
7
  6
CONTINUOUS
 10
73.2670704592
 20
222.4436745199
  0
VERTEX
  8
02___PRT_ALL_AXES
 62
7
  6
CONTINUOUS
 10
72.2608217392
 20
223.1557204626
  0
VERTEX
  8
02___PRT_ALL_AXES
 62
7
  6
CONTINUOUS
 10
71.2658123384
 20
223.947381508
  0
VERTEX
  8
02___PRT_ALL_AXES
 62
7
  6
CONTINUOUS
 10
70.2877243311
 20
224.8148800339
  0
VERTEX
  8
02___PRT_ALL_AXES
 62
7
  6
CONTINUOUS
 10
69.3318638945
 20
225.7527537421
  0
VERTEX
  8
02___PRT_ALL_AXES
 62
7
  6
CONTINUOUS
 10
68.4037854698
 20
226.7563263674
  0
VERTEX
  8
02___PRT_ALL_AXES
 62
7
  6
CONTINUOUS
 10
67.5084263401
 20
227.8194621896
  0
VERTEX
  8
02___PRT_ALL_AXES
 62
7
  6
CONTINUOUS
 10
66.6510892364
 20
228.9366907602
  0
VERTEX
  8
02___PRT_ALL_AXES
 62
7
  6
CONTINUOUS
 10
65.836232257
 20
230.1013399989
  0
VERTEX
  8
02___PRT_ALL_AXES
 62
7
  6
CONTINUOUS
 10
65.0687879684
 20
231.3072674749
  0
VERTEX
  8
02___PRT_ALL_AXES
 62
7
  6
CONTINUOUS
 10
64.3526356977
 20
232.5474137906
  0
VERTEX
  8
02___PRT_ALL_AXES
 62
7
  6
CONTINUOUS
 10
63.6922276615
 20
233.8151017447
  0
VERTEX
  8
02___PRT_ALL_AXES
 62
7
  6
CONTINUOUS
 10
63.0907777579
 20
235.103042318
  0
VERTEX
  8
02___PRT_ALL_AXES
 62
7
  6
CONTINUOUS
 10
62.5521583984
 20
236.4041726962
  0
VERTEX
  8
02___PRT_ALL_AXES
 62
7
  6
CONTINUOUS
 10
62.0788462587
 20
237.711137063
  0
VERTEX
  8
02___PRT_ALL_AXES
 62
7
  6
CONTINUOUS
 10
61.6740474423
 20
239.0166447627
  0
VERTEX
  8
02___PRT_ALL_AXES
 62
7
  6
CONTINUOUS
 10
61.3394460777
 20
240.3134374987
  0
VERTEX
  8
02___PRT_ALL_AXES
 62
7
  6
CONTINUOUS
 10
61.077510341
 20
241.5941596352
  0
VERTEX
  8
02___PRT_ALL_AXES
 62
7
  6
CONTINUOUS
 10
60.8890941931
 20
242.8518125335
  0
VERTEX
  8
02___PRT_ALL_AXES
 62
7
  6
CONTINUOUS
 10
60.7760839058
 20
244.0757643616
  0
VERTEX
  8
02___PRT_ALL_AXES
 62
7
  6
CONTINUOUS
 10
60.7378507218
 20
245.2695590637
  0
SEQEND
  0
LINE
  8
0
 62
7
  6
CONTINUOUS
 10
115.5035531035
 20
224.5109558543
 11
109.281039336
 21
220.9184073002
  0
LINE
  8
0
 62
7
  6
CONTINUOUS
 10
109.281039336
 20
220.9184073002
 11
109.281039336
 21
184.1757985294
  0
POLYLINE
  8
02___PRT_ALL_AXES
 62
7
  6
CONTINUOUS
 66
1
 70
0
  0
VERTEX
  8
02___PRT_ALL_AXES
 62
7
  6
CONTINUOUS
 10
106.9122217567
 20
203.9147094424
  0
VERTEX
  8
02___PRT_ALL_AXES
 62
7
  6
CONTINUOUS
 10
106.8774136819
 20
202.8165240906
  0
VERTEX
  8
02___PRT_ALL_AXES
 62
7
  6
CONTINUOUS
 10
106.7743923619
 20
201.7690456396
  0
VERTEX
  8
02___PRT_ALL_AXES
 62
7
  6
CONTINUOUS
 10
106.6026352774
 20
200.7698021806
  0
VERTEX
  8
02___PRT_ALL_AXES
 62
7
  6
CONTINUOUS
 10
106.3637099863
 20
199.8262094403
  0
VERTEX
  8
02___PRT_ALL_AXES
 62
7
  6
CONTINUOUS
 10
106.058325008
 20
198.9435196189
  0
VERTEX
  8
02___PRT_ALL_AXES
 62
7
  6
CONTINUOUS
 10
105.6885349389
 20
198.1257513867
  0
VERTEX
  8
02___PRT_ALL_AXES
 62
7
  6
CONTINUOUS
 10
105.2557388243
 20
197.3775842223
  0
VERTEX
  8
02___PRT_ALL_AXES
 62
7
  6
CONTINUOUS
 10
104.7626118365
 20
196.7022879013
  0
VERTEX
  8
02___PRT_ALL_AXES
 62
7
  6
CONTINUOUS
 10
104.2112150665
 20
196.1038739197
  0
VERTEX
  8
02___PRT_ALL_AXES
 62
7
  6
CONTINUOUS
 10
103.6047898035
 20
195.5847965956
  0
VERTEX
  8
02___PRT_ALL_AXES
 62
7
  6
CONTINUOUS
 10
102.9460277947
 20
195.1481087415
  0
SEQEND
  0
POLYLINE
  8
02___PRT_ALL_AXES
 62
7
  6
CONTINUOUS
 66
1
 70
0
  0
VERTEX
  8
02___PRT_ALL_AXES
 62
7
  6
CONTINUOUS
 10
111.6498569152
 20
201.1794963871
  0
VERTEX
  8
02___PRT_ALL_AXES
 62
7
  6
CONTINUOUS
 10
111.6846649901
 20
202.277681739
  0
VERTEX
  8
02___PRT_ALL_AXES
 62
7
  6
CONTINUOUS
 10
111.7876863101
 20
203.32516019
  0
VERTEX
  8
02___PRT_ALL_AXES
 62
7
  6
CONTINUOUS
 10
111.9594433946
 20
204.324403649
  0
VERTEX
  8
02___PRT_ALL_AXES
 62
7
  6
CONTINUOUS
 10
112.1983686856
 20
205.2679963893
  0
VERTEX
  8
02___PRT_ALL_AXES
 62
7
  6
CONTINUOUS
 10
112.5037536639
 20
206.1506862107
  0
VERTEX
  8
02___PRT_ALL_AXES
 62
7
  6
CONTINUOUS
 10
112.8735437331
 20
206.9684544428
  0
VERTEX
  8
02___PRT_ALL_AXES
 62
7
  6
CONTINUOUS
 10
113.3063398476
 20
207.7166216073
  0
VERTEX
  8
02___PRT_ALL_AXES
 62
7
  6
CONTINUOUS
 10
113.7994668354
 20
208.3919179283
  0
VERTEX
  8
02___PRT_ALL_AXES
 62
7
  6
CONTINUOUS
 10
114.3508636055
 20
208.9903319099
  0
VERTEX
  8
02___PRT_ALL_AXES
 62
7
  6
CONTINUOUS
 10
114.9572888685
 20
209.509409234
  0
VERTEX
  8
02___PRT_ALL_AXES
 62
7
  6
CONTINUOUS
 10
115.6160508773
 20
209.9460970881
  0
SEQEND
  0
LINE
  8
0
 62
7
  6
CONTINUOUS
 10
141.1009769676
 20
202.5475733468
 11
45.6411640727
 21
257.660075207
  0
LINE
  8
0
 62
7
  6
CONTINUOUS
 10
147.3234907351
 20
206.1401219009
 11
51.8636778402
 21
261.2526237611
  0
POLYLINE
  8
02___PRT_ALL_AXES
 62
7
  6
CONTINUOUS
 66
1
 70
0
  0
VERTEX
  8
02___PRT_ALL_AXES
 62
7
  6
CONTINUOUS
 10
115.6160508773
 20
209.9460970881
  0
VERTEX
  8
02___PRT_ALL_AXES
 62
7
  6
CONTINUOUS
 10
116.3234399145
 20
210.2981794596
  0
VERTEX
  8
02___PRT_ALL_AXES
 62
7
  6
CONTINUOUS
 10
117.0761775893
 20
210.5638376596
  0
VERTEX
  8
02___PRT_ALL_AXES
 62
7
  6
CONTINUOUS
 10
117.870109078
 20
210.742171518
  0
VERTEX
  8
02___PRT_ALL_AXES
 62
7
  6
CONTINUOUS
 10
118.7014882818
 20
210.8316010672
  0
VERTEX
  8
02___PRT_ALL_AXES
 62
7
  6
CONTINUOUS
 10
119.5658106348
 20
210.8323470111
  0
VERTEX
  8
02___PRT_ALL_AXES
 62
7
  6
CONTINUOUS
 10
120.4589068846
 20
210.7437273819
  0
VERTEX
  8
02___PRT_ALL_AXES
 62
7
  6
CONTINUOUS
 10
121.3760249913
 20
210.5668702259
  0
VERTEX
  8
02___PRT_ALL_AXES
 62
7
  6
CONTINUOUS
 10
122.3126574229
 20
210.3020054585
  0
VERTEX
  8
02___PRT_ALL_AXES
 62
7
  6
CONTINUOUS
 10
123.2639014035
 20
209.9511455044
  0
VERTEX
  8
02___PRT_ALL_AXES
 62
7
  6
CONTINUOUS
 10
124.2250028816
 20
209.5154274815
  0
VERTEX
  8
02___PRT_ALL_AXES
 62
7
  6
CONTINUOUS
 10
125.1910081518
 20
208.9977072261
  0
VERTEX
  8
02___PRT_ALL_AXES
 62
7
  6
CONTINUOUS
 10
126.1570134219
 20
208.4000059102
  0
VERTEX
  8
02___PRT_ALL_AXES
 62
7
  6
CONTINUOUS
 10
127.1181149
 20
207.725964645
  0
VERTEX
  8
02___PRT_ALL_AXES
 62
7
  6
CONTINUOUS
 10
128.0693588806
 20
206.9784475112
  0
VERTEX
  8
02___PRT_ALL_AXES
 62
7
  6
CONTINUOUS
 10
129.0059913122
 20
206.1618067725
  0
VERTEX
  8
02___PRT_ALL_AXES
 62
7
  6
CONTINUOUS
 10
129.923109419
 20
205.2796911141
  0
VERTEX
  8
02___PRT_ALL_AXES
 62
7
  6
CONTINUOUS
 10
130.8162056688
 20
204.3370753524
  0
VERTEX
  8
02___PRT_ALL_AXES
 62
7
  6
CONTINUOUS
 10
131.6805280218
 20
203.3383185002
  0
VERTEX
  8
02___PRT_ALL_AXES
 62
7
  6
CONTINUOUS
 10
132.5119072256
 20
202.2889166542
  0
VERTEX
  8
02___PRT_ALL_AXES
 62
7
  6
CONTINUOUS
 10
133.3058387142
 20
201.1938504177
  0
VERTEX
  8
02___PRT_ALL_AXES
 62
7
  6
CONTINUOUS
 10
134.058576389
 20
200.0590252826
  0
VERTEX
  8
02___PRT_ALL_AXES
 62
7
  6
CONTINUOUS
 10
134.7659548577
 20
198.8899420524
  0
VERTEX
  8
02___PRT_ALL_AXES
 62
7
  6
CONTINUOUS
 10
135.4247274351
 20
197.6927953955
  0
VERTEX
  8
02___PRT_ALL_AXES
 62
7
  6
CONTINUOUS
 10
136.0311526981
 20
196.4734943348
  0
VERTEX
  8
02___PRT_ALL_AXES
 62
7
  6
CONTINUOUS
 10
136.5825494681
 20
195.2383966097
  0
VERTEX
  8
02___PRT_ALL_AXES
 62
7
  6
CONTINUOUS
 10
137.0756764559
 20
193.993699172
  0
VERTEX
  8
02___PRT_ALL_AXES
 62
7
  6
CONTINUOUS
 10
137.5084725705
 20
192.7457934067
  0
VERTEX
  8
02___PRT_ALL_AXES
 62
7
  6
CONTINUOUS
 10
137.8782626396
 20
191.5010380423
  0
VERTEX
  8
02___PRT_ALL_AXES
 62
7
  6
CONTINUOUS
 10
138.1836476179
 20
190.2657279995
  0
VERTEX
  8
02___PRT_ALL_AXES
 62
7
  6
CONTINUOUS
 10
138.422572909
 20
189.0462543381
  0
VERTEX
  8
02___PRT_ALL_AXES
 62
7
  6
CONTINUOUS
 10
138.5943299935
 20
187.8486873679
  0
VERTEX
  8
02___PRT_ALL_AXES
 62
7
  6
CONTINUOUS
 10
138.6973513135
 20
186.6822528344
  0
VERTEX
  8
02___PRT_ALL_AXES
 62
7
  6
CONTINUOUS
 10
138.7321593883
 20
185.543875489
  0
SEQEND
  0
LINE
  8
02___PRT_ALL_AXES
 62
7
  6
CONTINUOUS
 10
124.3777259851
 20
208.5278911568
 11
124.4073184305
 21
209.4177174012
  0
POLYLINE
  8
02___PRT_ALL_AXES
 62
7
  6
CONTINUOUS
 66
1
 70
0
  0
VERTEX
  8
02___PRT_ALL_AXES
 62
7
  6
CONTINUOUS
 10
102.9460277947
 20
195.1481087415
  0
VERTEX
  8
02___PRT_ALL_AXES
 62
7
  6
CONTINUOUS
 10
102.2386387574
 20
194.7960263699
  0
VERTEX
  8
02___PRT_ALL_AXES
 62
7
  6
CONTINUOUS
 10
101.4859010826
 20
194.53036817
  0
VERTEX
  8
02___PRT_ALL_AXES
 62
7
  6
CONTINUOUS
 10
100.691969594
 20
194.3520343116
  0
VERTEX
  8
02___PRT_ALL_AXES
 62
7
  6
CONTINUOUS
 10
99.8605903901
 20
194.2626047623
  0
VERTEX
  8
02___PRT_ALL_AXES
 62
7
  6
CONTINUOUS
 10
98.9962680372
 20
194.2618588185
  0
VERTEX
  8
02___PRT_ALL_AXES
 62
7
  6
CONTINUOUS
 10
98.1031717874
 20
194.3504784476
  0
VERTEX
  8
02___PRT_ALL_AXES
 62
7
  6
CONTINUOUS
 10
97.1860536806
 20
194.5273356036
  0
VERTEX
  8
02___PRT_ALL_AXES
 62
7
  6
CONTINUOUS
 10
96.249421249
 20
194.7922003711
  0
VERTEX
  8
02___PRT_ALL_AXES
 62
7
  6
CONTINUOUS
 10
95.2981772684
 20
195.1430603252
  0
VERTEX
  8
02___PRT_ALL_AXES
 62
7
  6
CONTINUOUS
 10
94.3370757903
 20
195.5787783481
  0
VERTEX
  8
02___PRT_ALL_AXES
 62
7
  6
CONTINUOUS
 10
93.3710705202
 20
196.0964986035
  0
VERTEX
  8
02___PRT_ALL_AXES
 62
7
  6
CONTINUOUS
 10
92.40506525
 20
196.6941999194
  0
VERTEX
  8
02___PRT_ALL_AXES
 62
7
  6
CONTINUOUS
 10
91.4439637719
 20
197.3682411846
  0
VERTEX
  8
02___PRT_ALL_AXES
 62
7
  6
CONTINUOUS
 10
90.4927197913
 20
198.1157583184
  0
VERTEX
  8
02___PRT_ALL_AXES
 62
7
  6
CONTINUOUS
 10
89.5560873597
 20
198.9323990571
  0
VERTEX
  8
02___PRT_ALL_AXES
 62
7
  6
CONTINUOUS
 10
88.638969253
 20
199.8145147155
  0
VERTEX
  8
02___PRT_ALL_AXES
 62
7
  6
CONTINUOUS
 10
87.7458730032
 20
200.7571304772
  0
VERTEX
  8
02___PRT_ALL_AXES
 62
7
  6
CONTINUOUS
 10
86.8815506502
 20
201.7558873293
  0
VERTEX
  8
02___PRT_ALL_AXES
 62
7
  6
CONTINUOUS
 10
86.0501714463
 20
202.8052891754
  0
VERTEX
  8
02___PRT_ALL_AXES
 62
7
  6
CONTINUOUS
 10
85.2562399577
 20
203.9003554119
  0
VERTEX
  8
02___PRT_ALL_AXES
 62
7
  6
CONTINUOUS
 10
84.5035022829
 20
205.035180547
  0
VERTEX
  8
02___PRT_ALL_AXES
 62
7
  6
CONTINUOUS
 10
83.7961238142
 20
206.2042637772
  0
VERTEX
  8
02___PRT_ALL_AXES
 62
7
  6
CONTINUOUS
 10
83.1373512369
 20
207.4014104341
  0
VERTEX
  8
02___PRT_ALL_AXES
 62
7
  6
CONTINUOUS
 10
82.5309259739
 20
208.6207114947
  0
VERTEX
  8
02___PRT_ALL_AXES
 62
7
  6
CONTINUOUS
 10
81.9795292038
 20
209.8558092199
  0
VERTEX
  8
02___PRT_ALL_AXES
 62
7
  6
CONTINUOUS
 10
81.486402216
 20
211.1005066575
  0
VERTEX
  8
02___PRT_ALL_AXES
 62
7
  6
CONTINUOUS
 10
81.0536061015
 20
212.3484124229
  0
VERTEX
  8
02___PRT_ALL_AXES
 62
7
  6
CONTINUOUS
 10
80.6838160323
 20
213.5931677872
  0
VERTEX
  8
02___PRT_ALL_AXES
 62
7
  6
CONTINUOUS
 10
80.378431054
 20
214.8284778301
  0
VERTEX
  8
02___PRT_ALL_AXES
 62
7
  6
CONTINUOUS
 10
80.139505763
 20
216.0479514914
  0
VERTEX
  8
02___PRT_ALL_AXES
 62
7
  6
CONTINUOUS
 10
79.9677486785
 20
217.2455184617
  0
VERTEX
  8
02___PRT_ALL_AXES
 62
7
  6
CONTINUOUS
 10
79.8647273584
 20
218.4119529952
  0
VERTEX
  8
02___PRT_ALL_AXES
 62
7
  6
CONTINUOUS
 10
79.8299192836
 20
219.5503303406
  0
SEQEND
  0
LINE
  8
0
 62
7
  6
CONTINUOUS
 10
167.1930938409
 20
217.6117388528
 11
141.1009769676
 21
202.5475733468
  0
LINE
  8
0
 62
7
  6
CONTINUOUS
 10
167.1930938409
 20
217.6117388528
 11
75.2688295718
 21
270.6830369404
  0
LINE
  8
0
 62
7
  6
CONTINUOUS
 10
141.1009769676
 20
165.804964576
 11
141.1009769676
 21
202.5475733468
  0
POLYLINE
  8
02___PRT_ALL_AXES
 62
7
  6
CONTINUOUS
 66
1
 70
0
  0
VERTEX
  8
02___PRT_ALL_AXES
 62
7
  6
CONTINUOUS
 10
138.7321593883
 20
185.543875489
  0
VERTEX
  8
02___PRT_ALL_AXES
 62
7
  6
CONTINUOUS
 10
138.6973513135
 20
184.4456901372
  0
VERTEX
  8
02___PRT_ALL_AXES
 62
7
  6
CONTINUOUS
 10
138.5943299935
 20
183.3982116862
  0
VERTEX
  8
02___PRT_ALL_AXES
 62
7
  6
CONTINUOUS
 10
138.422572909
 20
182.3989682272
  0
VERTEX
  8
02___PRT_ALL_AXES
 62
7
  6
CONTINUOUS
 10
138.1836476179
 20
181.4553754868
  0
VERTEX
  8
02___PRT_ALL_AXES
 62
7
  6
CONTINUOUS
 10
137.8782626396
 20
180.5726856655
  0
VERTEX
  8
02___PRT_ALL_AXES
 62
7
  6
CONTINUOUS
 10
137.5084725705
 20
179.7549174333
  0
VERTEX
  8
02___PRT_ALL_AXES
 62
7
  6
CONTINUOUS
 10
137.0756764559
 20
179.0067502689
  0
VERTEX
  8
02___PRT_ALL_AXES
 62
7
  6
CONTINUOUS
 10
136.5825494681
 20
178.3314539479
  0
VERTEX
  8
02___PRT_ALL_AXES
 62
7
  6
CONTINUOUS
 10
136.0311526981
 20
177.7330399663
  0
VERTEX
  8
02___PRT_ALL_AXES
 62
7
  6
CONTINUOUS
 10
135.4247274351
 20
177.2139626422
  0
VERTEX
  8
02___PRT_ALL_AXES
 62
7
  6
CONTINUOUS
 10
134.7659654263
 20
176.7772747881
  0
SEQEND
  0
LINE
  8
0
 62
7
  6
CONTINUOUS
 10
147.3234907351
 20
169.39751313
 11
147.3234907351
 21
206.1401219009
  0
POLYLINE
  8
02___PRT_ALL_AXES
 62
7
  6
CONTINUOUS
 66
1
 70
0
  0
VERTEX
  8
02___PRT_ALL_AXES
 62
7
  6
CONTINUOUS
 10
134.7659654263
 20
176.7772747881
  0
VERTEX
  8
02___PRT_ALL_AXES
 62
7
  6
CONTINUOUS
 10
134.058576389
 20
176.4251924165
  0
VERTEX
  8
02___PRT_ALL_AXES
 62
7
  6
CONTINUOUS
 10
133.3058387142
 20
176.1595342166
  0
VERTEX
  8
02___PRT_ALL_AXES
 62
7
  6
CONTINUOUS
 10
132.5119072256
 20
175.9812003582
  0
VERTEX
  8
02___PRT_ALL_AXES
 62
7
  6
CONTINUOUS
 10
131.6805280218
 20
175.8917708089
  0
VERTEX
  8
02___PRT_ALL_AXES
 62
7
  6
CONTINUOUS
 10
130.8162056688
 20
175.8910248651
  0
VERTEX
  8
02___PRT_ALL_AXES
 62
7
  6
CONTINUOUS
 10
129.923109419
 20
175.9796444942
  0
VERTEX
  8
02___PRT_ALL_AXES
 62
7
  6
CONTINUOUS
 10
129.0059913122
 20
176.1565016502
  0
VERTEX
  8
02___PRT_ALL_AXES
 62
7
  6
CONTINUOUS
 10
128.0693588806
 20
176.4213664177
  0
VERTEX
  8
02___PRT_ALL_AXES
 62
7
  6
CONTINUOUS
 10
127.1181149
 20
176.7722263718
  0
VERTEX
  8
02___PRT_ALL_AXES
 62
7
  6
CONTINUOUS
 10
126.1570134219
 20
177.2079443947
  0
VERTEX
  8
02___PRT_ALL_AXES
 62
7
  6
CONTINUOUS
 10
125.1910081518
 20
177.72566465
  0
VERTEX
  8
02___PRT_ALL_AXES
 62
7
  6
CONTINUOUS
 10
124.2250028816
 20
178.323365966
  0
VERTEX
  8
02___PRT_ALL_AXES
 62
7
  6
CONTINUOUS
 10
123.2639014035
 20
178.9974072312
  0
VERTEX
  8
02___PRT_ALL_AXES
 62
7
  6
CONTINUOUS
 10
122.3126574229
 20
179.744924365
  0
VERTEX
  8
02___PRT_ALL_AXES
 62
7
  6
CONTINUOUS
 10
121.3760249913
 20
180.5615651036
  0
VERTEX
  8
02___PRT_ALL_AXES
 62
7
  6
CONTINUOUS
 10
120.4589068846
 20
181.4436807621
  0
VERTEX
  8
02___PRT_ALL_AXES
 62
7
  6
CONTINUOUS
 10
119.5658106348
 20
182.3862965238
  0
VERTEX
  8
02___PRT_ALL_AXES
 62
7
  6
CONTINUOUS
 10
118.7014882818
 20
183.3850533759
  0
VERTEX
  8
02___PRT_ALL_AXES
 62
7
  6
CONTINUOUS
 10
117.870109078
 20
184.434455222
  0
VERTEX
  8
02___PRT_ALL_AXES
 62
7
  6
CONTINUOUS
 10
117.0761775893
 20
185.5295214585
  0
VERTEX
  8
02___PRT_ALL_AXES
 62
7
  6
CONTINUOUS
 10
116.3234399145
 20
186.6643465936
  0
VERTEX
  8
02___PRT_ALL_AXES
 62
7
  6
CONTINUOUS
 10
115.6160614459
 20
187.8334298237
  0
VERTEX
  8
02___PRT_ALL_AXES
 62
7
  6
CONTINUOUS
 10
114.9572888685
 20
189.0305764807
  0
VERTEX
  8
02___PRT_ALL_AXES
 62
7
  6
CONTINUOUS
 10
114.3508636055
 20
190.2498775413
  0
VERTEX
  8
02___PRT_ALL_AXES
 62
7
  6
CONTINUOUS
 10
113.7994668354
 20
191.4849752664
  0
VERTEX
  8
02___PRT_ALL_AXES
 62
7
  6
CONTINUOUS
 10
113.3063398476
 20
192.7296727041
  0
VERTEX
  8
02___PRT_ALL_AXES
 62
7
  6
CONTINUOUS
 10
112.8735437331
 20
193.9775784695
  0
VERTEX
  8
02___PRT_ALL_AXES
 62
7
  6
CONTINUOUS
 10
112.5037536639
 20
195.2223338338
  0
VERTEX
  8
02___PRT_ALL_AXES
 62
7
  6
CONTINUOUS
 10
112.1983686856
 20
196.4576438767
  0
VERTEX
  8
02___PRT_ALL_AXES
 62
7
  6
CONTINUOUS
 10
111.9594433946
 20
197.677117538
  0
VERTEX
  8
02___PRT_ALL_AXES
 62
7
  6
CONTINUOUS
 10
111.7876863101
 20
198.8746845083
  0
VERTEX
  8
02___PRT_ALL_AXES
 62
7
  6
CONTINUOUS
 10
111.6846649901
 20
200.0411190418
  0
VERTEX
  8
02___PRT_ALL_AXES
 62
7
  6
CONTINUOUS
 10
111.6498569152
 20
201.1794963871
  0
SEQEND
  0
LINE
  8
0
 62
7
  6
CONTINUOUS
 10
167.1930938409
 20
184.9516421676
 11
147.3234907351
 21
173.4799899423
  0
LINE
  8
0
 62
7
  6
CONTINUOUS
 10
167.1930938409
 20
184.9516421676
 11
167.1930938409
 21
217.6117388528
  0
LINE
  8
0
 62
7
  6
CONTINUOUS
 10
147.3234907351
 20
169.39751313
 11
141.1009769676
 21
165.804964576
  0
LINE
  8
0
 62
7
  6
CONTINUOUS
 10
7.9266078142
 20
118.8465527658
 11
7.9266078142
 21
73.8465527658
  0
LINE
  8
0
 62
7
  6
CONTINUOUS
 10
52.9266078142
 20
118.8465527658
 11
52.9266078142
 21
73.8465527658
  0
LINE
  8
0
 62
7
  6
CONTINUOUS
 10
7.9266078142
 20
73.8465527658
 11
142.9266078142
 21
73.8465527658
  0
LINE
  8
0
 62
7
  6
CONTINUOUS
 10
97.9266078142
 20
118.8465527658
 11
97.9266078142
 21
73.8465527658
  0
LINE
  8
0
 62
7
  6
CONTINUOUS
 10
142.9266078142
 20
118.8465527658
 11
7.9266078142
 21
118.8465527658
  0
LINE
  8
0
 62
7
  6
CONTINUOUS
 10
142.9266078142
 20
73.8465527658
 11
142.9266078142
 21
118.8465527658
  0
LINE
  8
0
 62
7
  6
CONTINUOUS
 10
188.4901416488
 20
73.8465527658
 11
197.2901416488
 21
73.8465527658
  0
LINE
  8
0
 62
7
  6
CONTINUOUS
 10
157.8901416488
 20
116.3465527658
 11
157.8901416488
 21
76.3465527658
  0
LINE
  8
0
 62
7
  6
CONTINUOUS
 10
157.8901416488
 20
76.3465527658
 11
188.4901416488
 21
76.3465527658
  0
LINE
  8
0
 62
7
  6
CONTINUOUS
 10
188.4901416488
 20
118.8465527658
 11
188.4901416488
 21
73.8465527658
  0
LINE
  8
0
 62
7
  6
CONTINUOUS
 10
197.2901416488
 20
118.8465527658
 11
197.2901416488
 21
73.8465527658
  0
LINE
  8
0
 62
7
  6
CONTINUOUS
 10
157.8901416488
 20
116.3465527658
 11
188.4901416488
 21
116.3465527658
  0
LINE
  8
0
 62
7
  6
CONTINUOUS
 10
188.4901416488
 20
118.8465527658
 11
197.2901416488
 21
118.8465527658
  0
LINE
  8
0
 62
7
  6
CONTINUOUS
 10
7.9266078142
 20
13.6340602376
 11
7.9266078142
 21
4.8340602376
  0
LINE
  8
0
 62
7
  6
CONTINUOUS
 10
10.4266078142
 20
44.2340602376
 11
10.4266078142
 21
13.6340602376
  0
LINE
  8
0
 62
7
  6
CONTINUOUS
 10
52.9266078142
 20
13.6340602376
 11
52.9266078142
 21
4.8340602376
  0
LINE
  8
0
 62
7
  6
CONTINUOUS
 10
142.9266078142
 20
4.8340602376
 11
7.9266078142
 21
4.8340602376
  0
LINE
  8
0
 62
7
  6
CONTINUOUS
 10
142.9266078142
 20
13.6340602376
 11
7.9266078142
 21
13.6340602376
  0
LINE
  8
0
 62
7
  6
CONTINUOUS
 10
97.9266078142
 20
13.6340602376
 11
97.9266078142
 21
4.8340602376
  0
LINE
  8
0
 62
7
  6
CONTINUOUS
 10
140.4266078142
 20
44.2340602376
 11
10.4266078142
 21
44.2340602376
  0
LINE
  8
0
 62
7
  6
CONTINUOUS
 10
140.4266078142
 20
44.2340602376
 11
140.4266078142
 21
13.6340602376
  0
LINE
  8
0
 62
7
  6
CONTINUOUS
 10
142.9266078142
 20
13.6340602376
 11
142.9266078142
 21
4.8340602376
  0
CIRCLE
  8
02___PRT_ALL_AXES
 62
7
  6
CONTINUOUS
 10
120.4266078142
 20
96.3465527658
 40
19.15
  0
CIRCLE
  8
02___PRT_ALL_AXES
 62
7
  6
CONTINUOUS
 10
75.4266078142
 20
96.3465527658
 40
19.15
  0
CIRCLE
  8
02___PRT_ALL_AXES
 62
7
  6
CONTINUOUS
 10
30.4266078142
 20
96.3465527658
 40
19.15
  0
ARC
  8
0
 62
2
  6
CONTINUOUS
 10
120.4266078142
 20
96.3465527658
 40
19.15
 50
314.1811152407
 51
360.0
  0
CIRCLE
  8
02___PRT_ALL_AXES
 62
7
  6
CONTINUOUS
 10
128.4266078142
 20
88.3465527658
 40
2.85
  0
CIRCLE
  8
02___PRT_ALL_AXES
 62
7
  6
CONTINUOUS
 10
112.4266078142
 20
104.3465527658
 40
2.85
  0
CIRCLE
  8
02___PRT_ALL_AXES
 62
7
  6
CONTINUOUS
 10
83.4266078142
 20
88.3465527658
 40
2.85
  0
CIRCLE
  8
02___PRT_ALL_AXES
 62
7
  6
CONTINUOUS
 10
67.4266078142
 20
104.3465527658
 40
2.85
  0
CIRCLE
  8
02___PRT_ALL_AXES
 62
7
  6
CONTINUOUS
 10
38.4266078142
 20
88.3465527658
 40
2.85
  0
CIRCLE
  8
02___PRT_ALL_AXES
 62
7
  6
CONTINUOUS
 10
22.4266078142
 20
104.3465527658
 40
2.85
  0
ENDSEC
  0
EOF
