999
DXF file: GT451.dxf
999
Pro/ENGINEER 2021304 by Parametric Technology Corporation
  0
SECTION
  2
HEADER
  9
$EXTMAX
 10
210.0
 20
297.0
 30
0.0
  9
$EXTMIN
 10
0.0
 20
0.0
 30
0.0
  9
$LIMMIN
 10
0.0
 20
0.0
  9
$LIMMAX
 10
210.0
 20
297.0
  9
$VIEWCTR
 10
105.0
 20
148.5
  9
$VIEWSIZE
 40
297.0
  9
$CLAYER
  8
0
  9
$LTSCALE
 40
19.36
  9
$CELTYPE
  6
BYLAYER
  9
$DIMSCALE
 40
1.0
  9
$DIMASZ
 40
3.5
  9
$DIMEXO
 40
0.0
  9
$DIMDLI
 40
13.376
  9
$DIMEXE
 40
1.5
  9
$DIMCEN
 40
3.168
  9
$DIMLFAC
 40
1.0
  9
$DIMBLK
  1
_FILLED
  9
$DIMALT
 70
0
  9
$DIMALTF
 40
0.0393700787
  9
$DIMTXT
 40
3.0
  9
$AUNITS
 70
0
  9
$PDMODE
 70
3
  9
$PDSIZE
 40
0.3125
  9
$TILEMODE
 70
1
  0
ENDSEC
  0
SECTION
  2
TABLES
  0
TABLE
  2
LTYPE
 70
6
  0
LTYPE
  2
BYBLOCK
 70
0
  3

 72
65
 73
0
 40
0.0
  0
LTYPE
  2
BYLAYER
 70
0
  3

 72
65
 73
0
 40
0.0
  0
LTYPE
  2
CONTINUOUS
 70
64
  3
Solid line
 72
65
 73
0
 40
0.0
  0
LTYPE
  2
CENTER
 70
64
  3
____ _ ____ _ ____ _ ____ _ ____ _ ____ _ ____
 72
65
 73
4
 40
0.6
 49
0.375
 49
-0.075
 49
0.075
 49
-0.075
  0
LTYPE
  2
HIDDEN
 70
64
  3
- - - - - - - - - - - - - - - - - - - -
 72
65
 73
2
 40
0.2
 49
0.1
 49
-0.1
  0
LTYPE
  2
PHANTOM
 70
64
  3
_____ _ _ _____ _ _ _____ _ _ _____
 72
65
 73
6
 40
0.8
 49
0.45
 49
-0.05
 49
0.1
 49
-0.05
 49
0.1
 49
-0.05
  0
LTYPE
  2
DOT
 70
64
  3
. . . . . . . . . . . . . . . . . . . .
 72
65
 73
2
 40
0.2
 49
0.1
 49
-0.1
  0
LTYPE
  2
DASHED
 70
64
  3
- - - - - - - - - - - - - - - - - - - -
 72
65
 73
2
 40
0.2
 49
0.1
 49
-0.1
  0
ENDTAB
  0
TABLE
  2
LAYER
 70
36
  0
LAYER
  2
0
 70
0
 62
7
  6
CONTINUOUS
  0
LAYER
  2
DEFAULT_1
 70
0
 62
7
  6
CENTER
  0
LAYER
  2
DEFAULT_2
 70
0
 62
8
  6
HIDDEN
  0
LAYER
  2
DEFAULT_3
 70
0
 62
7
  6
PHANTOM
  0
LAYER
  2
01_ALL_DTM_PLN
 70
0
 62
7
  6
CONTINUOUS
  0
LAYER
  2
01_STARTBEZUEGE
 70
0
 62
7
  6
CONTINUOUS
  0
LAYER
  2
01__ASM_ALL_DTM_PLN
 70
0
 62
7
  6
CONTINUOUS
  0
LAYER
  2
01__ASM_DEF_DTM_PLN
 70
0
 62
7
  6
CONTINUOUS
  0
LAYER
  2
01___PRT_ALL_DTM_PLN
 70
0
 62
7
  6
CONTINUOUS
  0
LAYER
  2
01___PRT_DEF_DTM_PLN
 70
0
 62
7
  6
CONTINUOUS
  0
LAYER
  2
02_ALL_AXES
 70
0
 62
7
  6
CONTINUOUS
  0
LAYER
  2
02__ASM_ALL_AXES
 70
0
 62
7
  6
CONTINUOUS
  0
LAYER
  2
02___PRT_ALL_AXES
 70
0
 62
7
  6
CONTINUOUS
  0
LAYER
  2
03_ALL_CURVES
 70
0
 62
7
  6
CONTINUOUS
  0
LAYER
  2
03__ASM_ALL_CURVES
 70
0
 62
7
  6
CONTINUOUS
  0
LAYER
  2
03___PRT_ALL_CURVES
 70
0
 62
7
  6
CONTINUOUS
  0
LAYER
  2
04_ALL_DTM_PNT
 70
0
 62
7
  6
CONTINUOUS
  0
LAYER
  2
04__ASM_ALL_DTM_PNT
 70
0
 62
7
  6
CONTINUOUS
  0
LAYER
  2
04___PRT_ALL_DTM_PNT
 70
0
 62
7
  6
CONTINUOUS
  0
LAYER
  2
05_ALL_DTM_CSYS
 70
0
 62
7
  6
CONTINUOUS
  0
LAYER
  2
05__ASM_ALL_DTM_CSYS
 70
0
 62
7
  6
CONTINUOUS
  0
LAYER
  2
05__ASM_DEF_DTM_CSYS
 70
0
 62
7
  6
CONTINUOUS
  0
LAYER
  2
05___PRT_ALL_DTM_CSYS
 70
0
 62
7
  6
CONTINUOUS
  0
LAYER
  2
05___PRT_DEF_DTM_CSYS
 70
0
 62
7
  6
CONTINUOUS
  0
LAYER
  2
06_ALL_SURFS
 70
0
 62
7
  6
CONTINUOUS
  0
LAYER
  2
06__ASM_ALL_SURFS
 70
0
 62
7
  6
CONTINUOUS
  0
LAYER
  2
06___PRT_ALL_SURFS
 70
0
 62
7
  6
CONTINUOUS
  0
LAYER
  2
07__ASM_ALL_SKELETONS
 70
0
 62
7
  6
CONTINUOUS
  0
LAYER
  2
AUSFORMSCHRAEGEN
 70
0
 62
7
  6
CONTINUOUS
  0
LAYER
  2
BEZUGSACHSEN
 70
0
 62
7
  6
CONTINUOUS
  0
LAYER
  2
BEZUGSEBENEN
 70
0
 62
7
  6
CONTINUOUS
  0
LAYER
  2
FASEN
 70
0
 62
7
  6
CONTINUOUS
  0
LAYER
  2
FLAECHEN
 70
0
 62
7
  6
CONTINUOUS
  0
LAYER
  2
KURVEN
 70
0
 62
7
  6
CONTINUOUS
  0
LAYER
  2
RUNDUNGEN
 70
0
 62
7
  6
CONTINUOUS
  0
ENDTAB
  0
TABLE
  2
STYLE
 70
1
  0
STYLE
  2
STANDARD
 70
0
 40
0.0
 41
0.8
 50
0.0
 71
0
 42
0.2
  3
txt
  4

  0
STYLE
  2
TEXTSTYLE_1
 70
0
 40
0.0
 41
0.8
 50
0.0
 71
0
 42
0.2
  3
gdt
  4

  0
ENDTAB
  0
ENDSEC
  0
SECTION
  2
BLOCKS
  0
BLOCK
  8
0
  2
_FILLED
 70
64
 10
0.0
 20
0.0
  0
SOLID
  8
0
  6
BYBLOCK
 62
0
 10
0.0
 20
0.0
 11
-1.0
 21
0.125
 12
-1.0
 22
-0.125
 13
-1.0
 23
-0.125
  0
ENDBLK
  8
0
  6
BYBLOCK
 62
0
  0
BLOCK
  8
0
 62
2
  6
CONTINUOUS
  2
*D0
 70
65
 10
0.0
 20
0.0
  0
TEXT
  8
0
 62
2
  6
CONTINUOUS
 10
39.6077699041
 20
150.6913057756
  7
STANDARD
 40
3.0
  1
81
 50
90.0
 41
0.8
 72
1
 11
39.6077699041
 21
153.0913057756
  0
LINE
  8
0
 62
2
  6
CONTINUOUS
 10
78.5186566819
 20
112.4413057756
 11
38.8577699041
 21
112.4413057756
  0
LINE
  8
0
 62
2
  6
CONTINUOUS
 10
78.5186566819
 20
193.7413057756
 11
38.8577699041
 21
193.7413057756
  0
LINE
  8
0
 62
2
  6
CONTINUOUS
 10
40.3577699041
 20
112.4413057756
 11
40.3577699041
 21
153.0913057756
  0
LINE
  8
0
 62
2
  6
CONTINUOUS
 10
40.3577699041
 20
193.7413057756
 11
40.3577699041
 21
153.0913057756
  0
INSERT
  8
0
 62
2
  6
CONTINUOUS
  2
_FILLED
 10
40.3577699041
 20
112.4413057756
 41
3.5
 42
3.5
 43
3.5
 50
270.0
  0
INSERT
  8
0
 62
2
  6
CONTINUOUS
  2
_FILLED
 10
40.3577699041
 20
193.7413057756
 41
3.5
 42
3.5
 43
3.5
 50
90.0
  0
ENDBLK
  8
0
  6
BYBLOCK
 62
0
  0
BLOCK
  8
0
 62
2
  6
CONTINUOUS
  2
*D1
 70
65
 10
0.0
 20
0.0
  0
TEXT
  8
0
 62
2
  6
CONTINUOUS
 10
98.1936566819
 20
100.589512911
  7
STANDARD
 40
3.0
  1
95
 41
0.8
 72
1
 11
100.5936566819
 21
100.589512911
  0
LINE
  8
0
 62
2
  6
CONTINUOUS
 10
53.1186566819
 20
112.7537037455
 11
53.1186566819
 21
98.339512911
  0
LINE
  8
0
 62
2
  6
CONTINUOUS
 10
148.0686566819
 20
112.8456737043
 11
148.0686566819
 21
98.339512911
  0
LINE
  8
0
 62
2
  6
CONTINUOUS
 10
53.1186566819
 20
99.839512911
 11
100.5936566819
 21
99.839512911
  0
LINE
  8
0
 62
2
  6
CONTINUOUS
 10
148.0686566819
 20
99.839512911
 11
100.5936566819
 21
99.839512911
  0
INSERT
  8
0
 62
2
  6
CONTINUOUS
  2
_FILLED
 10
53.1186566819
 20
99.839512911
 41
3.5
 42
3.5
 43
3.5
 50
180.0
  0
INSERT
  8
0
 62
2
  6
CONTINUOUS
  2
_FILLED
 10
148.0686566819
 20
99.839512911
 41
3.5
 42
3.5
 43
3.5
  0
ENDBLK
  8
0
  6
BYBLOCK
 62
0
  0
BLOCK
  8
0
 62
2
  6
CONTINUOUS
  2
*D2
 70
65
 10
0.0
 20
0.0
  0
TEXT
  8
0
 62
2
  6
CONTINUOUS
 10
92.0109155614
 20
148.2913057756
  7
STANDARD
 40
3.0
  1
40.5
 50
90.0
 41
0.8
 72
1
 11
92.0109155614
 21
153.0913057756
  0
LINE
  8
0
 62
2
  6
CONTINUOUS
 10
92.7609155614
 20
132.8413057756
 11
92.7609155614
 21
153.0913057756
  0
LINE
  8
0
 62
2
  6
CONTINUOUS
 10
92.7609155614
 20
173.3413057756
 11
92.7609155614
 21
153.0913057756
  0
INSERT
  8
0
 62
2
  6
CONTINUOUS
  2
_FILLED
 10
92.7609155614
 20
132.8413057756
 41
3.5
 42
3.5
 43
3.5
 50
270.0
  0
INSERT
  8
0
 62
2
  6
CONTINUOUS
  2
_FILLED
 10
92.7609155614
 20
173.3413057756
 41
3.5
 42
3.5
 43
3.5
 50
90.0
  0
ENDBLK
  8
0
  6
BYBLOCK
 62
0
  0
BLOCK
  8
0
 62
2
  6
CONTINUOUS
  2
*D3
 70
65
 10
0.0
 20
0.0
  0
TEXT
  8
0
 62
2
  6
CONTINUOUS
 10
98.1936566819
 20
204.7550167534
  7
STANDARD
 40
3.0
  1
45
 41
0.8
 72
1
 11
100.5936566819
 21
204.7550167534
  0
LINE
  8
0
 62
2
  6
CONTINUOUS
 10
78.1186566819
 20
193.1413057756
 11
78.1186566819
 21
205.5050167534
  0
LINE
  8
0
 62
2
  6
CONTINUOUS
 10
123.0686566819
 20
173.4932111229
 11
123.0686566819
 21
205.5050167534
  0
LINE
  8
0
 62
2
  6
CONTINUOUS
 10
78.1186566819
 20
204.0050167534
 11
100.5936566819
 21
204.0050167534
  0
LINE
  8
0
 62
2
  6
CONTINUOUS
 10
123.0686566819
 20
204.0050167534
 11
100.5936566819
 21
204.0050167534
  0
INSERT
  8
0
 62
2
  6
CONTINUOUS
  2
_FILLED
 10
78.1186566819
 20
204.0050167534
 41
3.5
 42
3.5
 43
3.5
 50
180.0
  0
INSERT
  8
0
 62
2
  6
CONTINUOUS
  2
_FILLED
 10
123.0686566819
 20
204.0050167534
 41
3.5
 42
3.5
 43
3.5
  0
ENDBLK
  8
0
  6
BYBLOCK
 62
0
  0
ENDSEC
  0
SECTION
  2
ENTITIES
  0
DIMENSION
  8
0
 62
2
  6
CONTINUOUS
  2
*D0
 10
40.3577699041
 20
193.7413057756
 11
40.3577699041
 21
152.7163063793
 70
128
 13
78.5186566819
 23
112.4413057756
 14
78.5186566819
 24
193.7413057756
 50
90.0
  0
DIMENSION
  8
0
 62
2
  6
CONTINUOUS
  2
*D1
 10
148.0686566819
 20
99.839512911
 11
100.6686586914
 21
99.839512911
 70
128
 13
53.1186566819
 23
112.7537037455
 14
148.0686566819
 24
112.8456737043
  0
DIMENSION
  8
0
 62
2
  6
CONTINUOUS
  2
*D2
 10
92.7609155614
 20
173.3413057756
 11
92.7609155614
 21
153.1663057416
 70
128
 13
78.1186566819
 23
132.8413057756
 14
78.1186566819
 24
173.3413057756
 50
90.0
  0
DIMENSION
  8
0
 62
2
  6
CONTINUOUS
  2
*D3
 10
123.0686566819
 20
204.0050167534
 11
100.6686586914
 21
204.0050167534
 70
128
 13
78.1186566819
 23
193.1413057756
 14
123.0686566819
 24
173.4932111229
  0
POLYLINE
  8
AUSFORMSCHRAEGEN
 62
7
  6
CONTINUOUS
 66
1
 70
0
  0
VERTEX
  8
AUSFORMSCHRAEGEN
 62
7
  6
CONTINUOUS
 10
53.2076792596
 20
193.5820410369
  0
VERTEX
  8
AUSFORMSCHRAEGEN
 62
7
  6
CONTINUOUS
 10
53.2639171282
 20
187.8825617279
  0
VERTEX
  8
AUSFORMSCHRAEGEN
 62
7
  6
CONTINUOUS
 10
53.3115653391
 20
182.1491429976
  0
VERTEX
  8
AUSFORMSCHRAEGEN
 62
7
  6
CONTINUOUS
 10
53.3506441379
 20
176.3784066311
  0
VERTEX
  8
AUSFORMSCHRAEGEN
 62
7
  6
CONTINUOUS
 10
53.3810927878
 20
170.5804872729
  0
VERTEX
  8
AUSFORMSCHRAEGEN
 62
7
  6
CONTINUOUS
 10
53.4028606978
 20
164.7621177627
  0
VERTEX
  8
AUSFORMSCHRAEGEN
 62
7
  6
CONTINUOUS
 10
53.4159376767
 20
158.9301252993
  0
VERTEX
  8
AUSFORMSCHRAEGEN
 62
7
  6
CONTINUOUS
 10
53.4202932876
 20
153.0913056181
  0
VERTEX
  8
AUSFORMSCHRAEGEN
 62
7
  6
CONTINUOUS
 10
53.4159376762
 20
147.2524859493
  0
VERTEX
  8
AUSFORMSCHRAEGEN
 62
7
  6
CONTINUOUS
 10
53.4028606971
 20
141.4204935272
  0
VERTEX
  8
AUSFORMSCHRAEGEN
 62
7
  6
CONTINUOUS
 10
53.3810927869
 20
135.6021240747
  0
VERTEX
  8
AUSFORMSCHRAEGEN
 62
7
  6
CONTINUOUS
 10
53.3506441371
 20
129.8042047837
  0
VERTEX
  8
AUSFORMSCHRAEGEN
 62
7
  6
CONTINUOUS
 10
53.3115653385
 20
124.0334684812
  0
VERTEX
  8
AUSFORMSCHRAEGEN
 62
7
  6
CONTINUOUS
 10
53.2639171279
 20
118.3000497944
  0
VERTEX
  8
AUSFORMSCHRAEGEN
 62
7
  6
CONTINUOUS
 10
53.2076792596
 20
112.6005705142
  0
SEQEND
  0
LINE
  8
AUSFORMSCHRAEGEN
 62
7
  6
CONTINUOUS
 10
53.1186566819
 20
112.4937135549
 11
53.1186566819
 21
193.6888979963
  0
LINE
  8
AUSFORMSCHRAEGEN
 62
7
  6
CONTINUOUS
 10
63.0331268638
 20
193.7255834418
 11
63.0383633832
 21
193.7413057756
  0
LINE
  8
AUSFORMSCHRAEGEN
 62
7
  6
CONTINUOUS
 10
63.0383633832
 20
112.4413057756
 11
63.0331268638
 21
112.4570281094
  0
LINE
  8
0
 62
7
  6
CONTINUOUS
 10
148.0686566819
 20
112.4937135549
 11
147.0686566819
 21
112.4570281094
  0
LINE
  8
AUSFORMSCHRAEGEN
 62
7
  6
CONTINUOUS
 10
53.1186566819
 20
112.4937135549
 11
54.1186566819
 21
112.4570281094
  0
LINE
  8
AUSFORMSCHRAEGEN
 62
7
  6
CONTINUOUS
 10
138.1489499806
 20
112.4413057756
 11
123.4686566819
 21
112.4413057756
  0
LINE
  8
AUSFORMSCHRAEGEN
 62
7
  6
CONTINUOUS
 10
122.6686566819
 20
112.4413057756
 11
78.5186566819
 21
112.4413057756
  0
LINE
  8
AUSFORMSCHRAEGEN
 62
7
  6
CONTINUOUS
 10
77.7186566819
 20
112.4413057756
 11
63.0383633832
 21
112.4413057756
  0
LINE
  8
AUSFORMSCHRAEGEN
 62
7
  6
CONTINUOUS
 10
63.0331268638
 20
112.4570281094
 11
54.1186566819
 21
112.4570281094
  0
LINE
  8
AUSFORMSCHRAEGEN
 62
7
  6
CONTINUOUS
 10
138.1541865001
 20
112.4570281094
 11
147.0686566819
 21
112.4570281094
  0
LINE
  8
0
 62
7
  6
CONTINUOUS
 10
122.6686566819
 20
112.6005705451
 11
78.5186566819
 21
112.6005705451
  0
LINE
  8
AUSFORMSCHRAEGEN
 62
7
  6
CONTINUOUS
 10
53.2076792596
 20
112.6005705142
 11
77.7186566819
 21
112.6005705142
  0
LINE
  8
0
 62
7
  6
CONTINUOUS
 10
123.4686566819
 20
112.6005705451
 11
147.9796340785
 21
112.6005705451
  0
LINE
  8
0
 62
7
  6
CONTINUOUS
 10
123.4477042202
 20
113.0413057756
 11
122.6896091436
 21
113.0413057756
  0
LINE
  8
0
 62
7
  6
CONTINUOUS
 10
77.7396091436
 20
113.0413057756
 11
78.5186566819
 21
113.0413057756
  0
LINE
  8
0
 62
7
  6
CONTINUOUS
 10
133.8696000781
 20
131.4469661529
 11
134.5762038517
 21
131.5843160129
  0
LINE
  8
AUSFORMSCHRAEGEN
 62
7
  6
CONTINUOUS
 10
77.7396091436
 20
193.1413057756
 11
77.7186566819
 21
193.7413057756
  0
LINE
  8
AUSFORMSCHRAEGEN
 62
7
  6
CONTINUOUS
 10
77.7186566819
 20
193.5820410369
 11
77.7186566819
 21
112.6005705142
  0
LINE
  8
0
 62
7
  6
CONTINUOUS
 10
77.7396091436
 20
193.1413057756
 11
77.7396091436
 21
113.0413057756
  0
LINE
  8
0
 62
7
  6
CONTINUOUS
 10
78.1186566819
 20
193.1413057756
 11
78.1186566819
 21
113.0413057756
  0
LINE
  8
0
 62
7
  6
CONTINUOUS
 10
78.5186566819
 20
112.4413057756
 11
78.5186566819
 21
130.2932846238
  0
LINE
  8
0
 62
7
  6
CONTINUOUS
 10
78.5186566819
 20
175.8893269274
 11
78.5186566819
 21
193.7413057756
  0
LINE
  8
AUSFORMSCHRAEGEN
 62
7
  6
CONTINUOUS
 10
77.7186566819
 20
112.4413057756
 11
77.7396091436
 21
113.0413057756
  0
LINE
  8
0
 62
7
  6
CONTINUOUS
 10
141.7743170593
 20
130.2913057756
 11
141.1535623423
 21
130.2913057756
  0
LINE
  8
0
 62
7
  6
CONTINUOUS
 10
136.2403547951
 20
130.2913057756
 11
135.6394113989
 21
130.2913057756
  0
LINE
  8
0
 62
7
  6
CONTINUOUS
 10
135.2431849838
 20
130.2913057756
 11
134.5762038517
 21
130.2913057756
  0
LINE
  8
0
 62
7
  6
CONTINUOUS
 10
132.5950717762
 20
130.2913057756
 11
131.9875246064
 21
130.2913057756
  0
LINE
  8
0
 62
7
  6
CONTINUOUS
 10
131.0629963045
 20
130.2913057756
 11
130.4554491347
 21
130.2913057756
  0
LINE
  8
0
 62
7
  6
CONTINUOUS
 10
129.7950717762
 20
130.2913057756
 11
129.2007321536
 21
130.2913057756
  0
LINE
  8
0
 62
7
  6
CONTINUOUS
 10
122.6686566819
 20
130.2932846238
 11
78.5186566819
 21
130.2932846238
  0
LINE
  8
0
 62
7
  6
CONTINUOUS
 10
123.2061347329
 20
130.3038277246
 11
122.6896091436
 21
130.3038277246
  0
LINE
  8
0
 62
7
  6
CONTINUOUS
 10
78.1186566819
 20
130.3038277246
 11
78.5186566819
 21
130.3038277246
  0
LINE
  8
0
 62
7
  6
CONTINUOUS
 10
78.1186566819
 20
130.4413057756
 11
123.0686566819
 21
130.4413057756
  0
LINE
  8
0
 62
7
  6
CONTINUOUS
 10
129.7950717762
 20
131.1497963416
 11
129.2007321536
 21
131.1497963416
  0
LINE
  8
0
 62
7
  6
CONTINUOUS
 10
140.7086180409
 20
131.2620604926
 11
140.1010708711
 21
131.2620604926
  0
LINE
  8
0
 62
7
  6
CONTINUOUS
 10
140.7523811426
 20
131.526211436
 11
138.8703056709
 21
131.526211436
  0
LINE
  8
0
 62
7
  6
CONTINUOUS
 10
129.7950717762
 20
131.8101737001
 11
129.2007321536
 21
131.8101737001
  0
LINE
  8
0
 62
7
  6
CONTINUOUS
 10
140.123373663
 20
131.9620604926
 11
138.9346944178
 21
131.9620604926
  0
LINE
  8
0
 62
7
  6
CONTINUOUS
 10
133.664883097
 20
132.0677208699
 11
133.0705434744
 21
132.0677208699
  0
LINE
  8
RUNDUNGEN
 62
9
  6
CONTINUOUS
 10
120.9405620292
 20
132.3996937959
 11
78.1186566819
 21
132.3996937959
  0
LINE
  8
0
 62
7
  6
CONTINUOUS
 10
129.7950717762
 20
132.6686642662
 11
129.2007321536
 21
132.6686642662
  0
LINE
  8
0
 62
7
  6
CONTINUOUS
 10
123.0686566819
 20
132.6894004283
 11
120.9405620292
 21
132.6894004283
  0
LINE
  8
RUNDUNGEN
 62
9
  6
CONTINUOUS
 10
120.9304514135
 20
132.699511044
 11
78.1186566819
 21
132.699511044
  0
LINE
  8
0
 62
7
  6
CONTINUOUS
 10
141.7743170593
 20
132.8073435114
 11
141.1535623423
 21
132.8073435114
  0
LINE
  8
0
 62
7
  6
CONTINUOUS
 10
137.9045057385
 20
132.8403623794
 11
137.3035623423
 21
132.8403623794
  0
LINE
  8
0
 62
7
  6
CONTINUOUS
 10
78.1186566819
 20
132.8413057756
 11
123.0686566819
 21
132.8413057756
  0
LINE
  8
0
 62
7
  6
CONTINUOUS
 10
131.0629963045
 20
133.7913057756
 11
130.4554491347
 21
133.7913057756
  0
LINE
  8
AUSFORMSCHRAEGEN
 62
7
  6
CONTINUOUS
 10
53.2076792596
 20
112.6005705142
 11
53.1186566819
 21
112.4937135549
  0
LINE
  8
AUSFORMSCHRAEGEN
 62
7
  6
CONTINUOUS
 10
53.2076792596
 20
193.5820410369
 11
53.1186566819
 21
193.6888979963
  0
LINE
  8
0
 62
7
  6
CONTINUOUS
 10
123.2061347329
 20
175.8787838266
 11
123.0686566819
 21
175.7413057756
  0
LINE
  8
0
 62
7
  6
CONTINUOUS
 10
123.2061347329
 20
130.3038277246
 11
123.0686566819
 21
130.4413057756
  0
LINE
  8
0
 62
7
  6
CONTINUOUS
 10
148.0686566819
 20
193.6888979963
 11
147.9796340785
 21
193.5820410061
  0
LINE
  8
0
 62
7
  6
CONTINUOUS
 10
148.0686566819
 20
112.4937135549
 11
147.9796340785
 21
112.6005705451
  0
LINE
  8
0
 62
7
  6
CONTINUOUS
 10
120.9405620292
 20
173.7829177553
 11
120.9405620292
 21
173.4932111229
  0
LINE
  8
0
 62
7
  6
CONTINUOUS
 10
120.9405620292
 20
132.3996937959
 11
120.9405620292
 21
132.6894004283
  0
LINE
  8
0
 62
7
  6
CONTINUOUS
 10
123.0686566819
 20
173.3413057756
 11
78.1186566819
 21
173.3413057756
  0
LINE
  8
RUNDUNGEN
 62
9
  6
CONTINUOUS
 10
78.1186566819
 20
173.4831005072
 11
120.9304514135
 21
173.4831005072
  0
LINE
  8
0
 62
7
  6
CONTINUOUS
 10
123.0686566819
 20
173.4932111229
 11
120.9405620292
 21
173.4932111229
  0
LINE
  8
RUNDUNGEN
 62
9
  6
CONTINUOUS
 10
78.1186566819
 20
173.7829177553
 11
120.9405620292
 21
173.7829177553
  0
LINE
  8
0
 62
7
  6
CONTINUOUS
 10
123.4477042202
 20
113.0413057756
 11
123.4633832145
 21
112.5923181231
  0
LINE
  8
AUSFORMSCHRAEGEN
 62
7
  6
CONTINUOUS
 10
123.4633832145
 20
112.5923181231
 11
123.4686566819
 21
112.4413057756
  0
LINE
  8
0
 62
7
  6
CONTINUOUS
 10
122.6896091436
 20
193.1413057756
 11
122.6739301493
 21
193.5902934281
  0
LINE
  8
AUSFORMSCHRAEGEN
 62
7
  6
CONTINUOUS
 10
122.6739301493
 20
193.5902934281
 11
122.6686566819
 21
193.7413057756
  0
POLYLINE
  8
0
 62
7
  6
CONTINUOUS
 66
1
 70
0
  0
VERTEX
  8
0
 62
7
  6
CONTINUOUS
 10
123.2061347329
 20
175.8787838266
  0
VERTEX
  8
0
 62
7
  6
CONTINUOUS
 10
123.2178333748
 20
170.2012182797
  0
VERTEX
  8
0
 62
7
  6
CONTINUOUS
 10
123.2261917027
 20
164.5107834434
  0
VERTEX
  8
0
 62
7
  6
CONTINUOUS
 10
123.2312116021
 20
158.804261991
  0
VERTEX
  8
0
 62
7
  6
CONTINUOUS
 10
123.2328874162
 20
153.0913059023
  0
VERTEX
  8
0
 62
7
  6
CONTINUOUS
 10
123.2312116024
 20
147.3783498634
  0
VERTEX
  8
0
 62
7
  6
CONTINUOUS
 10
123.2261917031
 20
141.6718284291
  0
VERTEX
  8
0
 62
7
  6
CONTINUOUS
 10
123.2178333751
 20
135.9813934807
  0
VERTEX
  8
0
 62
7
  6
CONTINUOUS
 10
123.2061347329
 20
130.3038277246
  0
SEQEND
  0
LINE
  8
0
 62
7
  6
CONTINUOUS
 10
122.6686566819
 20
112.6005705451
 11
122.6686566819
 21
130.2932846238
  0
LINE
  8
0
 62
7
  6
CONTINUOUS
 10
122.6686566819
 20
175.8893269274
 11
122.6686566819
 21
193.5820410061
  0
LINE
  8
0
 62
7
  6
CONTINUOUS
 10
122.6896091436
 20
113.0413057756
 11
122.6896091436
 21
130.3038277246
  0
LINE
  8
0
 62
7
  6
CONTINUOUS
 10
122.6896091436
 20
175.8787838266
 11
122.6896091436
 21
193.1413057756
  0
LINE
  8
0
 62
7
  6
CONTINUOUS
 10
123.0686566819
 20
130.4413057756
 11
123.0686566819
 21
175.7413057756
  0
LINE
  8
0
 62
7
  6
CONTINUOUS
 10
123.4477042202
 20
193.1413057756
 11
123.4477042202
 21
113.0413057756
  0
LINE
  8
0
 62
7
  6
CONTINUOUS
 10
123.4686566819
 20
112.6005705451
 11
123.4686566819
 21
193.5820410061
  0
LINE
  8
0
 62
7
  6
CONTINUOUS
 10
123.4477042202
 20
193.1413057756
 11
123.4633832145
 21
193.5902934281
  0
LINE
  8
AUSFORMSCHRAEGEN
 62
7
  6
CONTINUOUS
 10
123.4633832145
 20
193.5902934281
 11
123.4686566819
 21
193.7413057756
  0
LINE
  8
0
 62
7
  6
CONTINUOUS
 10
122.6896091436
 20
113.0413057756
 11
122.6739301493
 21
112.5923181231
  0
LINE
  8
AUSFORMSCHRAEGEN
 62
7
  6
CONTINUOUS
 10
122.6739301493
 20
112.5923181231
 11
122.6686566819
 21
112.4413057756
  0
LINE
  8
0
 62
7
  6
CONTINUOUS
 10
78.1186566819
 20
175.7413057756
 11
123.0686566819
 21
175.7413057756
  0
LINE
  8
0
 62
7
  6
CONTINUOUS
 10
78.5186566819
 20
175.8787838266
 11
78.1186566819
 21
175.8787838266
  0
LINE
  8
0
 62
7
  6
CONTINUOUS
 10
122.6896091436
 20
175.8787838266
 11
123.2061347329
 21
175.8787838266
  0
LINE
  8
0
 62
7
  6
CONTINUOUS
 10
122.6686566819
 20
175.8893269274
 11
78.5186566819
 21
175.8893269274
  0
POLYLINE
  8
0
 62
7
  6
CONTINUOUS
 66
1
 70
0
  0
VERTEX
  8
0
 62
7
  6
CONTINUOUS
 10
136.2403547951
 20
130.2913057756
  0
VERTEX
  8
0
 62
7
  6
CONTINUOUS
 10
136.2709574439
 20
130.2179675484
  0
VERTEX
  8
0
 62
7
  6
CONTINUOUS
 10
136.3206562508
 20
130.1540469223
  0
VERTEX
  8
0
 62
7
  6
CONTINUOUS
 10
136.3923125751
 20
130.0980593592
  0
VERTEX
  8
0
 62
7
  6
CONTINUOUS
 10
136.477342339
 20
130.0544529546
  0
VERTEX
  8
0
 62
7
  6
CONTINUOUS
 10
136.5689872142
 20
130.0289884367
  0
VERTEX
  8
0
 62
7
  6
CONTINUOUS
 10
136.6646313113
 20
130.0162428184
  0
VERTEX
  8
0
 62
7
  6
CONTINUOUS
 10
136.7598320507
 20
130.0131782147
  0
VERTEX
  8
0
 62
7
  6
CONTINUOUS
 10
136.853311175
 20
130.0184034321
  0
VERTEX
  8
0
 62
7
  6
CONTINUOUS
 10
136.9428100594
 20
130.0282286946
  0
VERTEX
  8
0
 62
7
  6
CONTINUOUS
 10
137.026827226
 20
130.0465128627
  0
VERTEX
  8
0
 62
7
  6
CONTINUOUS
 10
137.1039937932
 20
130.0757601362
  0
VERTEX
  8
0
 62
7
  6
CONTINUOUS
 10
137.1716533486
 20
130.1163463366
  0
VERTEX
  8
0
 62
7
  6
CONTINUOUS
 10
137.2272818946
 20
130.1708312305
  0
VERTEX
  8
0
 62
7
  6
CONTINUOUS
 10
137.2691133049
 20
130.235169637
  0
VERTEX
  8
0
 62
7
  6
CONTINUOUS
 10
137.2942141884
 20
130.3057695473
  0
VERTEX
  8
0
 62
7
  6
CONTINUOUS
 10
137.3035623423
 20
130.3838299128
  0
SEQEND
  0
LINE
  8
0
 62
7
  6
CONTINUOUS
 10
129.0686566819
 20
130.4233812473
 11
129.0686566819
 21
131.0177208699
  0
LINE
  8
0
 62
7
  6
CONTINUOUS
 10
129.0686566819
 20
131.9422491718
 11
129.0686566819
 21
132.5365887945
  0
LINE
  8
0
 62
7
  6
CONTINUOUS
 10
129.9271472479
 20
130.4233812473
 11
129.9271472479
 21
131.0177208699
  0
LINE
  8
0
 62
7
  6
CONTINUOUS
 10
129.9271472479
 20
131.9422491718
 11
129.9271472479
 21
132.5365887945
  0
POLYLINE
  8
0
 62
7
  6
CONTINUOUS
 66
1
 70
0
  0
VERTEX
  8
0
 62
7
  6
CONTINUOUS
 10
131.9875246064
 20
132.0148906812
  0
VERTEX
  8
0
 62
7
  6
CONTINUOUS
 10
131.976282548
 20
132.095713742
  0
VERTEX
  8
0
 62
7
  6
CONTINUOUS
 10
131.9528705262
 20
132.1657754357
  0
VERTEX
  8
0
 62
7
  6
CONTINUOUS
 10
131.9159950498
 20
132.2251000576
  0
VERTEX
  8
0
 62
7
  6
CONTINUOUS
 10
131.8695365926
 20
132.2736083451
  0
VERTEX
  8
0
 62
7
  6
CONTINUOUS
 10
131.816979838
 20
132.3113416393
  0
VERTEX
  8
0
 62
7
  6
CONTINUOUS
 10
131.7582186652
 20
132.3379639434
  0
VERTEX
  8
0
 62
7
  6
CONTINUOUS
 10
131.6937773935
 20
132.3519208882
  0
VERTEX
  8
0
 62
7
  6
CONTINUOUS
 10
131.6252493866
 20
132.3569104177
  0
VERTEX
  8
0
 62
7
  6
CONTINUOUS
 10
131.5543879171
 20
132.3577693157
  0
VERTEX
  8
0
 62
7
  6
CONTINUOUS
 10
131.4812375773
 20
132.3495281946
  0
VERTEX
  8
0
 62
7
  6
CONTINUOUS
 10
131.4050545165
 20
132.3287727039
  0
VERTEX
  8
0
 62
7
  6
CONTINUOUS
 10
131.3299573353
 20
132.2956758246
  0
VERTEX
  8
0
 62
7
  6
CONTINUOUS
 10
131.2590106133
 20
132.2494020565
  0
VERTEX
  8
0
 62
7
  6
CONTINUOUS
 10
131.1946325631
 20
132.1895648267
  0
VERTEX
  8
0
 62
7
  6
CONTINUOUS
 10
131.1388659181
 20
132.1142227119
  0
VERTEX
  8
0
 62
7
  6
CONTINUOUS
 10
131.0959016957
 20
132.0272076758
  0
VERTEX
  8
0
 62
7
  6
CONTINUOUS
 10
131.0712208156
 20
131.9321011412
  0
SEQEND
  0
LINE
  8
0
 62
7
  6
CONTINUOUS
 10
130.4554491347
 20
130.2913057756
 11
130.4554491347
 21
133.7913057756
  0
LINE
  8
0
 62
7
  6
CONTINUOUS
 10
131.0629963045
 20
130.2913057756
 11
131.0629963045
 21
131.8277118648
  0
LINE
  8
0
 62
7
  6
CONTINUOUS
 10
131.0629963045
 20
132.6224378511
 11
131.0629963045
 21
133.7913057756
  0
LINE
  8
0
 62
7
  6
CONTINUOUS
 10
131.9875246064
 20
130.2913057756
 11
131.9875246064
 21
132.0148906812
  0
LINE
  8
0
 62
7
  6
CONTINUOUS
 10
132.5950717762
 20
130.2913057756
 11
132.5950717762
 21
131.9864684733
  0
LINE
  8
0
 62
7
  6
CONTINUOUS
 10
131.0712208156
 20
131.9321011412
 11
131.0629963045
 21
131.8277118648
  0
POLYLINE
  8
0
 62
7
  6
CONTINUOUS
 66
1
 70
0
  0
VERTEX
  8
0
 62
7
  6
CONTINUOUS
 10
134.2172043976
 20
130.783646372
  0
VERTEX
  8
0
 62
7
  6
CONTINUOUS
 10
134.3021332262
 20
130.8125020758
  0
VERTEX
  8
0
 62
7
  6
CONTINUOUS
 10
134.3801103863
 20
130.8577415602
  0
VERTEX
  8
0
 62
7
  6
CONTINUOUS
 10
134.4484310767
 20
130.9159831925
  0
VERTEX
  8
0
 62
7
  6
CONTINUOUS
 10
134.503108451
 20
130.9868824842
  0
VERTEX
  8
0
 62
7
  6
CONTINUOUS
 10
134.5435769559
 20
131.0653288273
  0
VERTEX
  8
0
 62
7
  6
CONTINUOUS
 10
134.5677052768
 20
131.1454416069
  0
VERTEX
  8
0
 62
7
  6
CONTINUOUS
 10
134.5762038517
 20
131.2291818834
  0
SEQEND
  0
POLYLINE
  8
0
 62
7
  6
CONTINUOUS
 66
1
 70
0
  0
VERTEX
  8
0
 62
7
  6
CONTINUOUS
 10
133.8696000781
 20
131.4469661529
  0
VERTEX
  8
0
 62
7
  6
CONTINUOUS
 10
133.7916229643
 20
131.4215856293
  0
VERTEX
  8
0
 62
7
  6
CONTINUOUS
 10
133.7251849884
 20
131.3869962279
  0
VERTEX
  8
0
 62
7
  6
CONTINUOUS
 10
133.67013549
 20
131.3421575937
  0
VERTEX
  8
0
 62
7
  6
CONTINUOUS
 10
133.6269264508
 20
131.2901938758
  0
VERTEX
  8
0
 62
7
  6
CONTINUOUS
 10
133.5961315329
 20
131.2329628024
  0
VERTEX
  8
0
 62
7
  6
CONTINUOUS
 10
133.5772350339
 20
131.1732222129
  0
VERTEX
  8
0
 62
7
  6
CONTINUOUS
 10
133.5701891521
 20
131.1143831612
  0
VERTEX
  8
0
 62
7
  6
CONTINUOUS
 10
133.5741638471
 20
131.0563412036
  0
VERTEX
  8
0
 62
7
  6
CONTINUOUS
 10
133.5882960477
 20
130.9995801501
  0
VERTEX
  8
0
 62
7
  6
CONTINUOUS
 10
133.6126370437
 20
130.9457454754
  0
VERTEX
  8
0
 62
7
  6
CONTINUOUS
 10
133.646704596
 20
130.895990989
  0
VERTEX
  8
0
 62
7
  6
CONTINUOUS
 10
133.6912362213
 20
130.8522742441
  0
VERTEX
  8
0
 62
7
  6
CONTINUOUS
 10
133.7478855673
 20
130.8169857164
  0
VERTEX
  8
0
 62
7
  6
CONTINUOUS
 10
133.8134220031
 20
130.7899794561
  0
VERTEX
  8
0
 62
7
  6
CONTINUOUS
 10
133.8854929567
 20
130.7722044204
  0
VERTEX
  8
0
 62
7
  6
CONTINUOUS
 10
133.9631178989
 20
130.7627670302
  0
VERTEX
  8
0
 62
7
  6
CONTINUOUS
 10
134.0450078852
 20
130.7604370843
  0
VERTEX
  8
0
 62
7
  6
CONTINUOUS
 10
134.1297355891
 20
130.7671744883
  0
VERTEX
  8
0
 62
7
  6
CONTINUOUS
 10
134.2172043976
 20
130.783646372
  0
SEQEND
  0
POLYLINE
  8
0
 62
7
  6
CONTINUOUS
 66
1
 70
0
  0
VERTEX
  8
0
 62
7
  6
CONTINUOUS
 10
135.1705434744
 20
130.634702002
  0
VERTEX
  8
0
 62
7
  6
CONTINUOUS
 10
135.1708902628
 20
130.6070931484
  0
VERTEX
  8
0
 62
7
  6
CONTINUOUS
 10
135.1724746496
 20
130.5778265913
  0
VERTEX
  8
0
 62
7
  6
CONTINUOUS
 10
135.1752434037
 20
130.5468574174
  0
VERTEX
  8
0
 62
7
  6
CONTINUOUS
 10
135.1793562179
 20
130.5143208326
  0
VERTEX
  8
0
 62
7
  6
CONTINUOUS
 10
135.1848191164
 20
130.4803131643
  0
VERTEX
  8
0
 62
7
  6
CONTINUOUS
 10
135.1920398735
 20
130.4449061169
  0
VERTEX
  8
0
 62
7
  6
CONTINUOUS
 10
135.2014172783
 20
130.4081485073
  0
VERTEX
  8
0
 62
7
  6
CONTINUOUS
 10
135.2129843103
 20
130.3702053051
  0
VERTEX
  8
0
 62
7
  6
CONTINUOUS
 10
135.2269276174
 20
130.3312803308
  0
VERTEX
  8
0
 62
7
  6
CONTINUOUS
 10
135.2431849838
 20
130.2913057756
  0
SEQEND
  0
LINE
  8
0
 62
7
  6
CONTINUOUS
 10
134.5762038517
 20
130.2913057756
 11
134.5762038517
 21
130.5488529454
  0
LINE
  8
0
 62
7
  6
CONTINUOUS
 10
134.5762038517
 20
131.2291818834
 11
134.5762038517
 21
131.5843160129
  0
LINE
  8
0
 62
7
  6
CONTINUOUS
 10
135.1705434744
 20
130.634702002
 11
135.1705434744
 21
132.2856453982
  0
LINE
  8
0
 62
7
  6
CONTINUOUS
 10
137.3035623423
 20
130.3838299128
 11
137.3035623423
 21
130.6646897375
  0
LINE
  8
0
 62
7
  6
CONTINUOUS
 10
137.3035623423
 20
132.6422491718
 11
137.3035623423
 21
132.8403623794
  0
LINE
  8
0
 62
7
  6
CONTINUOUS
 10
137.9045057385
 20
130.2913057756
 11
137.9045057385
 21
132.8403623794
  0
POLYLINE
  8
0
 62
7
  6
CONTINUOUS
 66
1
 70
0
  0
VERTEX
  8
0
 62
7
  6
CONTINUOUS
 10
133.0705434744
 20
132.0677208699
  0
VERTEX
  8
0
 62
7
  6
CONTINUOUS
 10
133.0840376628
 20
132.2121803949
  0
VERTEX
  8
0
 62
7
  6
CONTINUOUS
 10
133.117414225
 20
132.3460754678
  0
VERTEX
  8
0
 62
7
  6
CONTINUOUS
 10
133.1710333831
 20
132.4696344011
  0
VERTEX
  8
0
 62
7
  6
CONTINUOUS
 10
133.2438144708
 20
132.5821599145
  0
VERTEX
  8
0
 62
7
  6
CONTINUOUS
 10
133.3351311384
 20
132.6844027842
  0
VERTEX
  8
0
 62
7
  6
CONTINUOUS
 10
133.4439806583
 20
132.7722479804
  0
VERTEX
  8
0
 62
7
  6
CONTINUOUS
 10
133.5707512336
 20
132.8412652671
  0
VERTEX
  8
0
 62
7
  6
CONTINUOUS
 10
133.7106437225
 20
132.8931492501
  0
VERTEX
  8
0
 62
7
  6
CONTINUOUS
 10
133.8612281232
 20
132.9275220152
  0
VERTEX
  8
0
 62
7
  6
CONTINUOUS
 10
134.0157852184
 20
132.9461748547
  0
VERTEX
  8
0
 62
7
  6
CONTINUOUS
 10
134.1673480747
 20
132.9505746819
  0
VERTEX
  8
0
 62
7
  6
CONTINUOUS
 10
134.314229839
 20
132.9413204254
  0
VERTEX
  8
0
 62
7
  6
CONTINUOUS
 10
134.4526951369
 20
132.9183889152
  0
VERTEX
  8
0
 62
7
  6
CONTINUOUS
 10
134.5819225986
 20
132.885115683
  0
VERTEX
  8
0
 62
7
  6
CONTINUOUS
 10
134.6993298635
 20
132.8449284352
  0
VERTEX
  8
0
 62
7
  6
CONTINUOUS
 10
134.8064645293
 20
132.7975277253
  0
VERTEX
  8
0
 62
7
  6
CONTINUOUS
 10
134.905327
 20
132.74585642
  0
VERTEX
  8
0
 62
7
  6
CONTINUOUS
 10
134.9919764957
 20
132.6836154996
  0
VERTEX
  8
0
 62
7
  6
CONTINUOUS
 10
135.063757006
 20
132.6045408315
  0
VERTEX
  8
0
 62
7
  6
CONTINUOUS
 10
135.1188146264
 20
132.5114761243
  0
VERTEX
  8
0
 62
7
  6
CONTINUOUS
 10
135.1540677107
 20
132.4052706781
  0
VERTEX
  8
0
 62
7
  6
CONTINUOUS
 10
135.1705434744
 20
132.2856453982
  0
SEQEND
  0
POLYLINE
  8
0
 62
7
  6
CONTINUOUS
 66
1
 70
0
  0
VERTEX
  8
0
 62
7
  6
CONTINUOUS
 10
131.0629963045
 20
132.6224378511
  0
VERTEX
  8
0
 62
7
  6
CONTINUOUS
 10
131.13853484
 20
132.6893006189
  0
VERTEX
  8
0
 62
7
  6
CONTINUOUS
 10
131.2277507328
 20
132.7495277925
  0
VERTEX
  8
0
 62
7
  6
CONTINUOUS
 10
131.3314920603
 20
132.8052270461
  0
VERTEX
  8
0
 62
7
  6
CONTINUOUS
 10
131.4472145906
 20
132.850072032
  0
VERTEX
  8
0
 62
7
  6
CONTINUOUS
 10
131.5745246876
 20
132.8789175839
  0
VERTEX
  8
0
 62
7
  6
CONTINUOUS
 10
131.7078186413
 20
132.8903259707
  0
VERTEX
  8
0
 62
7
  6
CONTINUOUS
 10
131.8424256592
 20
132.8808305794
  0
VERTEX
  8
0
 62
7
  6
CONTINUOUS
 10
131.9751533524
 20
132.8513760015
  0
VERTEX
  8
0
 62
7
  6
CONTINUOUS
 10
132.102258701
 20
132.8011517461
  0
VERTEX
  8
0
 62
7
  6
CONTINUOUS
 10
132.2207228042
 20
132.7319615457
  0
VERTEX
  8
0
 62
7
  6
CONTINUOUS
 10
132.3268411437
 20
132.645073857
  0
VERTEX
  8
0
 62
7
  6
CONTINUOUS
 10
132.4189275514
 20
132.5412875187
  0
VERTEX
  8
0
 62
7
  6
CONTINUOUS
 10
132.495295458
 20
132.420833219
  0
VERTEX
  8
0
 62
7
  6
CONTINUOUS
 10
132.5522415495
 20
132.2866862348
  0
VERTEX
  8
0
 62
7
  6
CONTINUOUS
 10
132.5849671343
 20
132.1422776088
  0
VERTEX
  8
0
 62
7
  6
CONTINUOUS
 10
132.5950717762
 20
131.9864684733
  0
SEQEND
  0
POLYLINE
  8
0
 62
7
  6
CONTINUOUS
 66
1
 70
0
  0
VERTEX
  8
0
 62
7
  6
CONTINUOUS
 10
134.5762038517
 20
130.5488529454
  0
VERTEX
  8
0
 62
7
  6
CONTINUOUS
 10
134.4565552353
 20
130.4642257396
  0
VERTEX
  8
0
 62
7
  6
CONTINUOUS
 10
134.3353699639
 20
130.3971871056
  0
VERTEX
  8
0
 62
7
  6
CONTINUOUS
 10
134.2124180689
 20
130.3484343713
  0
VERTEX
  8
0
 62
7
  6
CONTINUOUS
 10
134.0883894557
 20
130.3158651567
  0
VERTEX
  8
0
 62
7
  6
CONTINUOUS
 10
133.9638446084
 20
130.2975782351
  0
VERTEX
  8
0
 62
7
  6
CONTINUOUS
 10
133.8389418227
 20
130.2936722741
  0
VERTEX
  8
0
 62
7
  6
CONTINUOUS
 10
133.7133124123
 20
130.3030554222
  0
VERTEX
  8
0
 62
7
  6
CONTINUOUS
 10
133.5890978072
 20
130.3274010473
  0
VERTEX
  8
0
 62
7
  6
CONTINUOUS
 10
133.466318682
 20
130.3677031553
  0
VERTEX
  8
0
 62
7
  6
CONTINUOUS
 10
133.3509686173
 20
130.4249114966
  0
VERTEX
  8
0
 62
7
  6
CONTINUOUS
 10
133.2486482189
 20
130.501516084
  0
VERTEX
  8
0
 62
7
  6
CONTINUOUS
 10
133.1605570862
 20
130.5938950484
  0
VERTEX
  8
0
 62
7
  6
CONTINUOUS
 10
133.089142208
 20
130.7011632316
  0
VERTEX
  8
0
 62
7
  6
CONTINUOUS
 10
133.0362620219
 20
130.8176006093
  0
VERTEX
  8
0
 62
7
  6
CONTINUOUS
 10
133.0051292347
 20
130.9377593848
  0
VERTEX
  8
0
 62
7
  6
CONTINUOUS
 10
132.9941280272
 20
131.0599295754
  0
VERTEX
  8
0
 62
7
  6
CONTINUOUS
 10
133.0032934711
 20
131.1820989104
  0
VERTEX
  8
0
 62
7
  6
CONTINUOUS
 10
133.0308855994
 20
131.2997206338
  0
VERTEX
  8
0
 62
7
  6
CONTINUOUS
 10
133.0752505201
 20
131.4086508639
  0
VERTEX
  8
0
 62
7
  6
CONTINUOUS
 10
133.1361650804
 20
131.5056606722
  0
VERTEX
  8
0
 62
7
  6
CONTINUOUS
 10
133.2161061534
 20
131.5854040849
  0
VERTEX
  8
0
 62
7
  6
CONTINUOUS
 10
133.3053197695
 20
131.6500841374
  0
SEQEND
  0
POLYLINE
  8
0
 62
7
  6
CONTINUOUS
 66
1
 70
0
  0
VERTEX
  8
0
 62
7
  6
CONTINUOUS
 10
133.3053197695
 20
131.6500841374
  0
VERTEX
  8
0
 62
7
  6
CONTINUOUS
 10
133.3950622251
 20
131.6988585966
  0
VERTEX
  8
0
 62
7
  6
CONTINUOUS
 10
133.4847795946
 20
131.7355208671
  0
VERTEX
  8
0
 62
7
  6
CONTINUOUS
 10
133.5709755192
 20
131.7623895923
  0
VERTEX
  8
0
 62
7
  6
CONTINUOUS
 10
133.6537335944
 20
131.7830509138
  0
VERTEX
  8
0
 62
7
  6
CONTINUOUS
 10
133.7316988005
 20
131.8021732313
  0
VERTEX
  8
0
 62
7
  6
CONTINUOUS
 10
133.8056906234
 20
131.818830443
  0
VERTEX
  8
0
 62
7
  6
CONTINUOUS
 10
133.8760110903
 20
131.8336085504
  0
VERTEX
  8
0
 62
7
  6
CONTINUOUS
 10
133.942857557
 20
131.8466398781
  0
VERTEX
  8
0
 62
7
  6
CONTINUOUS
 10
134.0064554154
 20
131.8582597592
  0
VERTEX
  8
0
 62
7
  6
CONTINUOUS
 10
134.0670225836
 20
131.8684452719
  0
VERTEX
  8
0
 62
7
  6
CONTINUOUS
 10
134.1248083123
 20
131.8771763617
  0
VERTEX
  8
0
 62
7
  6
CONTINUOUS
 10
134.1799439957
 20
131.8847798004
  0
VERTEX
  8
0
 62
7
  6
CONTINUOUS
 10
134.2325775061
 20
131.891582171
  0
VERTEX
  8
0
 62
7
  6
CONTINUOUS
 10
134.28290866
 20
131.8975640368
  0
VERTEX
  8
0
 62
7
  6
CONTINUOUS
 10
134.3313625064
 20
131.9021974589
  0
VERTEX
  8
0
 62
7
  6
CONTINUOUS
 10
134.3774112203
 20
131.9073345435
  0
VERTEX
  8
0
 62
7
  6
CONTINUOUS
 10
134.4209101396
 20
131.9139076416
  0
VERTEX
  8
0
 62
7
  6
CONTINUOUS
 10
134.4611348248
 20
131.9241482105
  0
VERTEX
  8
0
 62
7
  6
CONTINUOUS
 10
134.4975993733
 20
131.9415274623
  0
VERTEX
  8
0
 62
7
  6
CONTINUOUS
 10
134.5294435135
 20
131.9632589868
  0
VERTEX
  8
0
 62
7
  6
CONTINUOUS
 10
134.5555172264
 20
131.9875096387
  0
VERTEX
  8
0
 62
7
  6
CONTINUOUS
 10
134.5762038517
 20
132.0148906812
  0
SEQEND
  0
LINE
  8
0
 62
7
  6
CONTINUOUS
 10
141.1535623423
 20
130.2913057756
 11
141.1535623423
 21
132.8073435114
  0
LINE
  8
0
 62
7
  6
CONTINUOUS
 10
141.7743170593
 20
130.2913057756
 11
141.7743170593
 21
131.649999841
  0
LINE
  8
0
 62
7
  6
CONTINUOUS
 10
141.7743170593
 20
132.5167774737
 11
141.7743170593
 21
132.8073435114
  0
LINE
  8
0
 62
7
  6
CONTINUOUS
 10
142.5601661159
 20
132.2209953106
 11
142.5601661159
 21
132.8417500275
  0
POLYLINE
  8
0
 62
7
  6
CONTINUOUS
 66
1
 70
0
  0
VERTEX
  8
0
 62
7
  6
CONTINUOUS
 10
137.9045057385
 20
130.2913057756
  0
VERTEX
  8
0
 62
7
  6
CONTINUOUS
 10
137.8884904129
 20
130.1625051861
  0
VERTEX
  8
0
 62
7
  6
CONTINUOUS
 10
137.8539178402
 20
130.0471383896
  0
VERTEX
  8
0
 62
7
  6
CONTINUOUS
 10
137.7998109623
 20
129.9450120431
  0
VERTEX
  8
0
 62
7
  6
CONTINUOUS
 10
137.7291009534
 20
129.8566919133
  0
VERTEX
  8
0
 62
7
  6
CONTINUOUS
 10
137.6443025019
 20
129.782408972
  0
VERTEX
  8
0
 62
7
  6
CONTINUOUS
 10
137.5456880067
 20
129.7229761696
  0
VERTEX
  8
0
 62
7
  6
CONTINUOUS
 10
137.4333071863
 20
129.6815603834
  0
VERTEX
  8
0
 62
7
  6
CONTINUOUS
 10
137.3103427703
 20
129.6513330759
  0
VERTEX
  8
0
 62
7
  6
CONTINUOUS
 10
137.1798250722
 20
129.6259928163
  0
VERTEX
  8
0
 62
7
  6
CONTINUOUS
 10
137.0422610587
 20
129.6071302565
  0
VERTEX
  8
0
 62
7
  6
CONTINUOUS
 10
136.8982273285
 20
129.5938725811
  0
VERTEX
  8
0
 62
7
  6
CONTINUOUS
 10
136.7505452989
 20
129.5873095421
  0
VERTEX
  8
0
 62
7
  6
CONTINUOUS
 10
136.6011132239
 20
129.5882770625
  0
VERTEX
  8
0
 62
7
  6
CONTINUOUS
 10
136.4532771922
 20
129.5966643619
  0
VERTEX
  8
0
 62
7
  6
CONTINUOUS
 10
136.3100674218
 20
129.6108013962
  0
VERTEX
  8
0
 62
7
  6
CONTINUOUS
 10
136.1743297797
 20
129.636202703
  0
VERTEX
  8
0
 62
7
  6
CONTINUOUS
 10
136.0486065675
 20
129.6785350296
  0
VERTEX
  8
0
 62
7
  6
CONTINUOUS
 10
135.9368386994
 20
129.735675189
  0
VERTEX
  8
0
 62
7
  6
CONTINUOUS
 10
135.8444573594
 20
129.808903113
  0
VERTEX
  8
0
 62
7
  6
CONTINUOUS
 10
135.7695340392
 20
129.8936791926
  0
VERTEX
  8
0
 62
7
  6
CONTINUOUS
 10
135.7121825195
 20
129.9866209455
  0
VERTEX
  8
0
 62
7
  6
CONTINUOUS
 10
135.6717071174
 20
130.0855341611
  0
VERTEX
  8
0
 62
7
  6
CONTINUOUS
 10
135.6473678577
 20
130.1866799872
  0
VERTEX
  8
0
 62
7
  6
CONTINUOUS
 10
135.6394113989
 20
130.2913057756
  0
SEQEND
  0
POLYLINE
  8
0
 62
7
  6
CONTINUOUS
 66
1
 70
0
  0
VERTEX
  8
0
 62
7
  6
CONTINUOUS
 10
133.7093095634
 20
132.2845874564
  0
VERTEX
  8
0
 62
7
  6
CONTINUOUS
 10
133.6733995041
 20
132.2188977637
  0
VERTEX
  8
0
 62
7
  6
CONTINUOUS
 10
133.6591832886
 20
132.1469927813
  0
VERTEX
  8
0
 62
7
  6
CONTINUOUS
 10
133.664883097
 20
132.0677208699
  0
SEQEND
  0
POLYLINE
  8
0
 62
7
  6
CONTINUOUS
 66
1
 70
0
  0
VERTEX
  8
0
 62
7
  6
CONTINUOUS
 10
134.5762038517
 20
132.0148906812
  0
VERTEX
  8
0
 62
7
  6
CONTINUOUS
 10
134.5935745622
 20
132.0432928236
  0
VERTEX
  8
0
 62
7
  6
CONTINUOUS
 10
134.6063253844
 20
132.075882523
  0
VERTEX
  8
0
 62
7
  6
CONTINUOUS
 10
134.6150686436
 20
132.1131888044
  0
VERTEX
  8
0
 62
7
  6
CONTINUOUS
 10
134.6179673642
 20
132.1536258218
  0
VERTEX
  8
0
 62
7
  6
CONTINUOUS
 10
134.6138491553
 20
132.1962707976
  0
VERTEX
  8
0
 62
7
  6
CONTINUOUS
 10
134.6013325883
 20
132.2396629696
  0
VERTEX
  8
0
 62
7
  6
CONTINUOUS
 10
134.5780827083
 20
132.2831336097
  0
VERTEX
  8
0
 62
7
  6
CONTINUOUS
 10
134.5457877036
 20
132.3233828693
  0
VERTEX
  8
0
 62
7
  6
CONTINUOUS
 10
134.5047698831
 20
132.3559097676
  0
VERTEX
  8
0
 62
7
  6
CONTINUOUS
 10
134.4567919292
 20
132.3836472767
  0
VERTEX
  8
0
 62
7
  6
CONTINUOUS
 10
134.4040131889
 20
132.4084300962
  0
VERTEX
  8
0
 62
7
  6
CONTINUOUS
 10
134.3455659772
 20
132.4290529399
  0
VERTEX
  8
0
 62
7
  6
CONTINUOUS
 10
134.2811414529
 20
132.4455316467
  0
VERTEX
  8
0
 62
7
  6
CONTINUOUS
 10
134.2112224324
 20
132.4560375948
  0
VERTEX
  8
0
 62
7
  6
CONTINUOUS
 10
134.1349263142
 20
132.4589911478
  0
VERTEX
  8
0
 62
7
  6
CONTINUOUS
 10
134.0560405108
 20
132.4536613538
  0
VERTEX
  8
0
 62
7
  6
CONTINUOUS
 10
133.9775235954
 20
132.4384834032
  0
VERTEX
  8
0
 62
7
  6
CONTINUOUS
 10
133.9009794853
 20
132.4143801473
  0
VERTEX
  8
0
 62
7
  6
CONTINUOUS
 10
133.8270997133
 20
132.3826428915
  0
VERTEX
  8
0
 62
7
  6
CONTINUOUS
 10
133.7615800067
 20
132.3406023955
  0
VERTEX
  8
0
 62
7
  6
CONTINUOUS
 10
133.7093095634
 20
132.2845874564
  0
SEQEND
  0
LINE
  8
0
 62
7
  6
CONTINUOUS
 10
77.7396091436
 20
193.1413057756
 11
78.5186566819
 21
193.1413057756
  0
LINE
  8
0
 62
7
  6
CONTINUOUS
 10
122.6896091436
 20
193.1413057756
 11
123.4477042202
 21
193.1413057756
  0
LINE
  8
AUSFORMSCHRAEGEN
 62
7
  6
CONTINUOUS
 10
53.2076792596
 20
193.5820410369
 11
77.7186566819
 21
193.5820410369
  0
LINE
  8
0
 62
7
  6
CONTINUOUS
 10
78.5186566819
 20
193.5820410061
 11
122.6686566819
 21
193.5820410061
  0
LINE
  8
0
 62
7
  6
CONTINUOUS
 10
123.4686566819
 20
193.5820410061
 11
147.9796340785
 21
193.5820410061
  0
LINE
  8
AUSFORMSCHRAEGEN
 62
7
  6
CONTINUOUS
 10
63.0331268638
 20
193.7255834418
 11
54.1186566819
 21
193.7255834418
  0
LINE
  8
AUSFORMSCHRAEGEN
 62
7
  6
CONTINUOUS
 10
138.1541865001
 20
193.7255834418
 11
147.0686566819
 21
193.7255834418
  0
LINE
  8
AUSFORMSCHRAEGEN
 62
7
  6
CONTINUOUS
 10
122.6686566819
 20
193.7413057756
 11
78.5186566819
 21
193.7413057756
  0
LINE
  8
AUSFORMSCHRAEGEN
 62
7
  6
CONTINUOUS
 10
63.0383633832
 20
193.7413057756
 11
77.7186566819
 21
193.7413057756
  0
LINE
  8
AUSFORMSCHRAEGEN
 62
7
  6
CONTINUOUS
 10
123.4686566819
 20
193.7413057756
 11
138.1489499806
 21
193.7413057756
  0
LINE
  8
AUSFORMSCHRAEGEN
 62
7
  6
CONTINUOUS
 10
53.1186566819
 20
193.6888979963
 11
54.1186566819
 21
193.7255834418
  0
LINE
  8
0
 62
7
  6
CONTINUOUS
 10
147.0686566819
 20
193.7255834418
 11
148.0686566819
 21
193.6888979963
  0
LINE
  8
0
 62
7
  6
CONTINUOUS
 10
148.0686566819
 20
193.6888979963
 11
148.0686566819
 21
193.336937965
  0
LINE
  8
AUSFORMSCHRAEGEN
 62
7
  6
CONTINUOUS
 10
148.0686566819
 20
193.3369378468
 11
148.0686566819
 21
112.8456737043
  0
LINE
  8
0
 62
7
  6
CONTINUOUS
 10
148.0686566819
 20
112.8456735904
 11
148.0686566819
 21
112.4937135549
  0
POLYLINE
  8
0
 62
7
  6
CONTINUOUS
 66
1
 70
0
  0
VERTEX
  8
0
 62
7
  6
CONTINUOUS
 10
147.9796340785
 20
193.5820410061
  0
VERTEX
  8
0
 62
7
  6
CONTINUOUS
 10
147.9233954003
 20
187.8825641912
  0
VERTEX
  8
0
 62
7
  6
CONTINUOUS
 10
147.8757465016
 20
182.1491469686
  0
VERTEX
  8
0
 62
7
  6
CONTINUOUS
 10
147.8366671359
 20
176.3784110283
  0
VERTEX
  8
0
 62
7
  6
CONTINUOUS
 10
147.8062180425
 20
170.5804913002
  0
VERTEX
  8
0
 62
7
  6
CONTINUOUS
 10
147.7844498149
 20
164.7621208119
  0
VERTEX
  8
0
 62
7
  6
CONTINUOUS
 10
147.7713726446
 20
158.9301269605
  0
VERTEX
  8
0
 62
7
  6
CONTINUOUS
 10
147.76701697
 20
153.0913056751
  0
VERTEX
  8
0
 62
7
  6
CONTINUOUS
 10
147.7713726449
 20
147.2524843874
  0
VERTEX
  8
0
 62
7
  6
CONTINUOUS
 10
147.7844498155
 20
141.4204905307
  0
VERTEX
  8
0
 62
7
  6
CONTINUOUS
 10
147.8062180435
 20
135.6021200289
  0
VERTEX
  8
0
 62
7
  6
CONTINUOUS
 10
147.8366671376
 20
129.8042002486
  0
VERTEX
  8
0
 62
7
  6
CONTINUOUS
 10
147.8757465038
 20
124.0334642944
  0
VERTEX
  8
0
 62
7
  6
CONTINUOUS
 10
147.9233954018
 20
118.3000471716
  0
VERTEX
  8
0
 62
7
  6
CONTINUOUS
 10
147.9796340785
 20
112.6005705451
  0
SEQEND
  0
LINE
  8
AUSFORMSCHRAEGEN
 62
7
  6
CONTINUOUS
 10
138.1541865001
 20
112.4570281094
 11
138.1489499806
 21
112.4413057756
  0
LINE
  8
AUSFORMSCHRAEGEN
 62
7
  6
CONTINUOUS
 10
138.1541865001
 20
193.7255834418
 11
138.1489499806
 21
193.7413057756
  0
ARC
  8
0
 62
7
  6
CONTINUOUS
 10
139.8790340404
 20
131.6511743978
 40
1.5783018868
 50
153.9361648734
 51
206.0638351266
  0
ARC
  8
0
 62
7
  6
CONTINUOUS
 10
139.1790340404
 20
131.6511743978
 40
1.5783018868
 50
333.9361648734
 51
345.7271628261
  0
ARC
  8
0
 62
7
  6
CONTINUOUS
 10
139.1790340404
 20
131.6511743978
 40
1.5783018868
 50
355.4588205662
 51
26.0638351266
  0
ARC
  8
0
 62
7
  6
CONTINUOUS
 10
136.9865812102
 20
131.643353236
 40
1.4198113208
 50
163.7397952917
 51
196.2602047083
  0
ARC
  8
0
 62
7
  6
CONTINUOUS
 10
142.4226979432
 20
130.9871200429
 40
1.241509434
 50
83.6427949283
 51
96.3572050717
  0
ARC
  8
0
 62
7
  6
CONTINUOUS
 10
136.796392531
 20
131.6988249341
 40
1.2216981132
 50
115.8720959629
 51
163.7397952917
  0
ARC
  8
0
 62
7
  6
CONTINUOUS
 10
139.5290340404
 20
131.4799850209
 40
1.1886792453
 50
206.0638351266
 51
333.9361648734
  0
ARC
  8
0
 62
7
  6
CONTINUOUS
 10
139.5290340404
 20
131.8223637747
 40
1.1886792453
 50
26.0638351266
 51
153.9361648734
  0
ARC
  8
0
 62
7
  6
CONTINUOUS
 10
136.6696000781
 20
131.5509004058
 40
1.0896226415
 50
196.2602047083
 51
305.5785257325
  0
ARC
  8
0
 62
7
  6
CONTINUOUS
 10
142.5007321536
 20
131.8728164258
 40
0.970754717
 50
86.4898998995
 51
138.4432736979
  0
ARC
  8
0
 62
7
  6
CONTINUOUS
 10
136.4052046343
 20
131.6314009147
 40
0.9641509434
 50
338.6970988849
 51
21.3029011151
  0
ARC
  8
0
 62
7
  6
CONTINUOUS
 10
136.6696000781
 20
131.9602676548
 40
0.9311320755
 50
47.0898159783
 51
115.8720959629
  0
ARC
  8
0
 62
7
  6
CONTINUOUS
 10
136.9865812102
 20
131.6314009147
 40
0.8452830189
 50
148.2116693829
 51
211.7883306171
  0
ARC
  8
0
 62
7
  6
CONTINUOUS
 10
139.5290340404
 20
131.4795724948
 40
0.6603773585
 50
175.9501323166
 51
270.0
  0
ARC
  8
0
 62
7
  6
CONTINUOUS
 10
139.5290340404
 20
131.9620604926
 40
0.5943396226
 50
0.0
 51
180.0
  0
ARC
  8
0
 62
7
  6
CONTINUOUS
 10
139.5290340404
 20
131.4100698255
 40
0.5908746892
 50
270.0
 51
345.4933768693
  0
ARC
  8
0
 62
7
  6
CONTINUOUS
 10
136.7620529083
 20
131.7705510586
 40
0.5811320755
 50
21.3029011151
 51
148.2116693829
  0
ARC
  8
0
 62
7
  6
CONTINUOUS
 10
136.7620529083
 20
131.4922507708
 40
0.5811320755
 50
211.7883306171
 51
338.6970988849
  0
ARC
  8
0
 62
7
  6
CONTINUOUS
 10
142.3488453612
 20
131.649999841
 40
0.5745283019
 50
96.3572050717
 51
180.0
  0
ARC
  8
0
 62
7
  6
CONTINUOUS
 10
129.7950717762
 20
131.9422491718
 40
0.1320754717
 50
270.0
 51
360.0
  0
ARC
  8
0
 62
7
  6
CONTINUOUS
 10
129.7950717762
 20
132.5365887945
 40
0.1320754717
 50
0.0
 51
90.0
  0
ARC
  8
0
 62
7
  6
CONTINUOUS
 10
129.2007321536
 20
132.5365887945
 40
0.1320754717
 50
90.0
 51
180.0
  0
ARC
  8
0
 62
7
  6
CONTINUOUS
 10
129.2007321536
 20
131.9422491718
 40
0.1320754717
 50
180.0
 51
270.0
  0
ARC
  8
0
 62
7
  6
CONTINUOUS
 10
129.2007321536
 20
130.4233812473
 40
0.1320754717
 50
180.0
 51
270.0
  0
ARC
  8
0
 62
7
  6
CONTINUOUS
 10
129.7950717762
 20
130.4233812473
 40
0.1320754717
 50
270.0
 51
360.0
  0
ARC
  8
0
 62
7
  6
CONTINUOUS
 10
129.7950717762
 20
131.0177208699
 40
0.1320754717
 50
0.0
 51
90.0
  0
ARC
  8
0
 62
7
  6
CONTINUOUS
 10
129.2007321536
 20
131.0177208699
 40
0.1320754717
 50
90.0
 51
180.0
  0
ENDSEC
  0
EOF
