999
DXF file: GT452.dxf
999
Pro/ENGINEER 2021304 by Parametric Technology Corporation
  0
SECTION
  2
HEADER
  9
$EXTMAX
 10
297.0
 20
210.0
 30
0.0
  9
$EXTMIN
 10
0.0
 20
0.0
 30
0.0
  9
$LIMMIN
 10
0.0
 20
0.0
  9
$LIMMAX
 10
297.0
 20
210.0
  9
$VIEWCTR
 10
148.5
 20
105.0
  9
$VIEWSIZE
 40
210.0
  9
$CLAYER
  8
0
  9
$LTSCALE
 40
16.335
  9
$CELTYPE
  6
BYLAYER
  9
$DIMSCALE
 40
1.0
  9
$DIMASZ
 40
3.5
  9
$DIMEXO
 40
0.0
  9
$DIMDLI
 40
11.286
  9
$DIMEXE
 40
1.5
  9
$DIMCEN
 40
2.673
  9
$DIMLFAC
 40
1.0
  9
$DIMBLK
  1
_FILLED
  9
$DIMALT
 70
0
  9
$DIMALTF
 40
0.0393700787
  9
$DIMTXT
 40
3.0
  9
$AUNITS
 70
0
  9
$PDMODE
 70
3
  9
$PDSIZE
 40
0.3125
  9
$TILEMODE
 70
1
  0
ENDSEC
  0
SECTION
  2
TABLES
  0
TABLE
  2
LTYPE
 70
6
  0
LTYPE
  2
BYBLOCK
 70
0
  3

 72
65
 73
0
 40
0.0
  0
LTYPE
  2
BYLAYER
 70
0
  3

 72
65
 73
0
 40
0.0
  0
LTYPE
  2
CONTINUOUS
 70
64
  3
Solid line
 72
65
 73
0
 40
0.0
  0
LTYPE
  2
CENTER
 70
64
  3
____ _ ____ _ ____ _ ____ _ ____ _ ____ _ ____
 72
65
 73
4
 40
0.6
 49
0.375
 49
-0.075
 49
0.075
 49
-0.075
  0
LTYPE
  2
HIDDEN
 70
64
  3
- - - - - - - - - - - - - - - - - - - -
 72
65
 73
2
 40
0.2
 49
0.1
 49
-0.1
  0
LTYPE
  2
PHANTOM
 70
64
  3
_____ _ _ _____ _ _ _____ _ _ _____
 72
65
 73
6
 40
0.8
 49
0.45
 49
-0.05
 49
0.1
 49
-0.05
 49
0.1
 49
-0.05
  0
LTYPE
  2
DOT
 70
64
  3
. . . . . . . . . . . . . . . . . . . .
 72
65
 73
2
 40
0.2
 49
0.1
 49
-0.1
  0
LTYPE
  2
DASHED
 70
64
  3
- - - - - - - - - - - - - - - - - - - -
 72
65
 73
2
 40
0.2
 49
0.1
 49
-0.1
  0
ENDTAB
  0
TABLE
  2
LAYER
 70
36
  0
LAYER
  2
0
 70
0
 62
7
  6
CONTINUOUS
  0
LAYER
  2
DEFAULT_1
 70
0
 62
7
  6
CENTER
  0
LAYER
  2
DEFAULT_2
 70
0
 62
8
  6
HIDDEN
  0
LAYER
  2
DEFAULT_3
 70
0
 62
7
  6
PHANTOM
  0
LAYER
  2
01_ALL_DTM_PLN
 70
0
 62
7
  6
CONTINUOUS
  0
LAYER
  2
01_STARTBEZUEGE
 70
0
 62
7
  6
CONTINUOUS
  0
LAYER
  2
01__ASM_ALL_DTM_PLN
 70
0
 62
7
  6
CONTINUOUS
  0
LAYER
  2
01__ASM_DEF_DTM_PLN
 70
0
 62
7
  6
CONTINUOUS
  0
LAYER
  2
01___PRT_ALL_DTM_PLN
 70
0
 62
7
  6
CONTINUOUS
  0
LAYER
  2
01___PRT_DEF_DTM_PLN
 70
0
 62
7
  6
CONTINUOUS
  0
LAYER
  2
02_ALL_AXES
 70
0
 62
7
  6
CONTINUOUS
  0
LAYER
  2
02__ASM_ALL_AXES
 70
0
 62
7
  6
CONTINUOUS
  0
LAYER
  2
02___PRT_ALL_AXES
 70
0
 62
7
  6
CONTINUOUS
  0
LAYER
  2
03_ALL_CURVES
 70
0
 62
7
  6
CONTINUOUS
  0
LAYER
  2
03__ASM_ALL_CURVES
 70
0
 62
7
  6
CONTINUOUS
  0
LAYER
  2
03___PRT_ALL_CURVES
 70
0
 62
7
  6
CONTINUOUS
  0
LAYER
  2
04_ALL_DTM_PNT
 70
0
 62
7
  6
CONTINUOUS
  0
LAYER
  2
04__ASM_ALL_DTM_PNT
 70
0
 62
7
  6
CONTINUOUS
  0
LAYER
  2
04___PRT_ALL_DTM_PNT
 70
0
 62
7
  6
CONTINUOUS
  0
LAYER
  2
05_ALL_DTM_CSYS
 70
0
 62
7
  6
CONTINUOUS
  0
LAYER
  2
05__ASM_ALL_DTM_CSYS
 70
0
 62
7
  6
CONTINUOUS
  0
LAYER
  2
05__ASM_DEF_DTM_CSYS
 70
0
 62
7
  6
CONTINUOUS
  0
LAYER
  2
05___PRT_ALL_DTM_CSYS
 70
0
 62
7
  6
CONTINUOUS
  0
LAYER
  2
05___PRT_DEF_DTM_CSYS
 70
0
 62
7
  6
CONTINUOUS
  0
LAYER
  2
06_ALL_SURFS
 70
0
 62
7
  6
CONTINUOUS
  0
LAYER
  2
06__ASM_ALL_SURFS
 70
0
 62
7
  6
CONTINUOUS
  0
LAYER
  2
06___PRT_ALL_SURFS
 70
0
 62
7
  6
CONTINUOUS
  0
LAYER
  2
07__ASM_ALL_SKELETONS
 70
0
 62
7
  6
CONTINUOUS
  0
LAYER
  2
AUSFORMSCHRAEGEN
 70
0
 62
7
  6
CONTINUOUS
  0
LAYER
  2
BEZUGSACHSEN
 70
0
 62
7
  6
CONTINUOUS
  0
LAYER
  2
BEZUGSEBENEN
 70
0
 62
7
  6
CONTINUOUS
  0
LAYER
  2
FASEN
 70
0
 62
7
  6
CONTINUOUS
  0
LAYER
  2
FLAECHEN
 70
0
 62
7
  6
CONTINUOUS
  0
LAYER
  2
KURVEN
 70
0
 62
7
  6
CONTINUOUS
  0
LAYER
  2
RUNDUNGEN
 70
0
 62
7
  6
CONTINUOUS
  0
ENDTAB
  0
TABLE
  2
STYLE
 70
1
  0
STYLE
  2
STANDARD
 70
0
 40
0.0
 41
0.8
 50
0.0
 71
0
 42
0.2
  3
txt
  4

  0
STYLE
  2
TEXTSTYLE_1
 70
0
 40
0.0
 41
0.8
 50
0.0
 71
0
 42
0.2
  3
gdt
  4

  0
ENDTAB
  0
ENDSEC
  0
SECTION
  2
BLOCKS
  0
BLOCK
  8
0
  2
_FILLED
 70
64
 10
0.0
 20
0.0
  0
SOLID
  8
0
  6
BYBLOCK
 62
0
 10
0.0
 20
0.0
 11
-1.0
 21
0.125
 12
-1.0
 22
-0.125
 13
-1.0
 23
-0.125
  0
ENDBLK
  8
0
  6
BYBLOCK
 62
0
  0
BLOCK
  8
0
 62
2
  6
CONTINUOUS
  2
*D0
 70
65
 10
0.0
 20
0.0
  0
TEXT
  8
0
 62
2
  6
CONTINUOUS
 10
151.1904869489
 20
56.5907326091
  7
STANDARD
 40
3.0
  1
140
 41
0.8
 72
1
 11
154.7904869489
 21
56.5907326091
  0
LINE
  8
0
 62
2
  6
CONTINUOUS
 10
84.8154869489
 20
66.932883276
 11
84.8154869489
 21
54.3407326091
  0
LINE
  8
0
 62
2
  6
CONTINUOUS
 10
224.7654869489
 20
67.0248532348
 11
224.7654869489
 21
54.3407326091
  0
LINE
  8
0
 62
2
  6
CONTINUOUS
 10
84.8154869489
 20
55.8407326091
 11
154.7904869489
 21
55.8407326091
  0
LINE
  8
0
 62
2
  6
CONTINUOUS
 10
224.7654869489
 20
55.8407326091
 11
154.7904869489
 21
55.8407326091
  0
INSERT
  8
0
 62
2
  6
CONTINUOUS
  2
_FILLED
 10
84.8154869489
 20
55.8407326091
 41
3.5
 42
3.5
 43
3.5
 50
180.0
  0
INSERT
  8
0
 62
2
  6
CONTINUOUS
  2
_FILLED
 10
224.7654869489
 20
55.8407326091
 41
3.5
 42
3.5
 43
3.5
  0
ENDBLK
  8
0
  6
BYBLOCK
 62
0
  0
BLOCK
  8
0
 62
2
  6
CONTINUOUS
  2
*D1
 70
65
 10
0.0
 20
0.0
  0
TEXT
  8
0
 62
2
  6
CONTINUOUS
 10
72.8550750902
 20
104.870485306
  7
STANDARD
 40
3.0
  1
81
 50
90.0
 41
0.8
 72
1
 11
72.8550750902
 21
107.270485306
  0
LINE
  8
0
 62
2
  6
CONTINUOUS
 10
102.9029304664
 20
66.620485306
 11
72.1050750902
 21
66.620485306
  0
LINE
  8
0
 62
2
  6
CONTINUOUS
 10
110.2654869489
 20
147.920485306
 11
72.1050750902
 21
147.920485306
  0
LINE
  8
0
 62
2
  6
CONTINUOUS
 10
73.6050750902
 20
66.620485306
 11
73.6050750902
 21
107.270485306
  0
LINE
  8
0
 62
2
  6
CONTINUOUS
 10
73.6050750902
 20
147.920485306
 11
73.6050750902
 21
107.270485306
  0
INSERT
  8
0
 62
2
  6
CONTINUOUS
  2
_FILLED
 10
73.6050750902
 20
66.620485306
 41
3.5
 42
3.5
 43
3.5
 50
270.0
  0
INSERT
  8
0
 62
2
  6
CONTINUOUS
  2
_FILLED
 10
73.6050750902
 20
147.920485306
 41
3.5
 42
3.5
 43
3.5
 50
90.0
  0
ENDBLK
  8
0
  6
BYBLOCK
 62
0
  0
BLOCK
  8
0
 62
2
  6
CONTINUOUS
  2
*D2
 70
65
 10
0.0
 20
0.0
  0
TEXT
  8
0
 62
2
  6
CONTINUOUS
 10
152.3904869489
 20
156.9384540959
  7
STANDARD
 40
3.0
  1
90
 41
0.8
 72
1
 11
154.7904869489
 21
156.9384540959
  0
LINE
  8
0
 62
2
  6
CONTINUOUS
 10
109.8154869489
 20
147.320485306
 11
109.8154869489
 21
157.6884540959
  0
LINE
  8
0
 62
2
  6
CONTINUOUS
 10
199.7654869489
 20
127.6723906533
 11
199.7654869489
 21
157.6884540959
  0
LINE
  8
0
 62
2
  6
CONTINUOUS
 10
109.8154869489
 20
156.1884540959
 11
154.7904869489
 21
156.1884540959
  0
LINE
  8
0
 62
2
  6
CONTINUOUS
 10
199.7654869489
 20
156.1884540959
 11
154.7904869489
 21
156.1884540959
  0
INSERT
  8
0
 62
2
  6
CONTINUOUS
  2
_FILLED
 10
109.8154869489
 20
156.1884540959
 41
3.5
 42
3.5
 43
3.5
 50
180.0
  0
INSERT
  8
0
 62
2
  6
CONTINUOUS
  2
_FILLED
 10
199.7654869489
 20
156.1884540959
 41
3.5
 42
3.5
 43
3.5
  0
ENDBLK
  8
0
  6
BYBLOCK
 62
0
  0
BLOCK
  8
0
 62
2
  6
CONTINUOUS
  2
*D3
 70
65
 10
0.0
 20
0.0
  0
TEXT
  8
0
 62
2
  6
CONTINUOUS
 10
129.5975263796
 20
100.3514429144
  7
STANDARD
 40
3.0
  1
40.5
 50
90.0
 41
0.8
 72
1
 11
129.5975263796
 21
105.1514429144
  0
LINE
  8
0
 62
2
  6
CONTINUOUS
 10
130.3475263796
 20
87.020485306
 11
130.3475263796
 21
107.270485306
  0
LINE
  8
0
 62
2
  6
CONTINUOUS
 10
130.3475263796
 20
127.520485306
 11
130.3475263796
 21
107.270485306
  0
INSERT
  8
0
 62
2
  6
CONTINUOUS
  2
_FILLED
 10
130.3475263796
 20
87.020485306
 41
3.5
 42
3.5
 43
3.5
 50
270.0
  0
INSERT
  8
0
 62
2
  6
CONTINUOUS
  2
_FILLED
 10
130.3475263796
 20
127.520485306
 41
3.5
 42
3.5
 43
3.5
 50
90.0
  0
ENDBLK
  8
0
  6
BYBLOCK
 62
0
  0
ENDSEC
  0
SECTION
  2
ENTITIES
  0
DIMENSION
  8
0
 62
2
  6
CONTINUOUS
  2
*D0
 10
224.7654869489
 20
55.8407326091
 11
155.0904941711
 21
55.8407326091
 70
128
 13
84.8154869489
 23
66.932883276
 14
224.7654869489
 24
67.0248532348
  0
DIMENSION
  8
0
 62
2
  6
CONTINUOUS
  2
*D1
 10
73.6050750902
 20
147.920485306
 11
73.6050750902
 21
106.8954860902
 70
128
 13
102.9029304664
 23
66.620485306
 14
110.2654869489
 24
147.920485306
 50
90.0
  0
DIMENSION
  8
0
 62
2
  6
CONTINUOUS
  2
*D2
 10
199.7654869489
 20
156.1884540959
 11
154.7904940796
 21
156.1884540959
 70
128
 13
109.8154869489
 23
147.320485306
 14
199.7654869489
 24
127.6723906533
  0
DIMENSION
  8
0
 62
2
  6
CONTINUOUS
  2
*D3
 10
130.3475263796
 20
127.520485306
 11
130.3475263796
 21
105.2264446568
 70
128
 13
109.8654869489
 23
87.020485306
 14
109.8654869489
 24
127.520485306
 50
90.0
  0
POLYLINE
  8
AUSFORMSCHRAEGEN
 62
7
  6
CONTINUOUS
 66
1
 70
0
  0
VERTEX
  8
AUSFORMSCHRAEGEN
 62
7
  6
CONTINUOUS
 10
84.9045095265
 20
147.7612205674
  0
VERTEX
  8
AUSFORMSCHRAEGEN
 62
7
  6
CONTINUOUS
 10
84.9607473951
 20
142.0617412584
  0
VERTEX
  8
AUSFORMSCHRAEGEN
 62
7
  6
CONTINUOUS
 10
85.008395606
 20
136.328322528
  0
VERTEX
  8
AUSFORMSCHRAEGEN
 62
7
  6
CONTINUOUS
 10
85.0474744048
 20
130.5575861616
  0
VERTEX
  8
AUSFORMSCHRAEGEN
 62
7
  6
CONTINUOUS
 10
85.0779230548
 20
124.7596668034
  0
VERTEX
  8
AUSFORMSCHRAEGEN
 62
7
  6
CONTINUOUS
 10
85.0996909648
 20
118.9412972931
  0
VERTEX
  8
AUSFORMSCHRAEGEN
 62
7
  6
CONTINUOUS
 10
85.1127679437
 20
113.1093048297
  0
VERTEX
  8
AUSFORMSCHRAEGEN
 62
7
  6
CONTINUOUS
 10
85.1171235546
 20
107.2704851485
  0
VERTEX
  8
AUSFORMSCHRAEGEN
 62
7
  6
CONTINUOUS
 10
85.1127679432
 20
101.4316654798
  0
VERTEX
  8
AUSFORMSCHRAEGEN
 62
7
  6
CONTINUOUS
 10
85.099690964
 20
95.5996730577
  0
VERTEX
  8
AUSFORMSCHRAEGEN
 62
7
  6
CONTINUOUS
 10
85.0779230539
 20
89.7813036051
  0
VERTEX
  8
AUSFORMSCHRAEGEN
 62
7
  6
CONTINUOUS
 10
85.047474404
 20
83.9833843142
  0
VERTEX
  8
AUSFORMSCHRAEGEN
 62
7
  6
CONTINUOUS
 10
85.0083956055
 20
78.2126480117
  0
VERTEX
  8
AUSFORMSCHRAEGEN
 62
7
  6
CONTINUOUS
 10
84.9607473948
 20
72.4792293249
  0
VERTEX
  8
AUSFORMSCHRAEGEN
 62
7
  6
CONTINUOUS
 10
84.9045095265
 20
66.7797500447
  0
SEQEND
  0
LINE
  8
AUSFORMSCHRAEGEN
 62
7
  6
CONTINUOUS
 10
84.8154869489
 20
66.6728930853
 11
84.8154869489
 21
147.8680775268
  0
LINE
  8
AUSFORMSCHRAEGEN
 62
7
  6
CONTINUOUS
 10
94.7299571307
 20
147.9047629723
 11
94.7351936502
 21
147.920485306
  0
LINE
  8
AUSFORMSCHRAEGEN
 62
7
  6
CONTINUOUS
 10
94.7351936502
 20
66.620485306
 11
94.7299571307
 21
66.6362076398
  0
LINE
  8
AUSFORMSCHRAEGEN
 62
7
  6
CONTINUOUS
 10
109.4364394106
 20
147.320485306
 11
109.4154869489
 21
147.920485306
  0
LINE
  8
AUSFORMSCHRAEGEN
 62
7
  6
CONTINUOUS
 10
109.4154869489
 20
147.7612205674
 11
109.4154869489
 21
66.7797500447
  0
LINE
  8
0
 62
7
  6
CONTINUOUS
 10
109.4364394106
 20
147.320485306
 11
109.4364394106
 21
67.220485306
  0
LINE
  8
0
 62
7
  6
CONTINUOUS
 10
109.8154869489
 20
147.320485306
 11
109.8154869489
 21
67.220485306
  0
LINE
  8
AUSFORMSCHRAEGEN
 62
7
  6
CONTINUOUS
 10
109.8654869489
 20
147.320485306
 11
109.8654869489
 21
127.520485306
  0
LINE
  8
AUSFORMSCHRAEGEN
 62
7
  6
CONTINUOUS
 10
109.8654869489
 20
67.220485306
 11
109.8654869489
 21
87.020485306
  0
LINE
  8
AUSFORMSCHRAEGEN
 62
7
  6
CONTINUOUS
 10
110.2445344872
 20
147.320485306
 11
110.2445344872
 21
130.0579633571
  0
LINE
  8
AUSFORMSCHRAEGEN
 62
7
  6
CONTINUOUS
 10
110.2654869489
 20
147.7612205366
 11
110.2654869489
 21
130.0685064578
  0
LINE
  8
AUSFORMSCHRAEGEN
 62
7
  6
CONTINUOUS
 10
110.2654869489
 20
66.620485306
 11
110.2654869489
 21
84.4724641542
  0
LINE
  8
AUSFORMSCHRAEGEN
 62
7
  6
CONTINUOUS
 10
110.2445344872
 20
147.320485306
 11
110.2654869489
 21
147.920485306
  0
LINE
  8
AUSFORMSCHRAEGEN
 62
7
  6
CONTINUOUS
 10
109.4154869489
 20
66.620485306
 11
109.4364394106
 21
67.220485306
  0
LINE
  8
0
 62
7
  6
CONTINUOUS
 10
224.7654869489
 20
66.6728930853
 11
223.7654869489
 21
66.6362076398
  0
LINE
  8
AUSFORMSCHRAEGEN
 62
7
  6
CONTINUOUS
 10
84.8154869489
 20
66.6728930853
 11
85.8154869489
 21
66.6362076398
  0
LINE
  8
AUSFORMSCHRAEGEN
 62
7
  6
CONTINUOUS
 10
214.8457802475
 20
66.620485306
 11
200.1654869489
 21
66.620485306
  0
LINE
  8
AUSFORMSCHRAEGEN
 62
7
  6
CONTINUOUS
 10
199.3654869489
 20
66.620485306
 11
155.2154869489
 21
66.620485306
  0
LINE
  8
AUSFORMSCHRAEGEN
 62
7
  6
CONTINUOUS
 10
154.4154869489
 20
66.620485306
 11
110.2654869489
 21
66.620485306
  0
LINE
  8
AUSFORMSCHRAEGEN
 62
7
  6
CONTINUOUS
 10
109.4154869489
 20
66.620485306
 11
94.7351936502
 21
66.620485306
  0
LINE
  8
AUSFORMSCHRAEGEN
 62
7
  6
CONTINUOUS
 10
94.7299571307
 20
66.6362076398
 11
85.8154869489
 21
66.6362076398
  0
LINE
  8
AUSFORMSCHRAEGEN
 62
7
  6
CONTINUOUS
 10
214.851016767
 20
66.6362076398
 11
223.7654869489
 21
66.6362076398
  0
LINE
  8
0
 62
7
  6
CONTINUOUS
 10
199.3654869489
 20
66.7797500755
 11
155.2154869489
 21
66.7797500755
  0
LINE
  8
AUSFORMSCHRAEGEN
 62
7
  6
CONTINUOUS
 10
154.4154869489
 20
66.7797500755
 11
110.2654869489
 21
66.7797500755
  0
LINE
  8
AUSFORMSCHRAEGEN
 62
7
  6
CONTINUOUS
 10
84.9045095265
 20
66.7797500447
 11
109.4154869489
 21
66.7797500447
  0
LINE
  8
0
 62
7
  6
CONTINUOUS
 10
200.1654869489
 20
66.7797500755
 11
224.6764643455
 21
66.7797500755
  0
LINE
  8
0
 62
7
  6
CONTINUOUS
 10
200.1445344872
 20
67.220485306
 11
199.3864394106
 21
67.220485306
  0
LINE
  8
0
 62
7
  6
CONTINUOUS
 10
155.2154869489
 20
67.220485306
 11
154.4364394106
 21
67.220485306
  0
LINE
  8
AUSFORMSCHRAEGEN
 62
7
  6
CONTINUOUS
 10
110.2654869489
 20
67.220485306
 11
109.8654869489
 21
67.220485306
  0
LINE
  8
0
 62
7
  6
CONTINUOUS
 10
109.4364394106
 20
67.220485306
 11
109.8154869489
 21
67.220485306
  0
LINE
  8
AUSFORMSCHRAEGEN
 62
7
  6
CONTINUOUS
 10
109.8654869489
 20
68.4621788616
 11
109.8154869489
 21
68.4634608211
  0
LINE
  8
0
 62
7
  6
CONTINUOUS
 10
109.8654869489
 20
68.420485306
 11
109.8154869489
 21
68.4217946021
  0
POLYLINE
  8
0
 62
7
  6
CONTINUOUS
 66
1
 70
0
  0
VERTEX
  8
0
 62
7
  6
CONTINUOUS
 10
210.2678057862
 20
85.9415691228
  0
VERTEX
  8
0
 62
7
  6
CONTINUOUS
 10
210.4285290675
 20
85.9813527617
  0
VERTEX
  8
0
 62
7
  6
CONTINUOUS
 10
210.5025208904
 20
85.9980099735
  0
VERTEX
  8
0
 62
7
  6
CONTINUOUS
 10
210.5728413573
 20
86.0127880809
  0
VERTEX
  8
0
 62
7
  6
CONTINUOUS
 10
210.6396878239
 20
86.0258194085
  0
VERTEX
  8
0
 62
7
  6
CONTINUOUS
 10
210.7032856823
 20
86.0374392896
  0
VERTEX
  8
0
 62
7
  6
CONTINUOUS
 10
210.7638528505
 20
86.0476248023
  0
VERTEX
  8
0
 62
7
  6
CONTINUOUS
 10
210.8216385792
 20
86.0563558922
  0
VERTEX
  8
0
 62
7
  6
CONTINUOUS
 10
210.8767742626
 20
86.0639593308
  0
VERTEX
  8
0
 62
7
  6
CONTINUOUS
 10
210.929407773
 20
86.0707617014
  0
VERTEX
  8
0
 62
7
  6
CONTINUOUS
 10
210.9797389269
 20
86.0767435673
  0
VERTEX
  8
0
 62
7
  6
CONTINUOUS
 10
211.0281927733
 20
86.0813769894
  0
VERTEX
  8
0
 62
7
  6
CONTINUOUS
 10
211.0742414873
 20
86.086514074
  0
VERTEX
  8
0
 62
7
  6
CONTINUOUS
 10
211.1177404065
 20
86.0930871721
  0
VERTEX
  8
0
 62
7
  6
CONTINUOUS
 10
211.1579650918
 20
86.103327741
  0
VERTEX
  8
0
 62
7
  6
CONTINUOUS
 10
211.1944296403
 20
86.1207069927
  0
VERTEX
  8
0
 62
7
  6
CONTINUOUS
 10
211.2262737805
 20
86.1424385173
  0
VERTEX
  8
0
 62
7
  6
CONTINUOUS
 10
211.2523474934
 20
86.1666891691
  0
VERTEX
  8
0
 62
7
  6
CONTINUOUS
 10
211.2730341187
 20
86.1940702117
  0
SEQEND
  0
LINE
  8
0
 62
7
  6
CONTINUOUS
 10
210.5664303451
 20
85.6261456834
 11
211.2730341187
 21
85.7634955434
  0
LINE
  8
AUSFORMSCHRAEGEN
 62
7
  6
CONTINUOUS
 10
84.9045095265
 20
66.7797500447
 11
84.8154869489
 21
66.6728930853
  0
LINE
  8
AUSFORMSCHRAEGEN
 62
7
  6
CONTINUOUS
 10
84.9045095265
 20
147.7612205674
 11
84.8154869489
 21
147.8680775268
  0
LINE
  8
AUSFORMSCHRAEGEN
 62
7
  6
CONTINUOUS
 10
109.8154869489
 20
82.9691417131
 11
109.8654869489
 21
82.970485306
  0
LINE
  8
AUSFORMSCHRAEGEN
 62
7
  6
CONTINUOUS
 10
109.8154869489
 20
82.7747467463
 11
109.8654869489
 21
82.7760164983
  0
LINE
  8
0
 62
7
  6
CONTINUOUS
 10
218.4711473262
 20
84.470485306
 11
217.8503926092
 21
84.470485306
  0
LINE
  8
0
 62
7
  6
CONTINUOUS
 10
212.9371850621
 20
84.470485306
 11
212.3362416658
 21
84.470485306
  0
LINE
  8
0
 62
7
  6
CONTINUOUS
 10
211.9400152508
 20
84.470485306
 11
211.2730341187
 21
84.470485306
  0
LINE
  8
0
 62
7
  6
CONTINUOUS
 10
209.2919020432
 20
84.470485306
 11
208.6843548734
 21
84.470485306
  0
LINE
  8
0
 62
7
  6
CONTINUOUS
 10
207.7598265715
 20
84.470485306
 11
207.1522794017
 21
84.470485306
  0
LINE
  8
0
 62
7
  6
CONTINUOUS
 10
206.4919020432
 20
84.470485306
 11
205.8975624206
 21
84.470485306
  0
LINE
  8
0
 62
7
  6
CONTINUOUS
 10
199.3654869489
 20
84.4724641542
 11
155.2154869489
 21
84.4724641542
  0
LINE
  8
AUSFORMSCHRAEGEN
 62
7
  6
CONTINUOUS
 10
154.4154869489
 20
84.4724641542
 11
110.2654869489
 21
84.4724641542
  0
LINE
  8
0
 62
7
  6
CONTINUOUS
 10
199.9029649999
 20
84.483007255
 11
199.3864394106
 21
84.483007255
  0
LINE
  8
AUSFORMSCHRAEGEN
 62
7
  6
CONTINUOUS
 10
154.8154869489
 20
84.483007255
 11
154.4364394106
 21
84.483007255
  0
LINE
  8
AUSFORMSCHRAEGEN
 62
7
  6
CONTINUOUS
 10
110.2654869489
 20
84.483007255
 11
109.8654869489
 21
84.483007255
  0
LINE
  8
0
 62
7
  6
CONTINUOUS
 10
154.8154869489
 20
84.483007255
 11
155.2154869489
 21
84.483007255
  0
LINE
  8
AUSFORMSCHRAEGEN
 62
7
  6
CONTINUOUS
 10
154.8154869489
 20
84.620485306
 11
109.8654869489
 21
84.620485306
  0
LINE
  8
0
 62
7
  6
CONTINUOUS
 10
154.8154869489
 20
84.620485306
 11
199.7654869489
 21
84.620485306
  0
LINE
  8
0
 62
7
  6
CONTINUOUS
 10
206.4919020432
 20
85.3289758721
 11
205.8975624206
 21
85.3289758721
  0
LINE
  8
0
 62
7
  6
CONTINUOUS
 10
217.4054483079
 20
85.441240023
 11
216.7979011381
 21
85.441240023
  0
LINE
  8
0
 62
7
  6
CONTINUOUS
 10
217.4492114096
 20
85.7053909664
 11
215.5671359379
 21
85.7053909664
  0
LINE
  8
0
 62
7
  6
CONTINUOUS
 10
206.4919020432
 20
85.9893532306
 11
205.8975624206
 21
85.9893532306
  0
LINE
  8
0
 62
7
  6
CONTINUOUS
 10
216.82020393
 20
86.141240023
 11
215.6315246847
 21
86.141240023
  0
LINE
  8
0
 62
7
  6
CONTINUOUS
 10
210.361713364
 20
86.2469004004
 11
209.7673737413
 21
86.2469004004
  0
LINE
  8
RUNDUNGEN
 62
9
  6
CONTINUOUS
 10
197.6373922962
 20
86.5788733263
 11
154.8154869489
 21
86.5788733263
  0
LINE
  8
0
 62
7
  6
CONTINUOUS
 10
206.4919020432
 20
86.8478437966
 11
205.8975624206
 21
86.8478437966
  0
LINE
  8
0
 62
7
  6
CONTINUOUS
 10
199.7654869489
 20
86.8685799588
 11
197.6373922962
 21
86.8685799588
  0
LINE
  8
AUSFORMSCHRAEGEN
 62
7
  6
CONTINUOUS
 10
154.8154869489
 20
86.8685799588
 11
109.8654869489
 21
86.8685799588
  0
LINE
  8
RUNDUNGEN
 62
9
  6
CONTINUOUS
 10
197.6272816805
 20
86.8786905744
 11
154.8154869489
 21
86.8786905744
  0
LINE
  8
0
 62
7
  6
CONTINUOUS
 10
218.4711473262
 20
86.9865230419
 11
217.8503926092
 21
86.9865230419
  0
LINE
  8
0
 62
7
  6
CONTINUOUS
 10
214.6013360055
 20
87.0195419098
 11
214.0003926092
 21
87.0195419098
  0
LINE
  8
AUSFORMSCHRAEGEN
 62
7
  6
CONTINUOUS
 10
154.8154869489
 20
87.020485306
 11
109.8654869489
 21
87.020485306
  0
LINE
  8
0
 62
7
  6
CONTINUOUS
 10
154.8154869489
 20
87.020485306
 11
199.7654869489
 21
87.020485306
  0
LINE
  8
0
 62
7
  6
CONTINUOUS
 10
207.7598265715
 20
87.970485306
 11
207.1522794017
 21
87.970485306
  0
LINE
  8
AUSFORMSCHRAEGEN
 62
7
  6
CONTINUOUS
 10
154.4154869489
 20
66.7797500755
 11
154.4154869489
 21
84.4724641542
  0
LINE
  8
AUSFORMSCHRAEGEN
 62
7
  6
CONTINUOUS
 10
154.4154869489
 20
130.0685064578
 11
154.4154869489
 21
147.920485306
  0
LINE
  8
AUSFORMSCHRAEGEN
 62
7
  6
CONTINUOUS
 10
154.4364394106
 20
67.220485306
 11
154.4364394106
 21
84.483007255
  0
LINE
  8
AUSFORMSCHRAEGEN
 62
7
  6
CONTINUOUS
 10
154.8154869489
 20
147.320485306
 11
154.8154869489
 21
127.6723906533
  0
LINE
  8
AUSFORMSCHRAEGEN
 62
7
  6
CONTINUOUS
 10
154.8154869489
 20
127.6622800377
 11
154.8154869489
 21
127.520485306
  0
LINE
  8
RUNDUNGEN
 62
7
  6
CONTINUOUS
 10
154.8154869489
 20
127.6622800377
 11
154.8154869489
 21
127.520485306
  0
LINE
  8
0
 62
7
  6
CONTINUOUS
 10
154.8154869489
 20
67.220485306
 11
154.8154869489
 21
86.5788733263
  0
LINE
  8
AUSFORMSCHRAEGEN
 62
7
  6
CONTINUOUS
 10
154.8154869489
 20
67.220485306
 11
154.8154869489
 21
86.8685799588
  0
LINE
  8
RUNDUNGEN
 62
7
  6
CONTINUOUS
 10
154.8154869489
 20
86.5788733263
 11
154.8154869489
 21
86.6912553043
  0
LINE
  8
AUSFORMSCHRAEGEN
 62
7
  6
CONTINUOUS
 10
154.8154869489
 20
86.8786905744
 11
154.8154869489
 21
87.020485306
  0
LINE
  8
RUNDUNGEN
 62
7
  6
CONTINUOUS
 10
154.8154869489
 20
86.8786905744
 11
154.8154869489
 21
87.020485306
  0
LINE
  8
RUNDUNGEN
 62
7
  6
CONTINUOUS
 10
154.8154869489
 20
127.8497153078
 11
154.8154869489
 21
127.9620972858
  0
LINE
  8
0
 62
7
  6
CONTINUOUS
 10
154.8154869489
 20
127.9620972858
 11
154.8154869489
 21
147.320485306
  0
LINE
  8
0
 62
7
  6
CONTINUOUS
 10
155.2154869489
 20
66.620485306
 11
155.2154869489
 21
84.4724641542
  0
LINE
  8
0
 62
7
  6
CONTINUOUS
 10
155.2154869489
 20
130.0685064578
 11
155.2154869489
 21
147.920485306
  0
LINE
  8
AUSFORMSCHRAEGEN
 62
7
  6
CONTINUOUS
 10
154.4364394106
 20
67.220485306
 11
154.4154869489
 21
66.620485306
  0
LINE
  8
0
 62
7
  6
CONTINUOUS
 10
199.9029649999
 20
130.0579633571
 11
199.7654869489
 21
129.920485306
  0
LINE
  8
0
 62
7
  6
CONTINUOUS
 10
199.9029649999
 20
84.483007255
 11
199.7654869489
 21
84.620485306
  0
LINE
  8
0
 62
7
  6
CONTINUOUS
 10
199.7654869489
 20
127.520485306
 11
154.8154869489
 21
127.520485306
  0
LINE
  8
AUSFORMSCHRAEGEN
 62
7
  6
CONTINUOUS
 10
109.8654869489
 20
127.520485306
 11
154.8154869489
 21
127.520485306
  0
LINE
  8
RUNDUNGEN
 62
9
  6
CONTINUOUS
 10
154.8154869489
 20
127.6622800377
 11
197.6272816805
 21
127.6622800377
  0
LINE
  8
0
 62
7
  6
CONTINUOUS
 10
199.7654869489
 20
127.6723906533
 11
197.6373922962
 21
127.6723906533
  0
LINE
  8
AUSFORMSCHRAEGEN
 62
7
  6
CONTINUOUS
 10
109.8654869489
 20
127.6723906533
 11
154.8154869489
 21
127.6723906533
  0
LINE
  8
RUNDUNGEN
 62
9
  6
CONTINUOUS
 10
154.8154869489
 20
127.9620972858
 11
197.6373922962
 21
127.9620972858
  0
LINE
  8
AUSFORMSCHRAEGEN
 62
7
  6
CONTINUOUS
 10
109.8654869489
 20
131.571828899
 11
109.8154869489
 21
131.570485306
  0
LINE
  8
AUSFORMSCHRAEGEN
 62
7
  6
CONTINUOUS
 10
109.8654869489
 20
131.766222679
 11
109.8154869489
 21
131.7649529269
  0
LINE
  8
AUSFORMSCHRAEGEN
 62
7
  6
CONTINUOUS
 10
109.8654869489
 20
129.920485306
 11
154.8154869489
 21
129.920485306
  0
LINE
  8
0
 62
7
  6
CONTINUOUS
 10
154.8154869489
 20
129.920485306
 11
199.7654869489
 21
129.920485306
  0
LINE
  8
0
 62
7
  6
CONTINUOUS
 10
155.2154869489
 20
130.0579633571
 11
154.8154869489
 21
130.0579633571
  0
LINE
  8
AUSFORMSCHRAEGEN
 62
7
  6
CONTINUOUS
 10
109.8654869489
 20
130.0579633571
 11
110.2445344872
 21
130.0579633571
  0
LINE
  8
AUSFORMSCHRAEGEN
 62
7
  6
CONTINUOUS
 10
154.4154869489
 20
130.0579633571
 11
154.8154869489
 21
130.0579633571
  0
LINE
  8
0
 62
7
  6
CONTINUOUS
 10
199.3864394106
 20
130.0579633571
 11
199.9029649999
 21
130.0579633571
  0
LINE
  8
0
 62
7
  6
CONTINUOUS
 10
199.3654869489
 20
130.0685064578
 11
155.2154869489
 21
130.0685064578
  0
LINE
  8
AUSFORMSCHRAEGEN
 62
7
  6
CONTINUOUS
 10
110.2654869489
 20
130.0685064578
 11
154.4154869489
 21
130.0685064578
  0
LINE
  8
0
 62
7
  6
CONTINUOUS
 10
224.7654869489
 20
147.8680775268
 11
224.6764643455
 21
147.7612205366
  0
LINE
  8
0
 62
7
  6
CONTINUOUS
 10
224.7654869489
 20
66.6728930853
 11
224.6764643455
 21
66.7797500755
  0
POLYLINE
  8
0
 62
7
  6
CONTINUOUS
 66
1
 70
0
  0
VERTEX
  8
0
 62
7
  6
CONTINUOUS
 10
210.5664303451
 20
85.6261456834
  0
VERTEX
  8
0
 62
7
  6
CONTINUOUS
 10
210.4884532312
 20
85.6007651597
  0
VERTEX
  8
0
 62
7
  6
CONTINUOUS
 10
210.4220152554
 20
85.5661757583
  0
VERTEX
  8
0
 62
7
  6
CONTINUOUS
 10
210.366965757
 20
85.5213371242
  0
VERTEX
  8
0
 62
7
  6
CONTINUOUS
 10
210.3237567177
 20
85.4693734062
  0
VERTEX
  8
0
 62
7
  6
CONTINUOUS
 10
210.2929617998
 20
85.4121423329
  0
VERTEX
  8
0
 62
7
  6
CONTINUOUS
 10
210.2740653008
 20
85.3524017434
  0
VERTEX
  8
0
 62
7
  6
CONTINUOUS
 10
210.2670194191
 20
85.2935626917
  0
VERTEX
  8
0
 62
7
  6
CONTINUOUS
 10
210.2709941141
 20
85.2355207341
  0
VERTEX
  8
0
 62
7
  6
CONTINUOUS
 10
210.2851263146
 20
85.1787596806
  0
VERTEX
  8
0
 62
7
  6
CONTINUOUS
 10
210.3094673107
 20
85.1249250059
  0
VERTEX
  8
0
 62
7
  6
CONTINUOUS
 10
210.3435348629
 20
85.0751705194
  0
VERTEX
  8
0
 62
7
  6
CONTINUOUS
 10
210.3880664883
 20
85.0314537745
  0
VERTEX
  8
0
 62
7
  6
CONTINUOUS
 10
210.4447158343
 20
84.9961652469
  0
VERTEX
  8
0
 62
7
  6
CONTINUOUS
 10
210.51025227
 20
84.9691589866
  0
VERTEX
  8
0
 62
7
  6
CONTINUOUS
 10
210.5823232237
 20
84.9513839509
  0
VERTEX
  8
0
 62
7
  6
CONTINUOUS
 10
210.6599481659
 20
84.9419465607
  0
VERTEX
  8
0
 62
7
  6
CONTINUOUS
 10
210.7418381522
 20
84.9396166148
  0
VERTEX
  8
0
 62
7
  6
CONTINUOUS
 10
210.8265658561
 20
84.9463540188
  0
VERTEX
  8
0
 62
7
  6
CONTINUOUS
 10
210.9140346646
 20
84.9628259025
  0
SEQEND
  0
LINE
  8
AUSFORMSCHRAEGEN
 62
7
  6
CONTINUOUS
 10
109.8154869489
 20
146.0787918853
 11
109.8654869489
 21
146.077509926
  0
LINE
  8
0
 62
7
  6
CONTINUOUS
 10
109.8154869489
 20
146.120485306
 11
109.8654869489
 21
146.11917601
  0
LINE
  8
0
 62
7
  6
CONTINUOUS
 10
197.6373922962
 20
127.9620972858
 11
197.6373922962
 21
127.6723906533
  0
LINE
  8
0
 62
7
  6
CONTINUOUS
 10
197.6373922962
 20
86.5788733263
 11
197.6373922962
 21
86.8685799588
  0
POLYLINE
  8
0
 62
7
  6
CONTINUOUS
 66
1
 70
0
  0
VERTEX
  8
0
 62
7
  6
CONTINUOUS
 10
210.9140346646
 20
84.9628259025
  0
VERTEX
  8
0
 62
7
  6
CONTINUOUS
 10
210.9989634932
 20
84.9916816063
  0
VERTEX
  8
0
 62
7
  6
CONTINUOUS
 10
211.0769406533
 20
85.0369210906
  0
VERTEX
  8
0
 62
7
  6
CONTINUOUS
 10
211.1452613437
 20
85.0951627229
  0
VERTEX
  8
0
 62
7
  6
CONTINUOUS
 10
211.199938718
 20
85.1660620146
  0
VERTEX
  8
0
 62
7
  6
CONTINUOUS
 10
211.2404072229
 20
85.2445083578
  0
VERTEX
  8
0
 62
7
  6
CONTINUOUS
 10
211.2645355437
 20
85.3246211374
  0
VERTEX
  8
0
 62
7
  6
CONTINUOUS
 10
211.2730341187
 20
85.4083614138
  0
SEQEND
  0
LINE
  8
AUSFORMSCHRAEGEN
 62
7
  6
CONTINUOUS
 10
84.8154869489
 20
147.8680775268
 11
85.8154869489
 21
147.9047629723
  0
LINE
  8
0
 62
7
  6
CONTINUOUS
 10
155.2154869489
 20
147.320485306
 11
154.8154869489
 21
147.320485306
  0
LINE
  8
0
 62
7
  6
CONTINUOUS
 10
109.4364394106
 20
147.320485306
 11
109.8154869489
 21
147.320485306
  0
LINE
  8
0
 62
7
  6
CONTINUOUS
 10
109.8654869489
 20
147.320485306
 11
110.2445344872
 21
147.320485306
  0
LINE
  8
AUSFORMSCHRAEGEN
 62
7
  6
CONTINUOUS
 10
154.4154869489
 20
147.320485306
 11
154.8154869489
 21
147.320485306
  0
LINE
  8
0
 62
7
  6
CONTINUOUS
 10
199.3864394106
 20
147.320485306
 11
200.1445344872
 21
147.320485306
  0
LINE
  8
AUSFORMSCHRAEGEN
 62
7
  6
CONTINUOUS
 10
84.9045095265
 20
147.7612205674
 11
109.4154869489
 21
147.7612205674
  0
LINE
  8
AUSFORMSCHRAEGEN
 62
7
  6
CONTINUOUS
 10
110.2654869489
 20
147.7612205366
 11
154.4154869489
 21
147.7612205366
  0
LINE
  8
0
 62
7
  6
CONTINUOUS
 10
155.2154869489
 20
147.7612205366
 11
199.3654869489
 21
147.7612205366
  0
LINE
  8
0
 62
7
  6
CONTINUOUS
 10
200.1654869489
 20
147.7612205366
 11
224.6764643455
 21
147.7612205366
  0
LINE
  8
AUSFORMSCHRAEGEN
 62
7
  6
CONTINUOUS
 10
94.7299571307
 20
147.9047629723
 11
85.8154869489
 21
147.9047629723
  0
LINE
  8
AUSFORMSCHRAEGEN
 62
7
  6
CONTINUOUS
 10
214.851016767
 20
147.9047629723
 11
223.7654869489
 21
147.9047629723
  0
LINE
  8
AUSFORMSCHRAEGEN
 62
7
  6
CONTINUOUS
 10
199.3654869489
 20
147.920485306
 11
155.2154869489
 21
147.920485306
  0
LINE
  8
AUSFORMSCHRAEGEN
 62
7
  6
CONTINUOUS
 10
94.7351936502
 20
147.920485306
 11
109.4154869489
 21
147.920485306
  0
LINE
  8
AUSFORMSCHRAEGEN
 62
7
  6
CONTINUOUS
 10
110.2654869489
 20
147.920485306
 11
154.4154869489
 21
147.920485306
  0
LINE
  8
AUSFORMSCHRAEGEN
 62
7
  6
CONTINUOUS
 10
200.1654869489
 20
147.920485306
 11
214.8457802475
 21
147.920485306
  0
LINE
  8
0
 62
7
  6
CONTINUOUS
 10
223.7654869489
 20
147.9047629723
 11
224.7654869489
 21
147.8680775268
  0
LINE
  8
0
 62
7
  6
CONTINUOUS
 10
200.1445344872
 20
67.220485306
 11
200.1602134815
 21
66.7714976535
  0
LINE
  8
AUSFORMSCHRAEGEN
 62
7
  6
CONTINUOUS
 10
200.1602134815
 20
66.7714976535
 11
200.1654869489
 21
66.620485306
  0
LINE
  8
0
 62
7
  6
CONTINUOUS
 10
199.3864394106
 20
147.320485306
 11
199.3707604162
 21
147.7694729585
  0
LINE
  8
AUSFORMSCHRAEGEN
 62
7
  6
CONTINUOUS
 10
199.3707604162
 20
147.7694729585
 11
199.3654869489
 21
147.920485306
  0
POLYLINE
  8
0
 62
7
  6
CONTINUOUS
 66
1
 70
0
  0
VERTEX
  8
0
 62
7
  6
CONTINUOUS
 10
199.9029649999
 20
130.0579633571
  0
VERTEX
  8
0
 62
7
  6
CONTINUOUS
 10
199.9146636418
 20
124.3803978102
  0
VERTEX
  8
0
 62
7
  6
CONTINUOUS
 10
199.9230219696
 20
118.6899629738
  0
VERTEX
  8
0
 62
7
  6
CONTINUOUS
 10
199.9280418691
 20
112.9834415214
  0
VERTEX
  8
0
 62
7
  6
CONTINUOUS
 10
199.9297176832
 20
107.2704854328
  0
VERTEX
  8
0
 62
7
  6
CONTINUOUS
 10
199.9280418693
 20
101.5575293939
  0
VERTEX
  8
0
 62
7
  6
CONTINUOUS
 10
199.92302197
 20
95.8510079596
  0
VERTEX
  8
0
 62
7
  6
CONTINUOUS
 10
199.9146636421
 20
90.1605730112
  0
VERTEX
  8
0
 62
7
  6
CONTINUOUS
 10
199.9029649999
 20
84.483007255
  0
SEQEND
  0
LINE
  8
0
 62
7
  6
CONTINUOUS
 10
199.3654869489
 20
66.7797500755
 11
199.3654869489
 21
84.4724641542
  0
LINE
  8
0
 62
7
  6
CONTINUOUS
 10
199.3654869489
 20
130.0685064578
 11
199.3654869489
 21
147.7612205366
  0
LINE
  8
0
 62
7
  6
CONTINUOUS
 10
199.3864394106
 20
67.220485306
 11
199.3864394106
 21
84.483007255
  0
LINE
  8
0
 62
7
  6
CONTINUOUS
 10
199.3864394106
 20
130.0579633571
 11
199.3864394106
 21
147.320485306
  0
LINE
  8
0
 62
7
  6
CONTINUOUS
 10
199.7654869489
 20
84.620485306
 11
199.7654869489
 21
129.920485306
  0
LINE
  8
0
 62
7
  6
CONTINUOUS
 10
200.1445344872
 20
147.320485306
 11
200.1445344872
 21
67.220485306
  0
LINE
  8
0
 62
7
  6
CONTINUOUS
 10
200.1654869489
 20
66.7797500755
 11
200.1654869489
 21
147.7612205366
  0
LINE
  8
0
 62
7
  6
CONTINUOUS
 10
200.1445344872
 20
147.320485306
 11
200.1602134815
 21
147.7694729585
  0
LINE
  8
AUSFORMSCHRAEGEN
 62
7
  6
CONTINUOUS
 10
200.1602134815
 20
147.7694729585
 11
200.1654869489
 21
147.920485306
  0
LINE
  8
0
 62
7
  6
CONTINUOUS
 10
199.3864394106
 20
67.220485306
 11
199.3707604162
 21
66.7714976535
  0
LINE
  8
AUSFORMSCHRAEGEN
 62
7
  6
CONTINUOUS
 10
199.3707604162
 20
66.7714976535
 11
199.3654869489
 21
66.620485306
  0
POLYLINE
  8
0
 62
7
  6
CONTINUOUS
 66
1
 70
0
  0
VERTEX
  8
0
 62
7
  6
CONTINUOUS
 10
210.0021500364
 20
85.8292636678
  0
VERTEX
  8
0
 62
7
  6
CONTINUOUS
 10
210.0918924921
 20
85.878038127
  0
VERTEX
  8
0
 62
7
  6
CONTINUOUS
 10
210.1816098615
 20
85.9147003975
  0
VERTEX
  8
0
 62
7
  6
CONTINUOUS
 10
210.2678057862
 20
85.9415691228
  0
SEQEND
  0
POLYLINE
  8
0
 62
7
  6
CONTINUOUS
 66
1
 70
0
  0
VERTEX
  8
0
 62
7
  6
CONTINUOUS
 10
212.9371850621
 20
84.470485306
  0
VERTEX
  8
0
 62
7
  6
CONTINUOUS
 10
212.9677877108
 20
84.3971470789
  0
VERTEX
  8
0
 62
7
  6
CONTINUOUS
 10
213.0174865177
 20
84.3332264528
  0
VERTEX
  8
0
 62
7
  6
CONTINUOUS
 10
213.089142842
 20
84.2772388896
  0
VERTEX
  8
0
 62
7
  6
CONTINUOUS
 10
213.1741726059
 20
84.233632485
  0
VERTEX
  8
0
 62
7
  6
CONTINUOUS
 10
213.2658174811
 20
84.2081679672
  0
VERTEX
  8
0
 62
7
  6
CONTINUOUS
 10
213.3614615782
 20
84.1954223488
  0
VERTEX
  8
0
 62
7
  6
CONTINUOUS
 10
213.4566623177
 20
84.1923577452
  0
VERTEX
  8
0
 62
7
  6
CONTINUOUS
 10
213.550141442
 20
84.1975829626
  0
VERTEX
  8
0
 62
7
  6
CONTINUOUS
 10
213.6396403263
 20
84.2074082251
  0
VERTEX
  8
0
 62
7
  6
CONTINUOUS
 10
213.723657493
 20
84.2256923931
  0
VERTEX
  8
0
 62
7
  6
CONTINUOUS
 10
213.8008240602
 20
84.2549396667
  0
VERTEX
  8
0
 62
7
  6
CONTINUOUS
 10
213.8684836156
 20
84.295525867
  0
VERTEX
  8
0
 62
7
  6
CONTINUOUS
 10
213.9241121615
 20
84.3500107609
  0
VERTEX
  8
0
 62
7
  6
CONTINUOUS
 10
213.9659435719
 20
84.4143491674
  0
VERTEX
  8
0
 62
7
  6
CONTINUOUS
 10
213.9910444554
 20
84.4849490777
  0
VERTEX
  8
0
 62
7
  6
CONTINUOUS
 10
214.0003926092
 20
84.5630094432
  0
SEQEND
  0
LINE
  8
0
 62
7
  6
CONTINUOUS
 10
205.7654869489
 20
84.6025607777
 11
205.7654869489
 21
85.1969004004
  0
LINE
  8
0
 62
7
  6
CONTINUOUS
 10
205.7654869489
 20
86.1214287023
 11
205.7654869489
 21
86.7157683249
  0
LINE
  8
0
 62
7
  6
CONTINUOUS
 10
206.6239775149
 20
84.6025607777
 11
206.6239775149
 21
85.1969004004
  0
LINE
  8
0
 62
7
  6
CONTINUOUS
 10
206.6239775149
 20
86.1214287023
 11
206.6239775149
 21
86.7157683249
  0
LINE
  8
0
 62
7
  6
CONTINUOUS
 10
207.1522794017
 20
84.470485306
 11
207.1522794017
 21
87.970485306
  0
LINE
  8
0
 62
7
  6
CONTINUOUS
 10
207.7598265715
 20
84.470485306
 11
207.7598265715
 21
86.0068913952
  0
LINE
  8
0
 62
7
  6
CONTINUOUS
 10
207.7598265715
 20
86.8016173815
 11
207.7598265715
 21
87.970485306
  0
LINE
  8
0
 62
7
  6
CONTINUOUS
 10
208.6843548734
 20
84.470485306
 11
208.6843548734
 21
86.1940702117
  0
LINE
  8
0
 62
7
  6
CONTINUOUS
 10
209.2919020432
 20
84.470485306
 11
209.2919020432
 21
86.1656480038
  0
LINE
  8
0
 62
7
  6
CONTINUOUS
 10
207.7680510826
 20
86.1112806717
 11
207.7598265715
 21
86.0068913952
  0
POLYLINE
  8
0
 62
7
  6
CONTINUOUS
 66
1
 70
0
  0
VERTEX
  8
0
 62
7
  6
CONTINUOUS
 10
207.7598265715
 20
86.8016173815
  0
VERTEX
  8
0
 62
7
  6
CONTINUOUS
 10
207.835365107
 20
86.8684801493
  0
VERTEX
  8
0
 62
7
  6
CONTINUOUS
 10
207.9245809998
 20
86.928707323
  0
VERTEX
  8
0
 62
7
  6
CONTINUOUS
 10
208.0283223273
 20
86.9844065766
  0
VERTEX
  8
0
 62
7
  6
CONTINUOUS
 10
208.1440448576
 20
87.0292515625
  0
VERTEX
  8
0
 62
7
  6
CONTINUOUS
 10
208.2713549546
 20
87.0580971144
  0
VERTEX
  8
0
 62
7
  6
CONTINUOUS
 10
208.4046489082
 20
87.0695055012
  0
VERTEX
  8
0
 62
7
  6
CONTINUOUS
 10
208.5392559262
 20
87.0600101099
  0
VERTEX
  8
0
 62
7
  6
CONTINUOUS
 10
208.6719836193
 20
87.0305555319
  0
VERTEX
  8
0
 62
7
  6
CONTINUOUS
 10
208.799088968
 20
86.9803312766
  0
VERTEX
  8
0
 62
7
  6
CONTINUOUS
 10
208.9175530711
 20
86.9111410761
  0
VERTEX
  8
0
 62
7
  6
CONTINUOUS
 10
209.0236714106
 20
86.8242533875
  0
VERTEX
  8
0
 62
7
  6
CONTINUOUS
 10
209.1157578184
 20
86.7204670492
  0
VERTEX
  8
0
 62
7
  6
CONTINUOUS
 10
209.192125725
 20
86.6000127495
  0
VERTEX
  8
0
 62
7
  6
CONTINUOUS
 10
209.2490718165
 20
86.4658657653
  0
VERTEX
  8
0
 62
7
  6
CONTINUOUS
 10
209.2817974012
 20
86.3214571393
  0
VERTEX
  8
0
 62
7
  6
CONTINUOUS
 10
209.2919020432
 20
86.1656480038
  0
SEQEND
  0
POLYLINE
  8
0
 62
7
  6
CONTINUOUS
 66
1
 70
0
  0
VERTEX
  8
0
 62
7
  6
CONTINUOUS
 10
211.2730341187
 20
84.7280324759
  0
VERTEX
  8
0
 62
7
  6
CONTINUOUS
 10
211.1533855023
 20
84.6434052701
  0
VERTEX
  8
0
 62
7
  6
CONTINUOUS
 10
211.0322002309
 20
84.5763666361
  0
VERTEX
  8
0
 62
7
  6
CONTINUOUS
 10
210.9092483358
 20
84.5276139018
  0
VERTEX
  8
0
 62
7
  6
CONTINUOUS
 10
210.7852197227
 20
84.4950446872
  0
VERTEX
  8
0
 62
7
  6
CONTINUOUS
 10
210.6606748754
 20
84.4767577656
  0
VERTEX
  8
0
 62
7
  6
CONTINUOUS
 10
210.5357720897
 20
84.4728518046
  0
VERTEX
  8
0
 62
7
  6
CONTINUOUS
 10
210.4101426793
 20
84.4822349527
  0
VERTEX
  8
0
 62
7
  6
CONTINUOUS
 10
210.2859280742
 20
84.5065805778
  0
VERTEX
  8
0
 62
7
  6
CONTINUOUS
 10
210.163148949
 20
84.5468826858
  0
VERTEX
  8
0
 62
7
  6
CONTINUOUS
 10
210.0477988843
 20
84.604091027
  0
VERTEX
  8
0
 62
7
  6
CONTINUOUS
 10
209.9454784859
 20
84.6806956145
  0
VERTEX
  8
0
 62
7
  6
CONTINUOUS
 10
209.8573873532
 20
84.7730745789
  0
VERTEX
  8
0
 62
7
  6
CONTINUOUS
 10
209.785972475
 20
84.8803427621
  0
VERTEX
  8
0
 62
7
  6
CONTINUOUS
 10
209.7330922889
 20
84.9967801398
  0
VERTEX
  8
0
 62
7
  6
CONTINUOUS
 10
209.7019595017
 20
85.1169389153
  0
VERTEX
  8
0
 62
7
  6
CONTINUOUS
 10
209.6909582941
 20
85.2391091059
  0
VERTEX
  8
0
 62
7
  6
CONTINUOUS
 10
209.700123738
 20
85.3612784409
  0
VERTEX
  8
0
 62
7
  6
CONTINUOUS
 10
209.7277158664
 20
85.4789001642
  0
VERTEX
  8
0
 62
7
  6
CONTINUOUS
 10
209.7720807871
 20
85.5878303943
  0
VERTEX
  8
0
 62
7
  6
CONTINUOUS
 10
209.8329953473
 20
85.6848402027
  0
VERTEX
  8
0
 62
7
  6
CONTINUOUS
 10
209.9129364204
 20
85.7645836153
  0
VERTEX
  8
0
 62
7
  6
CONTINUOUS
 10
210.0021500364
 20
85.8292636678
  0
SEQEND
  0
POLYLINE
  8
0
 62
7
  6
CONTINUOUS
 66
1
 70
0
  0
VERTEX
  8
0
 62
7
  6
CONTINUOUS
 10
208.6843548734
 20
86.1940702117
  0
VERTEX
  8
0
 62
7
  6
CONTINUOUS
 10
208.6731128149
 20
86.2748932724
  0
VERTEX
  8
0
 62
7
  6
CONTINUOUS
 10
208.6497007931
 20
86.3449549662
  0
VERTEX
  8
0
 62
7
  6
CONTINUOUS
 10
208.6128253168
 20
86.404279588
  0
VERTEX
  8
0
 62
7
  6
CONTINUOUS
 10
208.5663668596
 20
86.4527878755
  0
VERTEX
  8
0
 62
7
  6
CONTINUOUS
 10
208.5138101049
 20
86.4905211697
  0
VERTEX
  8
0
 62
7
  6
CONTINUOUS
 10
208.4550489321
 20
86.5171434739
  0
VERTEX
  8
0
 62
7
  6
CONTINUOUS
 10
208.3906076605
 20
86.5311004187
  0
VERTEX
  8
0
 62
7
  6
CONTINUOUS
 10
208.3220796535
 20
86.5360899482
  0
VERTEX
  8
0
 62
7
  6
CONTINUOUS
 10
208.2512181841
 20
86.5369488461
  0
VERTEX
  8
0
 62
7
  6
CONTINUOUS
 10
208.1780678443
 20
86.5287077251
  0
VERTEX
  8
0
 62
7
  6
CONTINUOUS
 10
208.1018847834
 20
86.5079522344
  0
VERTEX
  8
0
 62
7
  6
CONTINUOUS
 10
208.0267876022
 20
86.474855355
  0
VERTEX
  8
0
 62
7
  6
CONTINUOUS
 10
207.9558408802
 20
86.428581587
  0
VERTEX
  8
0
 62
7
  6
CONTINUOUS
 10
207.8914628301
 20
86.3687443572
  0
VERTEX
  8
0
 62
7
  6
CONTINUOUS
 10
207.835696185
 20
86.2934022424
  0
VERTEX
  8
0
 62
7
  6
CONTINUOUS
 10
207.7927319627
 20
86.2063872063
  0
VERTEX
  8
0
 62
7
  6
CONTINUOUS
 10
207.7680510826
 20
86.1112806717
  0
SEQEND
  0
POLYLINE
  8
0
 62
7
  6
CONTINUOUS
 66
1
 70
0
  0
VERTEX
  8
0
 62
7
  6
CONTINUOUS
 10
211.8673737413
 20
84.8138815325
  0
VERTEX
  8
0
 62
7
  6
CONTINUOUS
 10
211.8677205298
 20
84.7862726789
  0
VERTEX
  8
0
 62
7
  6
CONTINUOUS
 10
211.8693049165
 20
84.7570061217
  0
VERTEX
  8
0
 62
7
  6
CONTINUOUS
 10
211.8720736707
 20
84.7260369479
  0
VERTEX
  8
0
 62
7
  6
CONTINUOUS
 10
211.8761864849
 20
84.6935003631
  0
VERTEX
  8
0
 62
7
  6
CONTINUOUS
 10
211.8816493834
 20
84.6594926947
  0
VERTEX
  8
0
 62
7
  6
CONTINUOUS
 10
211.8888701405
 20
84.6240856474
  0
VERTEX
  8
0
 62
7
  6
CONTINUOUS
 10
211.8982475453
 20
84.5873280377
  0
VERTEX
  8
0
 62
7
  6
CONTINUOUS
 10
211.9098145772
 20
84.5493848356
  0
VERTEX
  8
0
 62
7
  6
CONTINUOUS
 10
211.9237578844
 20
84.5104598613
  0
VERTEX
  8
0
 62
7
  6
CONTINUOUS
 10
211.9400152508
 20
84.470485306
  0
SEQEND
  0
LINE
  8
0
 62
7
  6
CONTINUOUS
 10
211.2730341187
 20
84.470485306
 11
211.2730341187
 21
84.7280324759
  0
LINE
  8
0
 62
7
  6
CONTINUOUS
 10
211.2730341187
 20
85.4083614138
 11
211.2730341187
 21
85.7634955434
  0
LINE
  8
0
 62
7
  6
CONTINUOUS
 10
211.8673737413
 20
84.8138815325
 11
211.8673737413
 21
86.4648249287
  0
LINE
  8
0
 62
7
  6
CONTINUOUS
 10
214.0003926092
 20
84.5630094432
 11
214.0003926092
 21
84.843869268
  0
LINE
  8
0
 62
7
  6
CONTINUOUS
 10
214.0003926092
 20
86.8214287023
 11
214.0003926092
 21
87.0195419098
  0
LINE
  8
0
 62
7
  6
CONTINUOUS
 10
214.6013360055
 20
84.470485306
 11
214.6013360055
 21
87.0195419098
  0
POLYLINE
  8
0
 62
7
  6
CONTINUOUS
 66
1
 70
0
  0
VERTEX
  8
0
 62
7
  6
CONTINUOUS
 10
209.7673737413
 20
86.2469004004
  0
VERTEX
  8
0
 62
7
  6
CONTINUOUS
 10
209.7808679297
 20
86.3913599254
  0
VERTEX
  8
0
 62
7
  6
CONTINUOUS
 10
209.8142444919
 20
86.5252549983
  0
VERTEX
  8
0
 62
7
  6
CONTINUOUS
 10
209.86786365
 20
86.6488139315
  0
VERTEX
  8
0
 62
7
  6
CONTINUOUS
 10
209.9406447378
 20
86.7613394449
  0
VERTEX
  8
0
 62
7
  6
CONTINUOUS
 10
210.0319614053
 20
86.8635823147
  0
VERTEX
  8
0
 62
7
  6
CONTINUOUS
 10
210.1408109252
 20
86.9514275108
  0
VERTEX
  8
0
 62
7
  6
CONTINUOUS
 10
210.2675815006
 20
87.0204447975
  0
VERTEX
  8
0
 62
7
  6
CONTINUOUS
 10
210.4074739895
 20
87.0723287806
  0
VERTEX
  8
0
 62
7
  6
CONTINUOUS
 10
210.5580583902
 20
87.1067015457
  0
VERTEX
  8
0
 62
7
  6
CONTINUOUS
 10
210.7126154854
 20
87.1253543852
  0
VERTEX
  8
0
 62
7
  6
CONTINUOUS
 10
210.8641783417
 20
87.1297542123
  0
VERTEX
  8
0
 62
7
  6
CONTINUOUS
 10
211.011060106
 20
87.1204999558
  0
VERTEX
  8
0
 62
7
  6
CONTINUOUS
 10
211.1495254039
 20
87.0975684457
  0
VERTEX
  8
0
 62
7
  6
CONTINUOUS
 10
211.2787528656
 20
87.0642952135
  0
VERTEX
  8
0
 62
7
  6
CONTINUOUS
 10
211.3961601305
 20
87.0241079656
  0
VERTEX
  8
0
 62
7
  6
CONTINUOUS
 10
211.5032947963
 20
86.9767072557
  0
VERTEX
  8
0
 62
7
  6
CONTINUOUS
 10
211.602157267
 20
86.9250359505
  0
VERTEX
  8
0
 62
7
  6
CONTINUOUS
 10
211.6888067627
 20
86.8627950301
  0
VERTEX
  8
0
 62
7
  6
CONTINUOUS
 10
211.7605872729
 20
86.7837203619
  0
VERTEX
  8
0
 62
7
  6
CONTINUOUS
 10
211.8156448934
 20
86.6906556548
  0
VERTEX
  8
0
 62
7
  6
CONTINUOUS
 10
211.8508979777
 20
86.5844502086
  0
VERTEX
  8
0
 62
7
  6
CONTINUOUS
 10
211.8673737413
 20
86.4648249287
  0
SEQEND
  0
POLYLINE
  8
0
 62
7
  6
CONTINUOUS
 66
1
 70
0
  0
VERTEX
  8
0
 62
7
  6
CONTINUOUS
 10
210.4061398304
 20
86.4637669869
  0
VERTEX
  8
0
 62
7
  6
CONTINUOUS
 10
210.3702297711
 20
86.3980772941
  0
VERTEX
  8
0
 62
7
  6
CONTINUOUS
 10
210.3560135556
 20
86.3261723117
  0
VERTEX
  8
0
 62
7
  6
CONTINUOUS
 10
210.361713364
 20
86.2469004004
  0
SEQEND
  0
POLYLINE
  8
0
 62
7
  6
CONTINUOUS
 66
1
 70
0
  0
VERTEX
  8
0
 62
7
  6
CONTINUOUS
 10
211.2730341187
 20
86.1940702117
  0
VERTEX
  8
0
 62
7
  6
CONTINUOUS
 10
211.2904048291
 20
86.222472354
  0
VERTEX
  8
0
 62
7
  6
CONTINUOUS
 10
211.3031556514
 20
86.2550620534
  0
VERTEX
  8
0
 62
7
  6
CONTINUOUS
 10
211.3118989106
 20
86.2923683348
  0
VERTEX
  8
0
 62
7
  6
CONTINUOUS
 10
211.3147976312
 20
86.3328053523
  0
VERTEX
  8
0
 62
7
  6
CONTINUOUS
 10
211.3106794223
 20
86.3754503281
  0
VERTEX
  8
0
 62
7
  6
CONTINUOUS
 10
211.2981628553
 20
86.4188425
  0
VERTEX
  8
0
 62
7
  6
CONTINUOUS
 10
211.2749129753
 20
86.4623131402
  0
VERTEX
  8
0
 62
7
  6
CONTINUOUS
 10
211.2426179705
 20
86.5025623998
  0
VERTEX
  8
0
 62
7
  6
CONTINUOUS
 10
211.2016001501
 20
86.5350892981
  0
VERTEX
  8
0
 62
7
  6
CONTINUOUS
 10
211.1536221962
 20
86.5628268072
  0
VERTEX
  8
0
 62
7
  6
CONTINUOUS
 10
211.1008434558
 20
86.5876096267
  0
VERTEX
  8
0
 62
7
  6
CONTINUOUS
 10
211.0423962442
 20
86.6082324704
  0
VERTEX
  8
0
 62
7
  6
CONTINUOUS
 10
210.9779717199
 20
86.6247111772
  0
VERTEX
  8
0
 62
7
  6
CONTINUOUS
 10
210.9080526994
 20
86.6352171253
  0
VERTEX
  8
0
 62
7
  6
CONTINUOUS
 10
210.8317565812
 20
86.6381706783
  0
VERTEX
  8
0
 62
7
  6
CONTINUOUS
 10
210.7528707778
 20
86.6328408842
  0
VERTEX
  8
0
 62
7
  6
CONTINUOUS
 10
210.6743538623
 20
86.6176629337
  0
VERTEX
  8
0
 62
7
  6
CONTINUOUS
 10
210.5978097522
 20
86.5935596777
  0
VERTEX
  8
0
 62
7
  6
CONTINUOUS
 10
210.5239299802
 20
86.561822422
  0
VERTEX
  8
0
 62
7
  6
CONTINUOUS
 10
210.4584102736
 20
86.519781926
  0
VERTEX
  8
0
 62
7
  6
CONTINUOUS
 10
210.4061398304
 20
86.4637669869
  0
SEQEND
  0
LINE
  8
0
 62
7
  6
CONTINUOUS
 10
217.8503926092
 20
84.470485306
 11
217.8503926092
 21
86.9865230419
  0
LINE
  8
0
 62
7
  6
CONTINUOUS
 10
218.4711473262
 20
84.470485306
 11
218.4711473262
 21
85.8291793714
  0
LINE
  8
0
 62
7
  6
CONTINUOUS
 10
218.4711473262
 20
86.6959570042
 11
218.4711473262
 21
86.9865230419
  0
LINE
  8
0
 62
7
  6
CONTINUOUS
 10
219.2569963828
 20
86.400174841
 11
219.2569963828
 21
87.020929558
  0
POLYLINE
  8
0
 62
7
  6
CONTINUOUS
 66
1
 70
0
  0
VERTEX
  8
0
 62
7
  6
CONTINUOUS
 10
214.6013360055
 20
84.470485306
  0
VERTEX
  8
0
 62
7
  6
CONTINUOUS
 10
214.5853206799
 20
84.3416847166
  0
VERTEX
  8
0
 62
7
  6
CONTINUOUS
 10
214.5507481071
 20
84.2263179201
  0
VERTEX
  8
0
 62
7
  6
CONTINUOUS
 10
214.4966412292
 20
84.1241915736
  0
VERTEX
  8
0
 62
7
  6
CONTINUOUS
 10
214.4259312203
 20
84.0358714437
  0
VERTEX
  8
0
 62
7
  6
CONTINUOUS
 10
214.3411327689
 20
83.9615885025
  0
VERTEX
  8
0
 62
7
  6
CONTINUOUS
 10
214.2425182737
 20
83.9021557001
  0
VERTEX
  8
0
 62
7
  6
CONTINUOUS
 10
214.1301374533
 20
83.8607399138
  0
VERTEX
  8
0
 62
7
  6
CONTINUOUS
 10
214.0071730372
 20
83.8305126064
  0
VERTEX
  8
0
 62
7
  6
CONTINUOUS
 10
213.8766553392
 20
83.8051723468
  0
VERTEX
  8
0
 62
7
  6
CONTINUOUS
 10
213.7390913257
 20
83.786309787
  0
VERTEX
  8
0
 62
7
  6
CONTINUOUS
 10
213.5950575955
 20
83.7730521116
  0
VERTEX
  8
0
 62
7
  6
CONTINUOUS
 10
213.4473755659
 20
83.7664890726
  0
VERTEX
  8
0
 62
7
  6
CONTINUOUS
 10
213.2979434908
 20
83.767456593
  0
VERTEX
  8
0
 62
7
  6
CONTINUOUS
 10
213.1501074592
 20
83.7758438924
  0
VERTEX
  8
0
 62
7
  6
CONTINUOUS
 10
213.0068976888
 20
83.7899809266
  0
VERTEX
  8
0
 62
7
  6
CONTINUOUS
 10
212.8711600467
 20
83.8153822335
  0
VERTEX
  8
0
 62
7
  6
CONTINUOUS
 10
212.7454368345
 20
83.8577145601
  0
VERTEX
  8
0
 62
7
  6
CONTINUOUS
 10
212.6336689663
 20
83.9148547195
  0
VERTEX
  8
0
 62
7
  6
CONTINUOUS
 10
212.5412876264
 20
83.9880826435
  0
VERTEX
  8
0
 62
7
  6
CONTINUOUS
 10
212.4663643062
 20
84.072858723
  0
VERTEX
  8
0
 62
7
  6
CONTINUOUS
 10
212.4090127864
 20
84.165800476
  0
VERTEX
  8
0
 62
7
  6
CONTINUOUS
 10
212.3685373844
 20
84.2647136916
  0
VERTEX
  8
0
 62
7
  6
CONTINUOUS
 10
212.3441981247
 20
84.3658595176
  0
VERTEX
  8
0
 62
7
  6
CONTINUOUS
 10
212.3362416658
 20
84.470485306
  0
SEQEND
  0
LINE
  8
0
 62
7
  6
CONTINUOUS
 10
224.7654869489
 20
147.8680775268
 11
224.7654869489
 21
147.5161174954
  0
LINE
  8
AUSFORMSCHRAEGEN
 62
7
  6
CONTINUOUS
 10
224.7654869489
 20
147.5161173773
 11
224.7654869489
 21
67.0248532348
  0
LINE
  8
0
 62
7
  6
CONTINUOUS
 10
224.7654869489
 20
67.0248531209
 11
224.7654869489
 21
66.6728930853
  0
POLYLINE
  8
0
 62
7
  6
CONTINUOUS
 66
1
 70
0
  0
VERTEX
  8
0
 62
7
  6
CONTINUOUS
 10
224.6764643455
 20
147.7612205366
  0
VERTEX
  8
0
 62
7
  6
CONTINUOUS
 10
224.6202256673
 20
142.0617437217
  0
VERTEX
  8
0
 62
7
  6
CONTINUOUS
 10
224.5725767686
 20
136.3283264991
  0
VERTEX
  8
0
 62
7
  6
CONTINUOUS
 10
224.5334974028
 20
130.5575905588
  0
VERTEX
  8
0
 62
7
  6
CONTINUOUS
 10
224.5030483095
 20
124.7596708307
  0
VERTEX
  8
0
 62
7
  6
CONTINUOUS
 10
224.4812800818
 20
118.9413003423
  0
VERTEX
  8
0
 62
7
  6
CONTINUOUS
 10
224.4682029116
 20
113.109306491
  0
VERTEX
  8
0
 62
7
  6
CONTINUOUS
 10
224.4638472369
 20
107.2704852056
  0
VERTEX
  8
0
 62
7
  6
CONTINUOUS
 10
224.4682029119
 20
101.4316639178
  0
VERTEX
  8
0
 62
7
  6
CONTINUOUS
 10
224.4812800824
 20
95.5996700612
  0
VERTEX
  8
0
 62
7
  6
CONTINUOUS
 10
224.5030483105
 20
89.7812995593
  0
VERTEX
  8
0
 62
7
  6
CONTINUOUS
 10
224.5334974046
 20
83.983379779
  0
VERTEX
  8
0
 62
7
  6
CONTINUOUS
 10
224.5725767707
 20
78.2126438249
  0
VERTEX
  8
0
 62
7
  6
CONTINUOUS
 10
224.6202256688
 20
72.4792267021
  0
VERTEX
  8
0
 62
7
  6
CONTINUOUS
 10
224.6764643455
 20
66.7797500755
  0
SEQEND
  0
LINE
  8
AUSFORMSCHRAEGEN
 62
7
  6
CONTINUOUS
 10
214.851016767
 20
66.6362076398
 11
214.8457802475
 21
66.620485306
  0
LINE
  8
AUSFORMSCHRAEGEN
 62
7
  6
CONTINUOUS
 10
214.851016767
 20
147.9047629723
 11
214.8457802475
 21
147.920485306
  0
ARC
  8
0
 62
7
  6
CONTINUOUS
 10
216.5758643074
 20
85.8303539283
 40
1.5783018868
 50
153.9361648734
 51
206.0638351266
  0
ARC
  8
0
 62
7
  6
CONTINUOUS
 10
215.8758643074
 20
85.8303539283
 40
1.5783018868
 50
333.9361648734
 51
345.7271628261
  0
ARC
  8
0
 62
7
  6
CONTINUOUS
 10
215.8758643074
 20
85.8303539283
 40
1.5783018868
 50
355.4588205662
 51
26.0638351266
  0
ARC
  8
0
 62
7
  6
CONTINUOUS
 10
213.6834114772
 20
85.8225327664
 40
1.4198113208
 50
163.7397952917
 51
196.2602047083
  0
ARC
  8
0
 62
7
  6
CONTINUOUS
 10
219.1195282102
 20
85.1662995734
 40
1.241509434
 50
83.6427949283
 51
96.3572050717
  0
ARC
  8
0
 62
7
  6
CONTINUOUS
 10
213.4932227979
 20
85.8780044645
 40
1.2216981132
 50
115.8720959629
 51
163.7397952917
  0
ARC
  8
0
 62
7
  6
CONTINUOUS
 10
216.2258643074
 20
85.6591645513
 40
1.1886792453
 50
206.0638351266
 51
333.9361648734
  0
ARC
  8
0
 62
7
  6
CONTINUOUS
 10
216.2258643074
 20
86.0015433052
 40
1.1886792453
 50
26.0638351266
 51
153.9361648734
  0
ARC
  8
0
 62
7
  6
CONTINUOUS
 10
213.3664303451
 20
85.7300799362
 40
1.0896226415
 50
196.2602047083
 51
305.5785257325
  0
ARC
  8
0
 62
7
  6
CONTINUOUS
 10
219.1975624206
 20
86.0519959562
 40
0.970754717
 50
86.4898998995
 51
138.4432736979
  0
ARC
  8
0
 62
7
  6
CONTINUOUS
 10
213.1020349013
 20
85.8105804452
 40
0.9641509434
 50
338.6970988849
 51
21.3029011151
  0
ARC
  8
0
 62
7
  6
CONTINUOUS
 10
213.3664303451
 20
86.1394471852
 40
0.9311320755
 50
47.0898159783
 51
115.8720959629
  0
ARC
  8
0
 62
7
  6
CONTINUOUS
 10
213.6834114772
 20
85.8105804452
 40
0.8452830189
 50
148.2116693829
 51
211.7883306171
  0
ARC
  8
0
 62
7
  6
CONTINUOUS
 10
216.2258643074
 20
85.6587520253
 40
0.6603773585
 50
175.9501323166
 51
270.0
  0
ARC
  8
0
 62
7
  6
CONTINUOUS
 10
216.2258643074
 20
86.141240023
 40
0.5943396226
 50
0.0
 51
180.0
  0
ARC
  8
0
 62
7
  6
CONTINUOUS
 10
216.2258643074
 20
85.5892493559
 40
0.5908746892
 50
270.0
 51
345.4933768693
  0
ARC
  8
0
 62
7
  6
CONTINUOUS
 10
213.4588831753
 20
85.9497305891
 40
0.5811320755
 50
21.3029011151
 51
148.2116693829
  0
ARC
  8
0
 62
7
  6
CONTINUOUS
 10
213.4588831753
 20
85.6714303013
 40
0.5811320755
 50
211.7883306171
 51
338.6970988849
  0
ARC
  8
0
 62
7
  6
CONTINUOUS
 10
219.0456756281
 20
85.8291793714
 40
0.5745283019
 50
96.3572050717
 51
180.0
  0
ARC
  8
0
 62
7
  6
CONTINUOUS
 10
206.4919020432
 20
86.1214287023
 40
0.1320754717
 50
270.0
 51
360.0
  0
ARC
  8
0
 62
7
  6
CONTINUOUS
 10
206.4919020432
 20
86.7157683249
 40
0.1320754717
 50
0.0
 51
90.0
  0
ARC
  8
0
 62
7
  6
CONTINUOUS
 10
205.8975624206
 20
86.7157683249
 40
0.1320754717
 50
90.0
 51
180.0
  0
ARC
  8
0
 62
7
  6
CONTINUOUS
 10
205.8975624206
 20
86.1214287023
 40
0.1320754717
 50
180.0
 51
270.0
  0
ARC
  8
0
 62
7
  6
CONTINUOUS
 10
205.8975624206
 20
84.6025607777
 40
0.1320754717
 50
180.0
 51
270.0
  0
ARC
  8
0
 62
7
  6
CONTINUOUS
 10
206.4919020432
 20
84.6025607777
 40
0.1320754717
 50
270.0
 51
360.0
  0
ARC
  8
0
 62
7
  6
CONTINUOUS
 10
206.4919020432
 20
85.1969004004
 40
0.1320754717
 50
0.0
 51
90.0
  0
ARC
  8
0
 62
7
  6
CONTINUOUS
 10
205.8975624206
 20
85.1969004004
 40
0.1320754717
 50
90.0
 51
180.0
  0
ENDSEC
  0
EOF
