999
DXF file: GT453.dxf
999
Pro/ENGINEER 2021304 by Parametric Technology Corporation
  0
SECTION
  2
HEADER
  9
$EXTMAX
 10
297.0
 20
210.0
 30
0.0
  9
$EXTMIN
 10
0.0
 20
0.0
 30
0.0
  9
$LIMMIN
 10
0.0
 20
0.0
  9
$LIMMAX
 10
297.0
 20
210.0
  9
$VIEWCTR
 10
148.5
 20
105.0
  9
$VIEWSIZE
 40
210.0
  9
$CLAYER
  8
0
  9
$LTSCALE
 40
16.335
  9
$CELTYPE
  6
BYLAYER
  9
$DIMSCALE
 40
1.0
  9
$DIMASZ
 40
3.5
  9
$DIMEXO
 40
0.0
  9
$DIMDLI
 40
11.286
  9
$DIMEXE
 40
1.5
  9
$DIMCEN
 40
2.673
  9
$DIMLFAC
 40
1.0
  9
$DIMBLK
  1
_FILLED
  9
$DIMALT
 70
0
  9
$DIMALTF
 40
0.0393700787
  9
$DIMTXT
 40
3.0
  9
$AUNITS
 70
0
  9
$PDMODE
 70
3
  9
$PDSIZE
 40
0.3125
  9
$TILEMODE
 70
1
  0
ENDSEC
  0
SECTION
  2
TABLES
  0
TABLE
  2
LTYPE
 70
6
  0
LTYPE
  2
BYBLOCK
 70
0
  3

 72
65
 73
0
 40
0.0
  0
LTYPE
  2
BYLAYER
 70
0
  3

 72
65
 73
0
 40
0.0
  0
LTYPE
  2
CONTINUOUS
 70
64
  3
Solid line
 72
65
 73
0
 40
0.0
  0
LTYPE
  2
CENTER
 70
64
  3
____ _ ____ _ ____ _ ____ _ ____ _ ____ _ ____
 72
65
 73
4
 40
0.6
 49
0.375
 49
-0.075
 49
0.075
 49
-0.075
  0
LTYPE
  2
HIDDEN
 70
64
  3
- - - - - - - - - - - - - - - - - - - -
 72
65
 73
2
 40
0.2
 49
0.1
 49
-0.1
  0
LTYPE
  2
PHANTOM
 70
64
  3
_____ _ _ _____ _ _ _____ _ _ _____
 72
65
 73
6
 40
0.8
 49
0.45
 49
-0.05
 49
0.1
 49
-0.05
 49
0.1
 49
-0.05
  0
LTYPE
  2
DOT
 70
64
  3
. . . . . . . . . . . . . . . . . . . .
 72
65
 73
2
 40
0.2
 49
0.1
 49
-0.1
  0
LTYPE
  2
DASHED
 70
64
  3
- - - - - - - - - - - - - - - - - - - -
 72
65
 73
2
 40
0.2
 49
0.1
 49
-0.1
  0
ENDTAB
  0
TABLE
  2
LAYER
 70
36
  0
LAYER
  2
0
 70
0
 62
7
  6
CONTINUOUS
  0
LAYER
  2
DEFAULT_1
 70
0
 62
7
  6
CENTER
  0
LAYER
  2
DEFAULT_2
 70
0
 62
8
  6
HIDDEN
  0
LAYER
  2
DEFAULT_3
 70
0
 62
7
  6
PHANTOM
  0
LAYER
  2
01_ALL_DTM_PLN
 70
0
 62
7
  6
CONTINUOUS
  0
LAYER
  2
01_STARTBEZUEGE
 70
0
 62
7
  6
CONTINUOUS
  0
LAYER
  2
01__ASM_ALL_DTM_PLN
 70
0
 62
7
  6
CONTINUOUS
  0
LAYER
  2
01__ASM_DEF_DTM_PLN
 70
0
 62
7
  6
CONTINUOUS
  0
LAYER
  2
01___PRT_ALL_DTM_PLN
 70
0
 62
7
  6
CONTINUOUS
  0
LAYER
  2
01___PRT_DEF_DTM_PLN
 70
0
 62
7
  6
CONTINUOUS
  0
LAYER
  2
02_ALL_AXES
 70
0
 62
7
  6
CONTINUOUS
  0
LAYER
  2
02__ASM_ALL_AXES
 70
0
 62
7
  6
CONTINUOUS
  0
LAYER
  2
02___PRT_ALL_AXES
 70
0
 62
7
  6
CONTINUOUS
  0
LAYER
  2
03_ALL_CURVES
 70
0
 62
7
  6
CONTINUOUS
  0
LAYER
  2
03__ASM_ALL_CURVES
 70
0
 62
7
  6
CONTINUOUS
  0
LAYER
  2
03___PRT_ALL_CURVES
 70
0
 62
7
  6
CONTINUOUS
  0
LAYER
  2
04_ALL_DTM_PNT
 70
0
 62
7
  6
CONTINUOUS
  0
LAYER
  2
04__ASM_ALL_DTM_PNT
 70
0
 62
7
  6
CONTINUOUS
  0
LAYER
  2
04___PRT_ALL_DTM_PNT
 70
0
 62
7
  6
CONTINUOUS
  0
LAYER
  2
05_ALL_DTM_CSYS
 70
0
 62
7
  6
CONTINUOUS
  0
LAYER
  2
05__ASM_ALL_DTM_CSYS
 70
0
 62
7
  6
CONTINUOUS
  0
LAYER
  2
05__ASM_DEF_DTM_CSYS
 70
0
 62
7
  6
CONTINUOUS
  0
LAYER
  2
05___PRT_ALL_DTM_CSYS
 70
0
 62
7
  6
CONTINUOUS
  0
LAYER
  2
05___PRT_DEF_DTM_CSYS
 70
0
 62
7
  6
CONTINUOUS
  0
LAYER
  2
06_ALL_SURFS
 70
0
 62
7
  6
CONTINUOUS
  0
LAYER
  2
06__ASM_ALL_SURFS
 70
0
 62
7
  6
CONTINUOUS
  0
LAYER
  2
06___PRT_ALL_SURFS
 70
0
 62
7
  6
CONTINUOUS
  0
LAYER
  2
07__ASM_ALL_SKELETONS
 70
0
 62
7
  6
CONTINUOUS
  0
LAYER
  2
AUSFORMSCHRAEGEN
 70
0
 62
7
  6
CONTINUOUS
  0
LAYER
  2
BEZUGSACHSEN
 70
0
 62
7
  6
CONTINUOUS
  0
LAYER
  2
BEZUGSEBENEN
 70
0
 62
7
  6
CONTINUOUS
  0
LAYER
  2
FASEN
 70
0
 62
7
  6
CONTINUOUS
  0
LAYER
  2
FLAECHEN
 70
0
 62
7
  6
CONTINUOUS
  0
LAYER
  2
KURVEN
 70
0
 62
7
  6
CONTINUOUS
  0
LAYER
  2
RUNDUNGEN
 70
0
 62
7
  6
CONTINUOUS
  0
ENDTAB
  0
TABLE
  2
STYLE
 70
1
  0
STYLE
  2
STANDARD
 70
0
 40
0.0
 41
0.8
 50
0.0
 71
0
 42
0.2
  3
txt
  4

  0
STYLE
  2
TEXTSTYLE_1
 70
0
 40
0.0
 41
0.8
 50
0.0
 71
0
 42
0.2
  3
gdt
  4

  0
ENDTAB
  0
ENDSEC
  0
SECTION
  2
BLOCKS
  0
BLOCK
  8
0
  2
_FILLED
 70
64
 10
0.0
 20
0.0
  0
SOLID
  8
0
  6
BYBLOCK
 62
0
 10
0.0
 20
0.0
 11
-1.0
 21
0.125
 12
-1.0
 22
-0.125
 13
-1.0
 23
-0.125
  0
ENDBLK
  8
0
  6
BYBLOCK
 62
0
  0
BLOCK
  8
0
 62
2
  6
CONTINUOUS
  2
*D0
 70
65
 10
0.0
 20
0.0
  0
TEXT
  8
0
 62
2
  6
CONTINUOUS
 10
48.6989036892
 20
101.9628676599
  7
STANDARD
 40
3.0
  1
81
 50
90.0
 41
0.8
 72
1
 11
48.6989036892
 21
104.3628676599
  0
LINE
  8
0
 62
2
  6
CONTINUOUS
 10
59.7723994083
 20
63.7285899936
 11
47.9489036892
 21
63.7285899936
  0
LINE
  8
0
 62
2
  6
CONTINUOUS
 10
59.7723994083
 20
144.9971453261
 11
47.9489036892
 21
144.9971453261
  0
LINE
  8
0
 62
2
  6
CONTINUOUS
 10
49.4489036892
 20
63.7285899936
 11
49.4489036892
 21
104.3628676599
  0
LINE
  8
0
 62
2
  6
CONTINUOUS
 10
49.4489036892
 20
144.9971453261
 11
49.4489036892
 21
104.3628676599
  0
INSERT
  8
0
 62
2
  6
CONTINUOUS
  2
_FILLED
 10
49.4489036892
 20
63.7285899936
 41
3.5
 42
3.5
 43
3.5
 50
270.0
  0
INSERT
  8
0
 62
2
  6
CONTINUOUS
  2
_FILLED
 10
49.4489036892
 20
144.9971453261
 41
3.5
 42
3.5
 43
3.5
 50
90.0
  0
ENDBLK
  8
0
  6
BYBLOCK
 62
0
  0
BLOCK
  8
0
 62
2
  6
CONTINUOUS
  2
*D1
 70
65
 10
0.0
 20
0.0
  0
TEXT
  8
0
 62
2
  6
CONTINUOUS
 10
147.6473994083
 20
54.0784120772
  7
STANDARD
 40
3.0
  1
185
 41
0.8
 72
1
 11
151.2473994083
 21
54.0784120772
  0
LINE
  8
0
 62
2
  6
CONTINUOUS
 10
58.7723994083
 20
64.0252656298
 11
58.7723994083
 21
51.8284120772
  0
LINE
  8
0
 62
2
  6
CONTINUOUS
 10
243.7223994083
 20
64.1172355886
 11
243.7223994083
 21
51.8284120772
  0
LINE
  8
0
 62
2
  6
CONTINUOUS
 10
58.7723994083
 20
53.3284120772
 11
151.2473994083
 21
53.3284120772
  0
LINE
  8
0
 62
2
  6
CONTINUOUS
 10
243.7223994083
 20
53.3284120772
 11
151.2473994083
 21
53.3284120772
  0
INSERT
  8
0
 62
2
  6
CONTINUOUS
  2
_FILLED
 10
58.7723994083
 20
53.3284120772
 41
3.5
 42
3.5
 43
3.5
 50
180.0
  0
INSERT
  8
0
 62
2
  6
CONTINUOUS
  2
_FILLED
 10
243.7223994083
 20
53.3284120772
 41
3.5
 42
3.5
 43
3.5
  0
ENDBLK
  8
0
  6
BYBLOCK
 62
0
  0
BLOCK
  8
0
 62
2
  6
CONTINUOUS
  2
*D2
 70
65
 10
0.0
 20
0.0
  0
TEXT
  8
0
 62
2
  6
CONTINUOUS
 10
147.6473994083
 20
153.8234442996
  7
STANDARD
 40
3.0
  1
135
 41
0.8
 72
1
 11
151.2473994083
 21
153.8234442996
  0
LINE
  8
0
 62
2
  6
CONTINUOUS
 10
83.7723994083
 20
144.4128676599
 11
83.7723994083
 21
154.5734442996
  0
LINE
  8
0
 62
2
  6
CONTINUOUS
 10
218.7223994083
 20
124.7647730072
 11
218.7223994083
 21
154.5734442996
  0
LINE
  8
0
 62
2
  6
CONTINUOUS
 10
83.7723994083
 20
153.0734442996
 11
151.2473994083
 21
153.0734442996
  0
LINE
  8
0
 62
2
  6
CONTINUOUS
 10
218.7223994083
 20
153.0734442996
 11
151.2473994083
 21
153.0734442996
  0
INSERT
  8
0
 62
2
  6
CONTINUOUS
  2
_FILLED
 10
83.7723994083
 20
153.0734442996
 41
3.5
 42
3.5
 43
3.5
 50
180.0
  0
INSERT
  8
0
 62
2
  6
CONTINUOUS
  2
_FILLED
 10
218.7223994083
 20
153.0734442996
 41
3.5
 42
3.5
 43
3.5
  0
ENDBLK
  8
0
  6
BYBLOCK
 62
0
  0
BLOCK
  8
0
 62
2
  6
CONTINUOUS
  2
*D3
 70
65
 10
0.0
 20
0.0
  0
TEXT
  8
0
 62
2
  6
CONTINUOUS
 10
104.4576442869
 20
99.5628676599
  7
STANDARD
 40
3.0
  1
40.5
 50
90.0
 41
0.8
 72
1
 11
104.4576442869
 21
104.3628676599
  0
LINE
  8
0
 62
2
  6
CONTINUOUS
 10
105.2076442869
 20
84.1128676599
 11
105.2076442869
 21
104.3628676599
  0
LINE
  8
0
 62
2
  6
CONTINUOUS
 10
105.2076442869
 20
124.6128676599
 11
105.2076442869
 21
104.3628676599
  0
INSERT
  8
0
 62
2
  6
CONTINUOUS
  2
_FILLED
 10
105.2076442869
 20
84.1128676599
 41
3.5
 42
3.5
 43
3.5
 50
270.0
  0
INSERT
  8
0
 62
2
  6
CONTINUOUS
  2
_FILLED
 10
105.2076442869
 20
124.6128676599
 41
3.5
 42
3.5
 43
3.5
 50
90.0
  0
ENDBLK
  8
0
  6
BYBLOCK
 62
0
  0
ENDSEC
  0
SECTION
  2
ENTITIES
  0
DIMENSION
  8
0
 62
2
  6
CONTINUOUS
  2
*D0
 10
49.4489036892
 20
144.9971453261
 11
49.4489036892
 21
103.9878691449
 70
128
 13
59.7723994083
 23
63.7285899936
 14
59.7723994083
 24
144.9971453261
 50
90.0
  0
DIMENSION
  8
0
 62
2
  6
CONTINUOUS
  2
*D1
 10
243.7223994083
 20
53.3284120772
 11
151.6224019318
 21
53.3284120772
 70
128
 13
58.7723994083
 23
64.0252656298
 14
243.7223994083
 24
64.1172355886
  0
DIMENSION
  8
0
 62
2
  6
CONTINUOUS
  2
*D2
 10
218.7223994083
 20
153.0734442996
 11
151.6224019318
 21
153.0734442996
 70
128
 13
83.7723994083
 23
144.4128676599
 14
218.7223994083
 24
124.7647730072
  0
DIMENSION
  8
0
 62
2
  6
CONTINUOUS
  2
*D3
 10
105.2076442869
 20
124.6128676599
 11
105.2076442869
 21
104.4378679958
 70
128
 13
83.8723994083
 23
84.1128676599
 14
83.8723994083
 24
124.6128676599
 50
90.0
  0
POLYLINE
  8
AUSFORMSCHRAEGEN
 62
7
  6
CONTINUOUS
 66
1
 70
0
  0
VERTEX
  8
AUSFORMSCHRAEGEN
 62
7
  6
CONTINUOUS
 10
58.861421986
 20
144.8536029212
  0
VERTEX
  8
AUSFORMSCHRAEGEN
 62
7
  6
CONTINUOUS
 10
58.9176598546
 20
139.1541236122
  0
VERTEX
  8
AUSFORMSCHRAEGEN
 62
7
  6
CONTINUOUS
 10
58.9653080655
 20
133.4207048818
  0
VERTEX
  8
AUSFORMSCHRAEGEN
 62
7
  6
CONTINUOUS
 10
59.0043868643
 20
127.6499685154
  0
VERTEX
  8
AUSFORMSCHRAEGEN
 62
7
  6
CONTINUOUS
 10
59.0348355142
 20
121.8520491572
  0
VERTEX
  8
AUSFORMSCHRAEGEN
 62
7
  6
CONTINUOUS
 10
59.0566034242
 20
116.033679647
  0
VERTEX
  8
AUSFORMSCHRAEGEN
 62
7
  6
CONTINUOUS
 10
59.0696804031
 20
110.2016871835
  0
VERTEX
  8
AUSFORMSCHRAEGEN
 62
7
  6
CONTINUOUS
 10
59.074036014
 20
104.3628675024
  0
VERTEX
  8
AUSFORMSCHRAEGEN
 62
7
  6
CONTINUOUS
 10
59.0696804027
 20
98.5240478336
  0
VERTEX
  8
AUSFORMSCHRAEGEN
 62
7
  6
CONTINUOUS
 10
59.0566034235
 20
92.6920554115
  0
VERTEX
  8
AUSFORMSCHRAEGEN
 62
7
  6
CONTINUOUS
 10
59.0348355133
 20
86.8736859589
  0
VERTEX
  8
AUSFORMSCHRAEGEN
 62
7
  6
CONTINUOUS
 10
59.0043868635
 20
81.075766668
  0
VERTEX
  8
AUSFORMSCHRAEGEN
 62
7
  6
CONTINUOUS
 10
58.9653080649
 20
75.3050303655
  0
VERTEX
  8
AUSFORMSCHRAEGEN
 62
7
  6
CONTINUOUS
 10
58.9176598543
 20
69.5716116787
  0
VERTEX
  8
AUSFORMSCHRAEGEN
 62
7
  6
CONTINUOUS
 10
58.861421986
 20
63.8721323985
  0
SEQEND
  0
LINE
  8
AUSFORMSCHRAEGEN
 62
7
  6
CONTINUOUS
 10
58.7723994083
 20
63.7652754391
 11
58.7723994083
 21
144.9604598806
  0
LINE
  8
AUSFORMSCHRAEGEN
 62
7
  6
CONTINUOUS
 10
68.6868695902
 20
144.9971453261
 11
68.6921061096
 21
145.0128676599
  0
LINE
  8
AUSFORMSCHRAEGEN
 62
7
  6
CONTINUOUS
 10
68.6921061096
 20
63.7128676599
 11
68.6868695902
 21
63.7285899936
  0
LINE
  8
AUSFORMSCHRAEGEN
 62
7
  6
CONTINUOUS
 10
83.3723994083
 20
144.8536029212
 11
83.3723994083
 21
63.8721323985
  0
LINE
  8
0
 62
7
  6
CONTINUOUS
 10
83.39335187
 20
144.4128676599
 11
83.39335187
 21
64.3128676599
  0
LINE
  8
0
 62
7
  6
CONTINUOUS
 10
83.7723994083
 20
144.4128676599
 11
83.7723994083
 21
64.3128676599
  0
LINE
  8
AUSFORMSCHRAEGEN
 62
7
  6
CONTINUOUS
 10
83.8723994083
 20
144.4128676599
 11
83.8723994083
 21
124.6128676599
  0
LINE
  8
AUSFORMSCHRAEGEN
 62
7
  6
CONTINUOUS
 10
83.8723994083
 20
64.3128676599
 11
83.8723994083
 21
84.1128676599
  0
LINE
  8
AUSFORMSCHRAEGEN
 62
7
  6
CONTINUOUS
 10
84.2514469466
 20
144.4128676599
 11
84.2514469466
 21
127.1503457109
  0
LINE
  8
AUSFORMSCHRAEGEN
 62
7
  6
CONTINUOUS
 10
84.2723994083
 20
144.8536028904
 11
84.2723994083
 21
127.1608888117
  0
LINE
  8
AUSFORMSCHRAEGEN
 62
7
  6
CONTINUOUS
 10
84.2723994083
 20
63.7128676599
 11
84.2723994083
 21
81.5648465081
  0
LINE
  8
AUSFORMSCHRAEGEN
 62
7
  6
CONTINUOUS
 10
84.2514469466
 20
144.4128676599
 11
84.2723994083
 21
145.0128676599
  0
LINE
  8
AUSFORMSCHRAEGEN
 62
7
  6
CONTINUOUS
 10
83.39335187
 20
144.4128676599
 11
83.3723994083
 21
145.0128676599
  0
LINE
  8
AUSFORMSCHRAEGEN
 62
7
  6
CONTINUOUS
 10
83.3723994083
 20
63.7128676599
 11
83.39335187
 21
64.3128676599
  0
LINE
  8
AUSFORMSCHRAEGEN
 62
7
  6
CONTINUOUS
 10
58.861421986
 20
63.8721323985
 11
58.7723994083
 21
63.7652754391
  0
LINE
  8
0
 62
7
  6
CONTINUOUS
 10
243.7223994083
 20
63.7652754391
 11
242.7223994083
 21
63.7285899936
  0
LINE
  8
AUSFORMSCHRAEGEN
 62
7
  6
CONTINUOUS
 10
233.802692707
 20
63.7128676599
 11
219.1223994083
 21
63.7128676599
  0
LINE
  8
AUSFORMSCHRAEGEN
 62
7
  6
CONTINUOUS
 10
218.3223994083
 20
63.7128676599
 11
174.1723994083
 21
63.7128676599
  0
LINE
  8
AUSFORMSCHRAEGEN
 62
7
  6
CONTINUOUS
 10
173.3723994083
 20
63.7128676599
 11
129.2223994083
 21
63.7128676599
  0
LINE
  8
AUSFORMSCHRAEGEN
 62
7
  6
CONTINUOUS
 10
128.4223994083
 20
63.7128676599
 11
84.2723994083
 21
63.7128676599
  0
LINE
  8
AUSFORMSCHRAEGEN
 62
7
  6
CONTINUOUS
 10
83.3723994083
 20
63.7128676599
 11
68.6921061096
 21
63.7128676599
  0
LINE
  8
AUSFORMSCHRAEGEN
 62
7
  6
CONTINUOUS
 10
68.6868695902
 20
63.7285899936
 11
59.7723994083
 21
63.7285899936
  0
LINE
  8
AUSFORMSCHRAEGEN
 62
7
  6
CONTINUOUS
 10
233.8079292265
 20
63.7285899936
 11
242.7223994083
 21
63.7285899936
  0
LINE
  8
0
 62
7
  6
CONTINUOUS
 10
218.3223994083
 20
63.8721324294
 11
174.1723994083
 21
63.8721324294
  0
LINE
  8
AUSFORMSCHRAEGEN
 62
7
  6
CONTINUOUS
 10
173.3723994083
 20
63.8721324294
 11
129.2223994083
 21
63.8721324294
  0
LINE
  8
AUSFORMSCHRAEGEN
 62
7
  6
CONTINUOUS
 10
128.4223994083
 20
63.8721324294
 11
84.2723994083
 21
63.8721324294
  0
LINE
  8
AUSFORMSCHRAEGEN
 62
7
  6
CONTINUOUS
 10
58.861421986
 20
63.8721323985
 11
83.3723994083
 21
63.8721323985
  0
LINE
  8
0
 62
7
  6
CONTINUOUS
 10
219.1223994083
 20
63.8721324294
 11
243.6333768049
 21
63.8721324294
  0
LINE
  8
0
 62
7
  6
CONTINUOUS
 10
219.1014469466
 20
64.3128676599
 11
218.34335187
 21
64.3128676599
  0
LINE
  8
0
 62
7
  6
CONTINUOUS
 10
174.1723994083
 20
64.3128676599
 11
173.39335187
 21
64.3128676599
  0
LINE
  8
AUSFORMSCHRAEGEN
 62
7
  6
CONTINUOUS
 10
129.2223994083
 20
64.3128676599
 11
128.8223994083
 21
64.3128676599
  0
LINE
  8
0
 62
7
  6
CONTINUOUS
 10
128.8223994083
 20
64.3128676599
 11
128.44335187
 21
64.3128676599
  0
LINE
  8
AUSFORMSCHRAEGEN
 62
7
  6
CONTINUOUS
 10
84.2723994083
 20
64.3128676599
 11
83.8723994083
 21
64.3128676599
  0
LINE
  8
0
 62
7
  6
CONTINUOUS
 10
83.39335187
 20
64.3128676599
 11
83.7723994083
 21
64.3128676599
  0
LINE
  8
AUSFORMSCHRAEGEN
 62
7
  6
CONTINUOUS
 10
83.8723994083
 20
65.5545612154
 11
83.7723994083
 21
65.5571251344
  0
LINE
  8
0
 62
7
  6
CONTINUOUS
 10
83.8723994083
 20
65.5128676599
 11
83.7723994083
 21
65.515486252
  0
LINE
  8
AUSFORMSCHRAEGEN
 62
7
  6
CONTINUOUS
 10
58.7723994083
 20
63.7652754391
 11
59.7723994083
 21
63.7285899936
  0
LINE
  8
AUSFORMSCHRAEGEN
 62
7
  6
CONTINUOUS
 10
58.861421986
 20
144.8536029212
 11
58.7723994083
 21
144.9604598806
  0
LINE
  8
0
 62
7
  6
CONTINUOUS
 10
229.5233428045
 20
82.7185280372
 11
230.2299465781
 21
82.8558778972
  0
LINE
  8
AUSFORMSCHRAEGEN
 62
7
  6
CONTINUOUS
 10
128.4223994083
 20
63.8721324294
 11
128.4223994083
 21
81.5648465081
  0
LINE
  8
AUSFORMSCHRAEGEN
 62
7
  6
CONTINUOUS
 10
128.4223994083
 20
127.1608888117
 11
128.4223994083
 21
145.0128676599
  0
LINE
  8
AUSFORMSCHRAEGEN
 62
7
  6
CONTINUOUS
 10
128.44335187
 20
64.3128676599
 11
128.44335187
 21
81.5753896088
  0
LINE
  8
AUSFORMSCHRAEGEN
 62
7
  6
CONTINUOUS
 10
128.8223994083
 20
144.4128676599
 11
128.8223994083
 21
124.6128676599
  0
LINE
  8
AUSFORMSCHRAEGEN
 62
7
  6
CONTINUOUS
 10
128.8223994083
 20
64.3128676599
 11
128.8223994083
 21
84.1128676599
  0
LINE
  8
AUSFORMSCHRAEGEN
 62
7
  6
CONTINUOUS
 10
129.2014469466
 20
144.4128676599
 11
129.2014469466
 21
127.1503457109
  0
LINE
  8
AUSFORMSCHRAEGEN
 62
7
  6
CONTINUOUS
 10
129.2223994083
 20
144.8536028904
 11
129.2223994083
 21
127.1608888117
  0
LINE
  8
AUSFORMSCHRAEGEN
 62
7
  6
CONTINUOUS
 10
129.2223994083
 20
63.7128676599
 11
129.2223994083
 21
81.5648465081
  0
LINE
  8
AUSFORMSCHRAEGEN
 62
7
  6
CONTINUOUS
 10
129.2014469466
 20
144.4128676599
 11
129.2223994083
 21
145.0128676599
  0
LINE
  8
AUSFORMSCHRAEGEN
 62
7
  6
CONTINUOUS
 10
128.44335187
 20
64.3128676599
 11
128.4223994083
 21
63.7128676599
  0
LINE
  8
AUSFORMSCHRAEGEN
 62
7
  6
CONTINUOUS
 10
83.7723994083
 20
80.060180474
 11
83.8723994083
 21
80.0628676599
  0
LINE
  8
AUSFORMSCHRAEGEN
 62
7
  6
CONTINUOUS
 10
83.7723994083
 20
79.865859348
 11
83.8723994083
 21
79.8683988521
  0
LINE
  8
0
 62
7
  6
CONTINUOUS
 10
237.4280597857
 20
81.5628676599
 11
236.8073050687
 21
81.5628676599
  0
LINE
  8
0
 62
7
  6
CONTINUOUS
 10
231.8940975215
 20
81.5628676599
 11
231.2931541253
 21
81.5628676599
  0
LINE
  8
0
 62
7
  6
CONTINUOUS
 10
230.8969277102
 20
81.5628676599
 11
230.2299465781
 21
81.5628676599
  0
LINE
  8
0
 62
7
  6
CONTINUOUS
 10
228.2488145027
 20
81.5628676599
 11
227.6412673328
 21
81.5628676599
  0
LINE
  8
0
 62
7
  6
CONTINUOUS
 10
226.716739031
 20
81.5628676599
 11
226.1091918611
 21
81.5628676599
  0
LINE
  8
0
 62
7
  6
CONTINUOUS
 10
225.4488145027
 20
81.5628676599
 11
224.85447488
 21
81.5628676599
  0
LINE
  8
0
 62
7
  6
CONTINUOUS
 10
218.3223994083
 20
81.5648465081
 11
174.1723994083
 21
81.5648465081
  0
LINE
  8
AUSFORMSCHRAEGEN
 62
7
  6
CONTINUOUS
 10
173.3723994083
 20
81.5648465081
 11
129.2223994083
 21
81.5648465081
  0
LINE
  8
AUSFORMSCHRAEGEN
 62
7
  6
CONTINUOUS
 10
128.4223994083
 20
81.5648465081
 11
84.2723994083
 21
81.5648465081
  0
LINE
  8
0
 62
7
  6
CONTINUOUS
 10
218.8598774593
 20
81.5753896088
 11
218.34335187
 21
81.5753896088
  0
LINE
  8
AUSFORMSCHRAEGEN
 62
7
  6
CONTINUOUS
 10
173.7723994083
 20
81.5753896088
 11
173.39335187
 21
81.5753896088
  0
LINE
  8
AUSFORMSCHRAEGEN
 62
7
  6
CONTINUOUS
 10
129.2223994083
 20
81.5753896088
 11
128.44335187
 21
81.5753896088
  0
LINE
  8
AUSFORMSCHRAEGEN
 62
7
  6
CONTINUOUS
 10
84.2723994083
 20
81.5753896088
 11
83.8723994083
 21
81.5753896088
  0
LINE
  8
0
 62
7
  6
CONTINUOUS
 10
173.7723994083
 20
81.5753896088
 11
174.1723994083
 21
81.5753896088
  0
LINE
  8
AUSFORMSCHRAEGEN
 62
7
  6
CONTINUOUS
 10
173.7723994083
 20
81.7128676599
 11
83.8723994083
 21
81.7128676599
  0
LINE
  8
0
 62
7
  6
CONTINUOUS
 10
173.7723994083
 20
81.7128676599
 11
218.7223994083
 21
81.7128676599
  0
LINE
  8
0
 62
7
  6
CONTINUOUS
 10
225.4488145027
 20
82.4213582259
 11
224.85447488
 21
82.4213582259
  0
LINE
  8
0
 62
7
  6
CONTINUOUS
 10
236.3623607673
 20
82.5336223768
 11
235.7548135975
 21
82.5336223768
  0
LINE
  8
0
 62
7
  6
CONTINUOUS
 10
236.406123869
 20
82.7977733202
 11
234.5240483973
 21
82.7977733202
  0
LINE
  8
0
 62
7
  6
CONTINUOUS
 10
225.4488145027
 20
83.0817355844
 11
224.85447488
 21
83.0817355844
  0
LINE
  8
0
 62
7
  6
CONTINUOUS
 10
235.7771163894
 20
83.2336223768
 11
234.5884371442
 21
83.2336223768
  0
LINE
  8
0
 62
7
  6
CONTINUOUS
 10
229.3186258234
 20
83.3392827542
 11
228.7242862008
 21
83.3392827542
  0
LINE
  8
RUNDUNGEN
 62
9
  6
CONTINUOUS
 10
216.5943047556
 20
83.6712556801
 11
173.7723994083
 21
83.6712556801
  0
LINE
  8
0
 62
7
  6
CONTINUOUS
 10
225.4488145027
 20
83.9402261504
 11
224.85447488
 21
83.9402261504
  0
LINE
  8
0
 62
7
  6
CONTINUOUS
 10
218.7223994083
 20
83.9609623126
 11
216.5943047556
 21
83.9609623126
  0
LINE
  8
AUSFORMSCHRAEGEN
 62
7
  6
CONTINUOUS
 10
173.7723994083
 20
83.9609623126
 11
83.8723994083
 21
83.9609623126
  0
LINE
  8
RUNDUNGEN
 62
9
  6
CONTINUOUS
 10
216.5841941399
 20
83.9710729282
 11
173.7723994083
 21
83.9710729282
  0
LINE
  8
0
 62
7
  6
CONTINUOUS
 10
237.4280597857
 20
84.0789053957
 11
236.8073050687
 21
84.0789053957
  0
LINE
  8
0
 62
7
  6
CONTINUOUS
 10
233.5582484649
 20
84.1119242636
 11
232.9573050687
 21
84.1119242636
  0
LINE
  8
AUSFORMSCHRAEGEN
 62
7
  6
CONTINUOUS
 10
173.7723994083
 20
84.1128676599
 11
83.8723994083
 21
84.1128676599
  0
LINE
  8
0
 62
7
  6
CONTINUOUS
 10
173.7723994083
 20
84.1128676599
 11
218.7223994083
 21
84.1128676599
  0
LINE
  8
0
 62
7
  6
CONTINUOUS
 10
226.716739031
 20
85.0628676599
 11
226.1091918611
 21
85.0628676599
  0
LINE
  8
AUSFORMSCHRAEGEN
 62
7
  6
CONTINUOUS
 10
128.44335187
 20
81.5753896088
 11
128.4223994083
 21
81.5648465081
  0
LINE
  8
0
 62
7
  6
CONTINUOUS
 10
218.7223994083
 20
124.6128676599
 11
173.7723994083
 21
124.6128676599
  0
LINE
  8
AUSFORMSCHRAEGEN
 62
7
  6
CONTINUOUS
 10
83.8723994083
 20
124.6128676599
 11
173.7723994083
 21
124.6128676599
  0
LINE
  8
RUNDUNGEN
 62
9
  6
CONTINUOUS
 10
173.7723994083
 20
124.7546623915
 11
216.5841941399
 21
124.7546623915
  0
LINE
  8
0
 62
7
  6
CONTINUOUS
 10
218.7223994083
 20
124.7647730072
 11
216.5943047556
 21
124.7647730072
  0
LINE
  8
AUSFORMSCHRAEGEN
 62
7
  6
CONTINUOUS
 10
83.8723994083
 20
124.7647730072
 11
173.7723994083
 21
124.7647730072
  0
LINE
  8
RUNDUNGEN
 62
9
  6
CONTINUOUS
 10
173.7723994083
 20
125.0544796396
 11
216.5943047556
 21
125.0544796396
  0
LINE
  8
AUSFORMSCHRAEGEN
 62
7
  6
CONTINUOUS
 10
173.3723994083
 20
63.8721324294
 11
173.3723994083
 21
81.5648465081
  0
LINE
  8
AUSFORMSCHRAEGEN
 62
7
  6
CONTINUOUS
 10
173.3723994083
 20
127.1608888117
 11
173.3723994083
 21
145.0128676599
  0
LINE
  8
AUSFORMSCHRAEGEN
 62
7
  6
CONTINUOUS
 10
173.39335187
 20
64.3128676599
 11
173.39335187
 21
81.5753896088
  0
LINE
  8
AUSFORMSCHRAEGEN
 62
7
  6
CONTINUOUS
 10
173.7723994083
 20
144.4128676599
 11
173.7723994083
 21
124.7647730072
  0
LINE
  8
AUSFORMSCHRAEGEN
 62
7
  6
CONTINUOUS
 10
173.7723994083
 20
124.7546623915
 11
173.7723994083
 21
124.6128676599
  0
LINE
  8
RUNDUNGEN
 62
7
  6
CONTINUOUS
 10
173.7723994083
 20
124.7546623915
 11
173.7723994083
 21
124.6128676599
  0
LINE
  8
RUNDUNGEN
 62
7
  6
CONTINUOUS
 10
173.7723994083
 20
83.6712556801
 11
173.7723994083
 21
83.7836376582
  0
LINE
  8
0
 62
7
  6
CONTINUOUS
 10
173.7723994083
 20
64.3128676599
 11
173.7723994083
 21
83.6712556801
  0
LINE
  8
AUSFORMSCHRAEGEN
 62
7
  6
CONTINUOUS
 10
173.7723994083
 20
64.3128676599
 11
173.7723994083
 21
83.9609623126
  0
LINE
  8
AUSFORMSCHRAEGEN
 62
7
  6
CONTINUOUS
 10
173.7723994083
 20
83.9710729282
 11
173.7723994083
 21
84.1128676599
  0
LINE
  8
RUNDUNGEN
 62
7
  6
CONTINUOUS
 10
173.7723994083
 20
83.9710729282
 11
173.7723994083
 21
84.1128676599
  0
LINE
  8
RUNDUNGEN
 62
7
  6
CONTINUOUS
 10
173.7723994083
 20
124.9420976616
 11
173.7723994083
 21
125.0544796396
  0
LINE
  8
0
 62
7
  6
CONTINUOUS
 10
173.7723994083
 20
125.0544796396
 11
173.7723994083
 21
144.4128676599
  0
LINE
  8
0
 62
7
  6
CONTINUOUS
 10
174.1723994083
 20
63.7128676599
 11
174.1723994083
 21
81.5648465081
  0
LINE
  8
0
 62
7
  6
CONTINUOUS
 10
174.1723994083
 20
127.1608888117
 11
174.1723994083
 21
145.0128676599
  0
LINE
  8
AUSFORMSCHRAEGEN
 62
7
  6
CONTINUOUS
 10
173.39335187
 20
64.3128676599
 11
173.3723994083
 21
63.7128676599
  0
LINE
  8
AUSFORMSCHRAEGEN
 62
7
  6
CONTINUOUS
 10
83.8723994083
 20
128.6655548458
 11
83.7723994083
 21
128.6628676599
  0
LINE
  8
AUSFORMSCHRAEGEN
 62
7
  6
CONTINUOUS
 10
83.8723994083
 20
128.859874785
 11
83.7723994083
 21
128.8573352807
  0
LINE
  8
AUSFORMSCHRAEGEN
 62
7
  6
CONTINUOUS
 10
83.8723994083
 20
127.0128676599
 11
173.7723994083
 21
127.0128676599
  0
LINE
  8
0
 62
7
  6
CONTINUOUS
 10
173.7723994083
 20
127.0128676599
 11
218.7223994083
 21
127.0128676599
  0
LINE
  8
0
 62
7
  6
CONTINUOUS
 10
174.1723994083
 20
127.1503457109
 11
173.7723994083
 21
127.1503457109
  0
LINE
  8
AUSFORMSCHRAEGEN
 62
7
  6
CONTINUOUS
 10
83.8723994083
 20
127.1503457109
 11
84.2514469466
 21
127.1503457109
  0
LINE
  8
AUSFORMSCHRAEGEN
 62
7
  6
CONTINUOUS
 10
128.4223994083
 20
127.1503457109
 11
129.2014469466
 21
127.1503457109
  0
LINE
  8
AUSFORMSCHRAEGEN
 62
7
  6
CONTINUOUS
 10
173.3723994083
 20
127.1503457109
 11
173.7723994083
 21
127.1503457109
  0
LINE
  8
0
 62
7
  6
CONTINUOUS
 10
218.34335187
 20
127.1503457109
 11
218.8598774593
 21
127.1503457109
  0
LINE
  8
0
 62
7
  6
CONTINUOUS
 10
218.3223994083
 20
127.1608888117
 11
174.1723994083
 21
127.1608888117
  0
LINE
  8
AUSFORMSCHRAEGEN
 62
7
  6
CONTINUOUS
 10
84.2723994083
 20
127.1608888117
 11
128.4223994083
 21
127.1608888117
  0
LINE
  8
AUSFORMSCHRAEGEN
 62
7
  6
CONTINUOUS
 10
129.2223994083
 20
127.1608888117
 11
173.3723994083
 21
127.1608888117
  0
LINE
  8
0
 62
7
  6
CONTINUOUS
 10
218.8598774593
 20
127.1503457109
 11
218.7223994083
 21
127.0128676599
  0
LINE
  8
0
 62
7
  6
CONTINUOUS
 10
218.8598774593
 20
81.5753896088
 11
218.7223994083
 21
81.7128676599
  0
LINE
  8
0
 62
7
  6
CONTINUOUS
 10
174.1723994083
 20
144.4128676599
 11
173.7723994083
 21
144.4128676599
  0
LINE
  8
0
 62
7
  6
CONTINUOUS
 10
83.39335187
 20
144.4128676599
 11
83.7723994083
 21
144.4128676599
  0
LINE
  8
0
 62
7
  6
CONTINUOUS
 10
83.8723994083
 20
144.4128676599
 11
84.2514469466
 21
144.4128676599
  0
LINE
  8
AUSFORMSCHRAEGEN
 62
7
  6
CONTINUOUS
 10
128.4223994083
 20
144.4128676599
 11
128.8223994083
 21
144.4128676599
  0
LINE
  8
0
 62
7
  6
CONTINUOUS
 10
128.8223994083
 20
144.4128676599
 11
129.2014469466
 21
144.4128676599
  0
LINE
  8
AUSFORMSCHRAEGEN
 62
7
  6
CONTINUOUS
 10
173.3723994083
 20
144.4128676599
 11
173.7723994083
 21
144.4128676599
  0
LINE
  8
0
 62
7
  6
CONTINUOUS
 10
218.34335187
 20
144.4128676599
 11
219.1014469466
 21
144.4128676599
  0
LINE
  8
AUSFORMSCHRAEGEN
 62
7
  6
CONTINUOUS
 10
58.861421986
 20
144.8536029212
 11
83.3723994083
 21
144.8536029212
  0
LINE
  8
AUSFORMSCHRAEGEN
 62
7
  6
CONTINUOUS
 10
84.2723994083
 20
144.8536028904
 11
128.4223994083
 21
144.8536028904
  0
LINE
  8
AUSFORMSCHRAEGEN
 62
7
  6
CONTINUOUS
 10
129.2223994083
 20
144.8536028904
 11
173.3723994083
 21
144.8536028904
  0
LINE
  8
0
 62
7
  6
CONTINUOUS
 10
174.1723994083
 20
144.8536028904
 11
218.3223994083
 21
144.8536028904
  0
LINE
  8
0
 62
7
  6
CONTINUOUS
 10
219.1223994083
 20
144.8536028904
 11
243.6333768049
 21
144.8536028904
  0
LINE
  8
AUSFORMSCHRAEGEN
 62
7
  6
CONTINUOUS
 10
68.6868695902
 20
144.9971453261
 11
59.7723994083
 21
144.9971453261
  0
LINE
  8
AUSFORMSCHRAEGEN
 62
7
  6
CONTINUOUS
 10
233.8079292265
 20
144.9971453261
 11
242.7223994083
 21
144.9971453261
  0
LINE
  8
AUSFORMSCHRAEGEN
 62
7
  6
CONTINUOUS
 10
218.3223994083
 20
145.0128676599
 11
174.1723994083
 21
145.0128676599
  0
LINE
  8
AUSFORMSCHRAEGEN
 62
7
  6
CONTINUOUS
 10
68.6921061096
 20
145.0128676599
 11
83.3723994083
 21
145.0128676599
  0
LINE
  8
AUSFORMSCHRAEGEN
 62
7
  6
CONTINUOUS
 10
84.2723994083
 20
145.0128676599
 11
128.4223994083
 21
145.0128676599
  0
LINE
  8
AUSFORMSCHRAEGEN
 62
7
  6
CONTINUOUS
 10
129.2223994083
 20
145.0128676599
 11
173.3723994083
 21
145.0128676599
  0
LINE
  8
AUSFORMSCHRAEGEN
 62
7
  6
CONTINUOUS
 10
219.1223994083
 20
145.0128676599
 11
233.802692707
 21
145.0128676599
  0
LINE
  8
AUSFORMSCHRAEGEN
 62
7
  6
CONTINUOUS
 10
83.7723994083
 20
143.1711742392
 11
83.8723994083
 21
143.1686103204
  0
LINE
  8
0
 62
7
  6
CONTINUOUS
 10
83.7723994083
 20
143.2128676599
 11
83.8723994083
 21
143.2102490677
  0
LINE
  8
0
 62
7
  6
CONTINUOUS
 10
243.7223994083
 20
144.9604598806
 11
243.6333768049
 21
144.8536028904
  0
POLYLINE
  8
0
 62
7
  6
CONTINUOUS
 66
1
 70
0
  0
VERTEX
  8
0
 62
7
  6
CONTINUOUS
 10
229.870947124
 20
82.0552082563
  0
VERTEX
  8
0
 62
7
  6
CONTINUOUS
 10
229.9558759526
 20
82.0840639601
  0
VERTEX
  8
0
 62
7
  6
CONTINUOUS
 10
230.0338531128
 20
82.1293034444
  0
VERTEX
  8
0
 62
7
  6
CONTINUOUS
 10
230.1021738032
 20
82.1875450767
  0
VERTEX
  8
0
 62
7
  6
CONTINUOUS
 10
230.1568511774
 20
82.2584443684
  0
VERTEX
  8
0
 62
7
  6
CONTINUOUS
 10
230.1973196824
 20
82.3368907116
  0
VERTEX
  8
0
 62
7
  6
CONTINUOUS
 10
230.2214480032
 20
82.4170034912
  0
VERTEX
  8
0
 62
7
  6
CONTINUOUS
 10
230.2299465781
 20
82.5007437676
  0
SEQEND
  0
POLYLINE
  8
0
 62
7
  6
CONTINUOUS
 66
1
 70
0
  0
VERTEX
  8
0
 62
7
  6
CONTINUOUS
 10
229.5233428045
 20
82.7185280372
  0
VERTEX
  8
0
 62
7
  6
CONTINUOUS
 10
229.4453656907
 20
82.6931475136
  0
VERTEX
  8
0
 62
7
  6
CONTINUOUS
 10
229.3789277148
 20
82.6585581121
  0
VERTEX
  8
0
 62
7
  6
CONTINUOUS
 10
229.3238782165
 20
82.613719478
  0
VERTEX
  8
0
 62
7
  6
CONTINUOUS
 10
229.2806691772
 20
82.56175576
  0
VERTEX
  8
0
 62
7
  6
CONTINUOUS
 10
229.2498742593
 20
82.5045246867
  0
VERTEX
  8
0
 62
7
  6
CONTINUOUS
 10
229.2309777603
 20
82.4447840972
  0
VERTEX
  8
0
 62
7
  6
CONTINUOUS
 10
229.2239318785
 20
82.3859450455
  0
VERTEX
  8
0
 62
7
  6
CONTINUOUS
 10
229.2279065735
 20
82.3279030879
  0
VERTEX
  8
0
 62
7
  6
CONTINUOUS
 10
229.2420387741
 20
82.2711420344
  0
VERTEX
  8
0
 62
7
  6
CONTINUOUS
 10
229.2663797701
 20
82.2173073597
  0
VERTEX
  8
0
 62
7
  6
CONTINUOUS
 10
229.3004473224
 20
82.1675528732
  0
VERTEX
  8
0
 62
7
  6
CONTINUOUS
 10
229.3449789478
 20
82.1238361284
  0
VERTEX
  8
0
 62
7
  6
CONTINUOUS
 10
229.4016282937
 20
82.0885476007
  0
VERTEX
  8
0
 62
7
  6
CONTINUOUS
 10
229.4671647295
 20
82.0615413404
  0
VERTEX
  8
0
 62
7
  6
CONTINUOUS
 10
229.5392356831
 20
82.0437663047
  0
VERTEX
  8
0
 62
7
  6
CONTINUOUS
 10
229.6168606253
 20
82.0343289145
  0
VERTEX
  8
0
 62
7
  6
CONTINUOUS
 10
229.6987506116
 20
82.0319989686
  0
VERTEX
  8
0
 62
7
  6
CONTINUOUS
 10
229.7834783155
 20
82.0387363726
  0
VERTEX
  8
0
 62
7
  6
CONTINUOUS
 10
229.870947124
 20
82.0552082563
  0
SEQEND
  0
LINE
  8
AUSFORMSCHRAEGEN
 62
7
  6
CONTINUOUS
 10
58.7723994083
 20
144.9604598806
 11
59.7723994083
 21
144.9971453261
  0
LINE
  8
0
 62
7
  6
CONTINUOUS
 10
242.7223994083
 20
144.9971453261
 11
243.7223994083
 21
144.9604598806
  0
LINE
  8
0
 62
7
  6
CONTINUOUS
 10
243.7223994083
 20
63.7652754391
 11
243.6333768049
 21
63.8721324294
  0
POLYLINE
  8
0
 62
7
  6
CONTINUOUS
 66
1
 70
0
  0
VERTEX
  8
0
 62
7
  6
CONTINUOUS
 10
228.9590624959
 20
82.9216460217
  0
VERTEX
  8
0
 62
7
  6
CONTINUOUS
 10
229.0488049515
 20
82.9704204809
  0
VERTEX
  8
0
 62
7
  6
CONTINUOUS
 10
229.138522321
 20
83.0070827514
  0
VERTEX
  8
0
 62
7
  6
CONTINUOUS
 10
229.2247182457
 20
83.0339514766
  0
VERTEX
  8
0
 62
7
  6
CONTINUOUS
 10
229.3074763208
 20
83.0546127981
  0
VERTEX
  8
0
 62
7
  6
CONTINUOUS
 10
229.385441527
 20
83.0737351156
  0
VERTEX
  8
0
 62
7
  6
CONTINUOUS
 10
229.4594333498
 20
83.0903923273
  0
VERTEX
  8
0
 62
7
  6
CONTINUOUS
 10
229.5297538168
 20
83.1051704347
  0
VERTEX
  8
0
 62
7
  6
CONTINUOUS
 10
229.5966002834
 20
83.1182017624
  0
VERTEX
  8
0
 62
7
  6
CONTINUOUS
 10
229.6601981418
 20
83.1298216434
  0
VERTEX
  8
0
 62
7
  6
CONTINUOUS
 10
229.72076531
 20
83.1400071561
  0
VERTEX
  8
0
 62
7
  6
CONTINUOUS
 10
229.7785510387
 20
83.148738246
  0
VERTEX
  8
0
 62
7
  6
CONTINUOUS
 10
229.8336867221
 20
83.1563416847
  0
VERTEX
  8
0
 62
7
  6
CONTINUOUS
 10
229.8863202325
 20
83.1631440553
  0
VERTEX
  8
0
 62
7
  6
CONTINUOUS
 10
229.9366513864
 20
83.1691259211
  0
VERTEX
  8
0
 62
7
  6
CONTINUOUS
 10
229.9851052328
 20
83.1737593432
  0
VERTEX
  8
0
 62
7
  6
CONTINUOUS
 10
230.0311539467
 20
83.1788964278
  0
VERTEX
  8
0
 62
7
  6
CONTINUOUS
 10
230.074652866
 20
83.1854695259
  0
VERTEX
  8
0
 62
7
  6
CONTINUOUS
 10
230.1148775513
 20
83.1957100948
  0
VERTEX
  8
0
 62
7
  6
CONTINUOUS
 10
230.1513420997
 20
83.2130893465
  0
VERTEX
  8
0
 62
7
  6
CONTINUOUS
 10
230.1831862399
 20
83.2348208711
  0
VERTEX
  8
0
 62
7
  6
CONTINUOUS
 10
230.2092599528
 20
83.2590715229
  0
VERTEX
  8
0
 62
7
  6
CONTINUOUS
 10
230.2299465781
 20
83.2864525655
  0
SEQEND
  0
LINE
  8
0
 62
7
  6
CONTINUOUS
 10
219.1014469466
 20
64.3128676599
 11
219.1171259409
 21
63.8638800074
  0
LINE
  8
AUSFORMSCHRAEGEN
 62
7
  6
CONTINUOUS
 10
219.1171259409
 20
63.8638800074
 11
219.1223994083
 21
63.7128676599
  0
POLYLINE
  8
0
 62
7
  6
CONTINUOUS
 66
1
 70
0
  0
VERTEX
  8
0
 62
7
  6
CONTINUOUS
 10
218.8598774593
 20
127.1503457109
  0
VERTEX
  8
0
 62
7
  6
CONTINUOUS
 10
218.8715761012
 20
121.472780164
  0
VERTEX
  8
0
 62
7
  6
CONTINUOUS
 10
218.8799344291
 20
115.7823453277
  0
VERTEX
  8
0
 62
7
  6
CONTINUOUS
 10
218.8849543285
 20
110.0758238752
  0
VERTEX
  8
0
 62
7
  6
CONTINUOUS
 10
218.8866301426
 20
104.3628677866
  0
VERTEX
  8
0
 62
7
  6
CONTINUOUS
 10
218.8849543288
 20
98.6499117477
  0
VERTEX
  8
0
 62
7
  6
CONTINUOUS
 10
218.8799344295
 20
92.9433903134
  0
VERTEX
  8
0
 62
7
  6
CONTINUOUS
 10
218.8715761015
 20
87.252955365
  0
VERTEX
  8
0
 62
7
  6
CONTINUOUS
 10
218.8598774593
 20
81.5753896088
  0
SEQEND
  0
LINE
  8
0
 62
7
  6
CONTINUOUS
 10
216.5943047556
 20
125.0544796396
 11
216.5943047556
 21
124.7647730072
  0
LINE
  8
0
 62
7
  6
CONTINUOUS
 10
216.5943047556
 20
83.6712556801
 11
216.5943047556
 21
83.9609623126
  0
LINE
  8
0
 62
7
  6
CONTINUOUS
 10
218.3223994083
 20
63.8721324294
 11
218.3223994083
 21
81.5648465081
  0
LINE
  8
0
 62
7
  6
CONTINUOUS
 10
218.3223994083
 20
127.1608888117
 11
218.3223994083
 21
144.8536028904
  0
LINE
  8
0
 62
7
  6
CONTINUOUS
 10
218.34335187
 20
64.3128676599
 11
218.34335187
 21
81.5753896088
  0
LINE
  8
0
 62
7
  6
CONTINUOUS
 10
218.34335187
 20
127.1503457109
 11
218.34335187
 21
144.4128676599
  0
LINE
  8
0
 62
7
  6
CONTINUOUS
 10
218.7223994083
 20
81.7128676599
 11
218.7223994083
 21
127.0128676599
  0
LINE
  8
0
 62
7
  6
CONTINUOUS
 10
219.1014469466
 20
144.4128676599
 11
219.1014469466
 21
64.3128676599
  0
LINE
  8
0
 62
7
  6
CONTINUOUS
 10
219.1223994083
 20
63.8721324294
 11
219.1223994083
 21
144.8536028904
  0
LINE
  8
0
 62
7
  6
CONTINUOUS
 10
219.1014469466
 20
144.4128676599
 11
219.1171259409
 21
144.8618553124
  0
LINE
  8
AUSFORMSCHRAEGEN
 62
7
  6
CONTINUOUS
 10
219.1171259409
 20
144.8618553124
 11
219.1223994083
 21
145.0128676599
  0
POLYLINE
  8
0
 62
7
  6
CONTINUOUS
 66
1
 70
0
  0
VERTEX
  8
0
 62
7
  6
CONTINUOUS
 10
226.716739031
 20
83.8939997353
  0
VERTEX
  8
0
 62
7
  6
CONTINUOUS
 10
226.7922775664
 20
83.9608625032
  0
VERTEX
  8
0
 62
7
  6
CONTINUOUS
 10
226.8814934592
 20
84.0210896768
  0
VERTEX
  8
0
 62
7
  6
CONTINUOUS
 10
226.9852347867
 20
84.0767889304
  0
VERTEX
  8
0
 62
7
  6
CONTINUOUS
 10
227.100957317
 20
84.1216339163
  0
VERTEX
  8
0
 62
7
  6
CONTINUOUS
 10
227.228267414
 20
84.1504794682
  0
VERTEX
  8
0
 62
7
  6
CONTINUOUS
 10
227.3615613677
 20
84.161887855
  0
VERTEX
  8
0
 62
7
  6
CONTINUOUS
 10
227.4961683856
 20
84.1523924637
  0
VERTEX
  8
0
 62
7
  6
CONTINUOUS
 10
227.6288960788
 20
84.1229378858
  0
VERTEX
  8
0
 62
7
  6
CONTINUOUS
 10
227.7560014274
 20
84.0727136304
  0
VERTEX
  8
0
 62
7
  6
CONTINUOUS
 10
227.8744655306
 20
84.00352343
  0
VERTEX
  8
0
 62
7
  6
CONTINUOUS
 10
227.9805838701
 20
83.9166357413
  0
VERTEX
  8
0
 62
7
  6
CONTINUOUS
 10
228.0726702778
 20
83.812849403
  0
VERTEX
  8
0
 62
7
  6
CONTINUOUS
 10
228.1490381844
 20
83.6923951033
  0
VERTEX
  8
0
 62
7
  6
CONTINUOUS
 10
228.2059842759
 20
83.5582481191
  0
VERTEX
  8
0
 62
7
  6
CONTINUOUS
 10
228.2387098607
 20
83.4138394931
  0
VERTEX
  8
0
 62
7
  6
CONTINUOUS
 10
228.2488145027
 20
83.2580303576
  0
SEQEND
  0
POLYLINE
  8
0
 62
7
  6
CONTINUOUS
 66
1
 70
0
  0
VERTEX
  8
0
 62
7
  6
CONTINUOUS
 10
230.2299465781
 20
81.8204148297
  0
VERTEX
  8
0
 62
7
  6
CONTINUOUS
 10
230.1102979618
 20
81.7357876239
  0
VERTEX
  8
0
 62
7
  6
CONTINUOUS
 10
229.9891126903
 20
81.6687489899
  0
VERTEX
  8
0
 62
7
  6
CONTINUOUS
 10
229.8661607953
 20
81.6199962556
  0
VERTEX
  8
0
 62
7
  6
CONTINUOUS
 10
229.7421321821
 20
81.587427041
  0
VERTEX
  8
0
 62
7
  6
CONTINUOUS
 10
229.6175873349
 20
81.5691401194
  0
VERTEX
  8
0
 62
7
  6
CONTINUOUS
 10
229.4926845492
 20
81.5652341584
  0
VERTEX
  8
0
 62
7
  6
CONTINUOUS
 10
229.3670551387
 20
81.5746173065
  0
VERTEX
  8
0
 62
7
  6
CONTINUOUS
 10
229.2428405336
 20
81.5989629316
  0
VERTEX
  8
0
 62
7
  6
CONTINUOUS
 10
229.1200614084
 20
81.6392650396
  0
VERTEX
  8
0
 62
7
  6
CONTINUOUS
 10
229.0047113437
 20
81.6964733809
  0
VERTEX
  8
0
 62
7
  6
CONTINUOUS
 10
228.9023909453
 20
81.7730779683
  0
VERTEX
  8
0
 62
7
  6
CONTINUOUS
 10
228.8142998126
 20
81.8654569327
  0
VERTEX
  8
0
 62
7
  6
CONTINUOUS
 10
228.7428849344
 20
81.9727251159
  0
VERTEX
  8
0
 62
7
  6
CONTINUOUS
 10
228.6900047483
 20
82.0891624936
  0
VERTEX
  8
0
 62
7
  6
CONTINUOUS
 10
228.6588719611
 20
82.2093212691
  0
VERTEX
  8
0
 62
7
  6
CONTINUOUS
 10
228.6478707536
 20
82.3314914597
  0
VERTEX
  8
0
 62
7
  6
CONTINUOUS
 10
228.6570361975
 20
82.4536607947
  0
VERTEX
  8
0
 62
7
  6
CONTINUOUS
 10
228.6846283259
 20
82.571282518
  0
VERTEX
  8
0
 62
7
  6
CONTINUOUS
 10
228.7289932465
 20
82.6802127482
  0
VERTEX
  8
0
 62
7
  6
CONTINUOUS
 10
228.7899078068
 20
82.7772225565
  0
VERTEX
  8
0
 62
7
  6
CONTINUOUS
 10
228.8698488798
 20
82.8569659691
  0
VERTEX
  8
0
 62
7
  6
CONTINUOUS
 10
228.9590624959
 20
82.9216460217
  0
SEQEND
  0
POLYLINE
  8
0
 62
7
  6
CONTINUOUS
 66
1
 70
0
  0
VERTEX
  8
0
 62
7
  6
CONTINUOUS
 10
231.8940975215
 20
81.5628676599
  0
VERTEX
  8
0
 62
7
  6
CONTINUOUS
 10
231.9247001703
 20
81.4895294327
  0
VERTEX
  8
0
 62
7
  6
CONTINUOUS
 10
231.9743989772
 20
81.4256088066
  0
VERTEX
  8
0
 62
7
  6
CONTINUOUS
 10
232.0460553015
 20
81.3696212434
  0
VERTEX
  8
0
 62
7
  6
CONTINUOUS
 10
232.1310850654
 20
81.3260148388
  0
VERTEX
  8
0
 62
7
  6
CONTINUOUS
 10
232.2227299406
 20
81.300550321
  0
VERTEX
  8
0
 62
7
  6
CONTINUOUS
 10
232.3183740377
 20
81.2878047027
  0
VERTEX
  8
0
 62
7
  6
CONTINUOUS
 10
232.4135747771
 20
81.284740099
  0
VERTEX
  8
0
 62
7
  6
CONTINUOUS
 10
232.5070539014
 20
81.2899653164
  0
VERTEX
  8
0
 62
7
  6
CONTINUOUS
 10
232.5965527858
 20
81.2997905789
  0
VERTEX
  8
0
 62
7
  6
CONTINUOUS
 10
232.6805699524
 20
81.3180747469
  0
VERTEX
  8
0
 62
7
  6
CONTINUOUS
 10
232.7577365197
 20
81.3473220205
  0
VERTEX
  8
0
 62
7
  6
CONTINUOUS
 10
232.825396075
 20
81.3879082209
  0
VERTEX
  8
0
 62
7
  6
CONTINUOUS
 10
232.881024621
 20
81.4423931148
  0
VERTEX
  8
0
 62
7
  6
CONTINUOUS
 10
232.9228560313
 20
81.5067315212
  0
VERTEX
  8
0
 62
7
  6
CONTINUOUS
 10
232.9479569149
 20
81.5773314315
  0
VERTEX
  8
0
 62
7
  6
CONTINUOUS
 10
232.9573050687
 20
81.6553917971
  0
SEQEND
  0
LINE
  8
0
 62
7
  6
CONTINUOUS
 10
218.34335187
 20
144.4128676599
 11
218.3276728757
 21
144.8618553124
  0
LINE
  8
AUSFORMSCHRAEGEN
 62
7
  6
CONTINUOUS
 10
218.3276728757
 20
144.8618553124
 11
218.3223994083
 21
145.0128676599
  0
LINE
  8
0
 62
7
  6
CONTINUOUS
 10
224.7223994083
 20
81.6949431316
 11
224.7223994083
 21
82.2892827542
  0
LINE
  8
0
 62
7
  6
CONTINUOUS
 10
224.7223994083
 20
83.2138110561
 11
224.7223994083
 21
83.8081506787
  0
LINE
  8
0
 62
7
  6
CONTINUOUS
 10
225.5808899744
 20
81.6949431316
 11
225.5808899744
 21
82.2892827542
  0
LINE
  8
0
 62
7
  6
CONTINUOUS
 10
225.5808899744
 20
83.2138110561
 11
225.5808899744
 21
83.8081506787
  0
LINE
  8
0
 62
7
  6
CONTINUOUS
 10
226.1091918611
 20
81.5628676599
 11
226.1091918611
 21
85.0628676599
  0
LINE
  8
0
 62
7
  6
CONTINUOUS
 10
218.34335187
 20
64.3128676599
 11
218.3276728757
 21
63.8638800074
  0
LINE
  8
AUSFORMSCHRAEGEN
 62
7
  6
CONTINUOUS
 10
218.3276728757
 20
63.8638800074
 11
218.3223994083
 21
63.7128676599
  0
POLYLINE
  8
0
 62
7
  6
CONTINUOUS
 66
1
 70
0
  0
VERTEX
  8
0
 62
7
  6
CONTINUOUS
 10
227.6412673328
 20
83.2864525655
  0
VERTEX
  8
0
 62
7
  6
CONTINUOUS
 10
227.6300252744
 20
83.3672756263
  0
VERTEX
  8
0
 62
7
  6
CONTINUOUS
 10
227.6066132526
 20
83.43733732
  0
VERTEX
  8
0
 62
7
  6
CONTINUOUS
 10
227.5697377763
 20
83.4966619418
  0
VERTEX
  8
0
 62
7
  6
CONTINUOUS
 10
227.523279319
 20
83.5451702294
  0
VERTEX
  8
0
 62
7
  6
CONTINUOUS
 10
227.4707225644
 20
83.5829035236
  0
VERTEX
  8
0
 62
7
  6
CONTINUOUS
 10
227.4119613916
 20
83.6095258277
  0
VERTEX
  8
0
 62
7
  6
CONTINUOUS
 10
227.3475201199
 20
83.6234827725
  0
VERTEX
  8
0
 62
7
  6
CONTINUOUS
 10
227.278992113
 20
83.628472302
  0
VERTEX
  8
0
 62
7
  6
CONTINUOUS
 10
227.2081306436
 20
83.6293311999
  0
VERTEX
  8
0
 62
7
  6
CONTINUOUS
 10
227.1349803037
 20
83.6210900789
  0
VERTEX
  8
0
 62
7
  6
CONTINUOUS
 10
227.0587972429
 20
83.6003345882
  0
VERTEX
  8
0
 62
7
  6
CONTINUOUS
 10
226.9837000617
 20
83.5672377089
  0
VERTEX
  8
0
 62
7
  6
CONTINUOUS
 10
226.9127533397
 20
83.5209639408
  0
VERTEX
  8
0
 62
7
  6
CONTINUOUS
 10
226.8483752895
 20
83.461126711
  0
VERTEX
  8
0
 62
7
  6
CONTINUOUS
 10
226.7926086445
 20
83.3857845962
  0
VERTEX
  8
0
 62
7
  6
CONTINUOUS
 10
226.7496444221
 20
83.2987695601
  0
VERTEX
  8
0
 62
7
  6
CONTINUOUS
 10
226.724963542
 20
83.2036630255
  0
SEQEND
  0
POLYLINE
  8
0
 62
7
  6
CONTINUOUS
 66
1
 70
0
  0
VERTEX
  8
0
 62
7
  6
CONTINUOUS
 10
230.8242862008
 20
81.9062638863
  0
VERTEX
  8
0
 62
7
  6
CONTINUOUS
 10
230.8246329892
 20
81.8786550327
  0
VERTEX
  8
0
 62
7
  6
CONTINUOUS
 10
230.826217376
 20
81.8493884755
  0
VERTEX
  8
0
 62
7
  6
CONTINUOUS
 10
230.8289861301
 20
81.8184193017
  0
VERTEX
  8
0
 62
7
  6
CONTINUOUS
 10
230.8330989443
 20
81.7858827169
  0
VERTEX
  8
0
 62
7
  6
CONTINUOUS
 10
230.8385618429
 20
81.7518750486
  0
VERTEX
  8
0
 62
7
  6
CONTINUOUS
 10
230.8457825999
 20
81.7164680012
  0
VERTEX
  8
0
 62
7
  6
CONTINUOUS
 10
230.8551600047
 20
81.6797103915
  0
VERTEX
  8
0
 62
7
  6
CONTINUOUS
 10
230.8667270367
 20
81.6417671894
  0
VERTEX
  8
0
 62
7
  6
CONTINUOUS
 10
230.8806703438
 20
81.6028422151
  0
VERTEX
  8
0
 62
7
  6
CONTINUOUS
 10
230.8969277102
 20
81.5628676599
  0
SEQEND
  0
LINE
  8
0
 62
7
  6
CONTINUOUS
 10
226.716739031
 20
81.5628676599
 11
226.716739031
 21
83.0992737491
  0
LINE
  8
0
 62
7
  6
CONTINUOUS
 10
226.716739031
 20
83.8939997353
 11
226.716739031
 21
85.0628676599
  0
LINE
  8
0
 62
7
  6
CONTINUOUS
 10
227.6412673328
 20
81.5628676599
 11
227.6412673328
 21
83.2864525655
  0
LINE
  8
0
 62
7
  6
CONTINUOUS
 10
228.2488145027
 20
81.5628676599
 11
228.2488145027
 21
83.2580303576
  0
LINE
  8
0
 62
7
  6
CONTINUOUS
 10
230.2299465781
 20
81.5628676599
 11
230.2299465781
 21
81.8204148297
  0
LINE
  8
0
 62
7
  6
CONTINUOUS
 10
230.2299465781
 20
82.5007437676
 11
230.2299465781
 21
82.8558778972
  0
LINE
  8
0
 62
7
  6
CONTINUOUS
 10
230.8242862008
 20
81.9062638863
 11
230.8242862008
 21
83.5572072825
  0
LINE
  8
0
 62
7
  6
CONTINUOUS
 10
232.9573050687
 20
81.6553917971
 11
232.9573050687
 21
81.9362516218
  0
LINE
  8
0
 62
7
  6
CONTINUOUS
 10
232.9573050687
 20
83.9138110561
 11
232.9573050687
 21
84.1119242636
  0
LINE
  8
0
 62
7
  6
CONTINUOUS
 10
226.724963542
 20
83.2036630255
 11
226.716739031
 21
83.0992737491
  0
POLYLINE
  8
0
 62
7
  6
CONTINUOUS
 66
1
 70
0
  0
VERTEX
  8
0
 62
7
  6
CONTINUOUS
 10
228.7242862008
 20
83.3392827542
  0
VERTEX
  8
0
 62
7
  6
CONTINUOUS
 10
228.7377803892
 20
83.4837422792
  0
VERTEX
  8
0
 62
7
  6
CONTINUOUS
 10
228.7711569514
 20
83.6176373521
  0
VERTEX
  8
0
 62
7
  6
CONTINUOUS
 10
228.8247761095
 20
83.7411962853
  0
VERTEX
  8
0
 62
7
  6
CONTINUOUS
 10
228.8975571972
 20
83.8537217987
  0
VERTEX
  8
0
 62
7
  6
CONTINUOUS
 10
228.9888738648
 20
83.9559646685
  0
VERTEX
  8
0
 62
7
  6
CONTINUOUS
 10
229.0977233847
 20
84.0438098646
  0
VERTEX
  8
0
 62
7
  6
CONTINUOUS
 10
229.22449396
 20
84.1128271513
  0
VERTEX
  8
0
 62
7
  6
CONTINUOUS
 10
229.364386449
 20
84.1647111344
  0
VERTEX
  8
0
 62
7
  6
CONTINUOUS
 10
229.5149708496
 20
84.1990838995
  0
VERTEX
  8
0
 62
7
  6
CONTINUOUS
 10
229.6695279448
 20
84.217736739
  0
VERTEX
  8
0
 62
7
  6
CONTINUOUS
 10
229.8210908012
 20
84.2221365661
  0
VERTEX
  8
0
 62
7
  6
CONTINUOUS
 10
229.9679725654
 20
84.2128823097
  0
VERTEX
  8
0
 62
7
  6
CONTINUOUS
 10
230.1064378634
 20
84.1899507995
  0
VERTEX
  8
0
 62
7
  6
CONTINUOUS
 10
230.235665325
 20
84.1566775673
  0
VERTEX
  8
0
 62
7
  6
CONTINUOUS
 10
230.3530725899
 20
84.1164903195
  0
VERTEX
  8
0
 62
7
  6
CONTINUOUS
 10
230.4602072557
 20
84.0690896096
  0
VERTEX
  8
0
 62
7
  6
CONTINUOUS
 10
230.5590697264
 20
84.0174183043
  0
VERTEX
  8
0
 62
7
  6
CONTINUOUS
 10
230.6457192221
 20
83.9551773839
  0
VERTEX
  8
0
 62
7
  6
CONTINUOUS
 10
230.7174997324
 20
83.8761027158
  0
VERTEX
  8
0
 62
7
  6
CONTINUOUS
 10
230.7725573528
 20
83.7830380086
  0
VERTEX
  8
0
 62
7
  6
CONTINUOUS
 10
230.8078104371
 20
83.6768325624
  0
VERTEX
  8
0
 62
7
  6
CONTINUOUS
 10
230.8242862008
 20
83.5572072825
  0
SEQEND
  0
POLYLINE
  8
0
 62
7
  6
CONTINUOUS
 66
1
 70
0
  0
VERTEX
  8
0
 62
7
  6
CONTINUOUS
 10
229.3630522898
 20
83.5561493407
  0
VERTEX
  8
0
 62
7
  6
CONTINUOUS
 10
229.3271422305
 20
83.4904596479
  0
VERTEX
  8
0
 62
7
  6
CONTINUOUS
 10
229.312926015
 20
83.4185546656
  0
VERTEX
  8
0
 62
7
  6
CONTINUOUS
 10
229.3186258234
 20
83.3392827542
  0
SEQEND
  0
POLYLINE
  8
0
 62
7
  6
CONTINUOUS
 66
1
 70
0
  0
VERTEX
  8
0
 62
7
  6
CONTINUOUS
 10
230.2299465781
 20
83.2864525655
  0
VERTEX
  8
0
 62
7
  6
CONTINUOUS
 10
230.2473172886
 20
83.3148547078
  0
VERTEX
  8
0
 62
7
  6
CONTINUOUS
 10
230.2600681108
 20
83.3474444073
  0
VERTEX
  8
0
 62
7
  6
CONTINUOUS
 10
230.26881137
 20
83.3847506886
  0
VERTEX
  8
0
 62
7
  6
CONTINUOUS
 10
230.2717100906
 20
83.4251877061
  0
VERTEX
  8
0
 62
7
  6
CONTINUOUS
 10
230.2675918817
 20
83.4678326819
  0
VERTEX
  8
0
 62
7
  6
CONTINUOUS
 10
230.2550753147
 20
83.5112248538
  0
VERTEX
  8
0
 62
7
  6
CONTINUOUS
 10
230.2318254347
 20
83.554695494
  0
VERTEX
  8
0
 62
7
  6
CONTINUOUS
 10
230.19953043
 20
83.5949447536
  0
VERTEX
  8
0
 62
7
  6
CONTINUOUS
 10
230.1585126095
 20
83.6274716519
  0
VERTEX
  8
0
 62
7
  6
CONTINUOUS
 10
230.1105346557
 20
83.655209161
  0
VERTEX
  8
0
 62
7
  6
CONTINUOUS
 10
230.0577559153
 20
83.6799919805
  0
VERTEX
  8
0
 62
7
  6
CONTINUOUS
 10
229.9993087036
 20
83.7006148242
  0
VERTEX
  8
0
 62
7
  6
CONTINUOUS
 10
229.9348841793
 20
83.717093531
  0
VERTEX
  8
0
 62
7
  6
CONTINUOUS
 10
229.8649651589
 20
83.7275994791
  0
VERTEX
  8
0
 62
7
  6
CONTINUOUS
 10
229.7886690406
 20
83.7305530321
  0
VERTEX
  8
0
 62
7
  6
CONTINUOUS
 10
229.7097832372
 20
83.7252232381
  0
VERTEX
  8
0
 62
7
  6
CONTINUOUS
 10
229.6312663218
 20
83.7100452875
  0
VERTEX
  8
0
 62
7
  6
CONTINUOUS
 10
229.5547222117
 20
83.6859420315
  0
VERTEX
  8
0
 62
7
  6
CONTINUOUS
 10
229.4808424397
 20
83.6542047758
  0
VERTEX
  8
0
 62
7
  6
CONTINUOUS
 10
229.4153227331
 20
83.6121642798
  0
VERTEX
  8
0
 62
7
  6
CONTINUOUS
 10
229.3630522898
 20
83.5561493407
  0
SEQEND
  0
LINE
  8
0
 62
7
  6
CONTINUOUS
 10
233.5582484649
 20
81.5628676599
 11
233.5582484649
 21
84.1119242636
  0
LINE
  8
0
 62
7
  6
CONTINUOUS
 10
236.8073050687
 20
81.5628676599
 11
236.8073050687
 21
84.0789053957
  0
LINE
  8
0
 62
7
  6
CONTINUOUS
 10
237.4280597857
 20
81.5628676599
 11
237.4280597857
 21
82.9215617252
  0
LINE
  8
0
 62
7
  6
CONTINUOUS
 10
237.4280597857
 20
83.788339358
 11
237.4280597857
 21
84.0789053957
  0
LINE
  8
0
 62
7
  6
CONTINUOUS
 10
238.2139088423
 20
83.4925571948
 11
238.2139088423
 21
84.1133119118
  0
POLYLINE
  8
0
 62
7
  6
CONTINUOUS
 66
1
 70
0
  0
VERTEX
  8
0
 62
7
  6
CONTINUOUS
 10
233.5582484649
 20
81.5628676599
  0
VERTEX
  8
0
 62
7
  6
CONTINUOUS
 10
233.5422331393
 20
81.4340670704
  0
VERTEX
  8
0
 62
7
  6
CONTINUOUS
 10
233.5076605666
 20
81.3187002739
  0
VERTEX
  8
0
 62
7
  6
CONTINUOUS
 10
233.4535536887
 20
81.2165739274
  0
VERTEX
  8
0
 62
7
  6
CONTINUOUS
 10
233.3828436798
 20
81.1282537976
  0
VERTEX
  8
0
 62
7
  6
CONTINUOUS
 10
233.2980452283
 20
81.0539708563
  0
VERTEX
  8
0
 62
7
  6
CONTINUOUS
 10
233.1994307332
 20
80.9945380539
  0
VERTEX
  8
0
 62
7
  6
CONTINUOUS
 10
233.0870499127
 20
80.9531222676
  0
VERTEX
  8
0
 62
7
  6
CONTINUOUS
 10
232.9640854967
 20
80.9228949602
  0
VERTEX
  8
0
 62
7
  6
CONTINUOUS
 10
232.8335677986
 20
80.8975547006
  0
VERTEX
  8
0
 62
7
  6
CONTINUOUS
 10
232.6960037851
 20
80.8786921408
  0
VERTEX
  8
0
 62
7
  6
CONTINUOUS
 10
232.5519700549
 20
80.8654344654
  0
VERTEX
  8
0
 62
7
  6
CONTINUOUS
 10
232.4042880253
 20
80.8588714264
  0
VERTEX
  8
0
 62
7
  6
CONTINUOUS
 10
232.2548559503
 20
80.8598389468
  0
VERTEX
  8
0
 62
7
  6
CONTINUOUS
 10
232.1070199186
 20
80.8682262462
  0
VERTEX
  8
0
 62
7
  6
CONTINUOUS
 10
231.9638101483
 20
80.8823632804
  0
VERTEX
  8
0
 62
7
  6
CONTINUOUS
 10
231.8280725061
 20
80.9077645873
  0
VERTEX
  8
0
 62
7
  6
CONTINUOUS
 10
231.702349294
 20
80.9500969139
  0
VERTEX
  8
0
 62
7
  6
CONTINUOUS
 10
231.5905814258
 20
81.0072370733
  0
VERTEX
  8
0
 62
7
  6
CONTINUOUS
 10
231.4982000858
 20
81.0804649973
  0
VERTEX
  8
0
 62
7
  6
CONTINUOUS
 10
231.4232767656
 20
81.1652410768
  0
VERTEX
  8
0
 62
7
  6
CONTINUOUS
 10
231.3659252459
 20
81.2581828298
  0
VERTEX
  8
0
 62
7
  6
CONTINUOUS
 10
231.3254498438
 20
81.3570960454
  0
VERTEX
  8
0
 62
7
  6
CONTINUOUS
 10
231.3011105842
 20
81.4582418714
  0
VERTEX
  8
0
 62
7
  6
CONTINUOUS
 10
231.2931541253
 20
81.5628676599
  0
SEQEND
  0
LINE
  8
0
 62
7
  6
CONTINUOUS
 10
243.7223994083
 20
144.9604598806
 11
243.7223994083
 21
144.6084998493
  0
LINE
  8
AUSFORMSCHRAEGEN
 62
7
  6
CONTINUOUS
 10
243.7223994083
 20
144.6084997311
 11
243.7223994083
 21
64.1172355886
  0
LINE
  8
0
 62
7
  6
CONTINUOUS
 10
243.7223994083
 20
64.1172354747
 11
243.7223994083
 21
63.7652754391
  0
POLYLINE
  8
0
 62
7
  6
CONTINUOUS
 66
1
 70
0
  0
VERTEX
  8
0
 62
7
  6
CONTINUOUS
 10
243.6333768049
 20
144.8536028904
  0
VERTEX
  8
0
 62
7
  6
CONTINUOUS
 10
243.5771381268
 20
139.1541260755
  0
VERTEX
  8
0
 62
7
  6
CONTINUOUS
 10
243.529489228
 20
133.4207088529
  0
VERTEX
  8
0
 62
7
  6
CONTINUOUS
 10
243.4904098623
 20
127.6499729126
  0
VERTEX
  8
0
 62
7
  6
CONTINUOUS
 10
243.4599607689
 20
121.8520531845
  0
VERTEX
  8
0
 62
7
  6
CONTINUOUS
 10
243.4381925413
 20
116.0336826962
  0
VERTEX
  8
0
 62
7
  6
CONTINUOUS
 10
243.425115371
 20
110.2016888448
  0
VERTEX
  8
0
 62
7
  6
CONTINUOUS
 10
243.4207596964
 20
104.3628675594
  0
VERTEX
  8
0
 62
7
  6
CONTINUOUS
 10
243.4251153713
 20
98.5240462716
  0
VERTEX
  8
0
 62
7
  6
CONTINUOUS
 10
243.4381925419
 20
92.692052415
  0
VERTEX
  8
0
 62
7
  6
CONTINUOUS
 10
243.4599607699
 20
86.8736819131
  0
VERTEX
  8
0
 62
7
  6
CONTINUOUS
 10
243.4904098641
 20
81.0757621328
  0
VERTEX
  8
0
 62
7
  6
CONTINUOUS
 10
243.5294892302
 20
75.3050261787
  0
VERTEX
  8
0
 62
7
  6
CONTINUOUS
 10
243.5771381283
 20
69.5716090559
  0
VERTEX
  8
0
 62
7
  6
CONTINUOUS
 10
243.6333768049
 20
63.8721324294
  0
SEQEND
  0
LINE
  8
AUSFORMSCHRAEGEN
 62
7
  6
CONTINUOUS
 10
233.8079292265
 20
63.7285899936
 11
233.802692707
 21
63.7128676599
  0
LINE
  8
AUSFORMSCHRAEGEN
 62
7
  6
CONTINUOUS
 10
233.8079292265
 20
144.9971453261
 11
233.802692707
 21
145.0128676599
  0
ARC
  8
0
 62
7
  6
CONTINUOUS
 10
235.5327767668
 20
82.9227362821
 40
1.5783018868
 50
153.9361648734
 51
206.0638351266
  0
ARC
  8
0
 62
7
  6
CONTINUOUS
 10
234.8327767668
 20
82.9227362821
 40
1.5783018868
 50
333.9361648734
 51
345.7271628261
  0
ARC
  8
0
 62
7
  6
CONTINUOUS
 10
234.8327767668
 20
82.9227362821
 40
1.5783018868
 50
355.4588205662
 51
26.0638351266
  0
ARC
  8
0
 62
7
  6
CONTINUOUS
 10
232.6403239366
 20
82.9149151203
 40
1.4198113208
 50
163.7397952917
 51
196.2602047083
  0
ARC
  8
0
 62
7
  6
CONTINUOUS
 10
238.0764406697
 20
82.2586819272
 40
1.241509434
 50
83.6427949283
 51
96.3572050717
  0
ARC
  8
0
 62
7
  6
CONTINUOUS
 10
232.4501352574
 20
82.9703868184
 40
1.2216981132
 50
115.8720959629
 51
163.7397952917
  0
ARC
  8
0
 62
7
  6
CONTINUOUS
 10
235.1827767668
 20
82.7515469051
 40
1.1886792453
 50
206.0638351266
 51
333.9361648734
  0
ARC
  8
0
 62
7
  6
CONTINUOUS
 10
235.1827767668
 20
83.093925659
 40
1.1886792453
 50
26.0638351266
 51
153.9361648734
  0
ARC
  8
0
 62
7
  6
CONTINUOUS
 10
232.3233428045
 20
82.8224622901
 40
1.0896226415
 50
196.2602047083
 51
305.5785257325
  0
ARC
  8
0
 62
7
  6
CONTINUOUS
 10
238.15447488
 20
83.14437831
 40
0.970754717
 50
86.4898998995
 51
138.4432736979
  0
ARC
  8
0
 62
7
  6
CONTINUOUS
 10
232.0589473608
 20
82.902962799
 40
0.9641509434
 50
338.6970988849
 51
21.3029011151
  0
ARC
  8
0
 62
7
  6
CONTINUOUS
 10
232.3233428045
 20
83.231829539
 40
0.9311320755
 50
47.0898159783
 51
115.8720959629
  0
ARC
  8
0
 62
7
  6
CONTINUOUS
 10
232.6403239366
 20
82.902962799
 40
0.8452830189
 50
148.2116693829
 51
211.7883306171
  0
ARC
  8
0
 62
7
  6
CONTINUOUS
 10
235.1827767668
 20
82.7511343791
 40
0.6603773585
 50
175.9501323166
 51
270.0
  0
ARC
  8
0
 62
7
  6
CONTINUOUS
 10
235.1827767668
 20
83.2336223768
 40
0.5943396226
 50
0.0
 51
180.0
  0
ARC
  8
0
 62
7
  6
CONTINUOUS
 10
235.1827767668
 20
82.6816317098
 40
0.5908746892
 50
270.0
 51
345.4933768693
  0
ARC
  8
0
 62
7
  6
CONTINUOUS
 10
232.4157956347
 20
83.0421129429
 40
0.5811320755
 50
21.3029011151
 51
148.2116693829
  0
ARC
  8
0
 62
7
  6
CONTINUOUS
 10
232.4157956347
 20
82.7638126551
 40
0.5811320755
 50
211.7883306171
 51
338.6970988849
  0
ARC
  8
0
 62
7
  6
CONTINUOUS
 10
238.0025880876
 20
82.9215617252
 40
0.5745283019
 50
96.3572050717
 51
180.0
  0
ARC
  8
0
 62
7
  6
CONTINUOUS
 10
225.4488145027
 20
83.2138110561
 40
0.1320754717
 50
270.0
 51
360.0
  0
ARC
  8
0
 62
7
  6
CONTINUOUS
 10
225.4488145027
 20
83.8081506787
 40
0.1320754717
 50
0.0
 51
90.0
  0
ARC
  8
0
 62
7
  6
CONTINUOUS
 10
224.85447488
 20
83.8081506787
 40
0.1320754717
 50
90.0
 51
180.0
  0
ARC
  8
0
 62
7
  6
CONTINUOUS
 10
224.85447488
 20
83.2138110561
 40
0.1320754717
 50
180.0
 51
270.0
  0
ARC
  8
0
 62
7
  6
CONTINUOUS
 10
224.85447488
 20
81.6949431316
 40
0.1320754717
 50
180.0
 51
270.0
  0
ARC
  8
0
 62
7
  6
CONTINUOUS
 10
225.4488145027
 20
81.6949431316
 40
0.1320754717
 50
270.0
 51
360.0
  0
ARC
  8
0
 62
7
  6
CONTINUOUS
 10
225.4488145027
 20
82.2892827542
 40
0.1320754717
 50
0.0
 51
90.0
  0
ARC
  8
0
 62
7
  6
CONTINUOUS
 10
224.85447488
 20
82.2892827542
 40
0.1320754717
 50
90.0
 51
180.0
  0
ENDSEC
  0
EOF
