999
DXF file: vk-flex10.dxf
999
Pro/ENGINEER 2022024 by Parametric Technology Corporation
  0
SECTION
  2
HEADER
  9
$EXTMAX
 10
420.0
 20
297.0
 30
0.0
  9
$EXTMIN
 10
0.0
 20
0.0
 30
0.0
  9
$LIMMIN
 10
0.0
 20
0.0
  9
$LIMMAX
 10
420.0
 20
297.0
  9
$VIEWCTR
 10
210.0
 20
148.5
  9
$VIEWSIZE
 40
297.0
  9
$CLAYER
  8
0
  9
$LTSCALE
 40
23.1
  9
$CELTYPE
  6
BYLAYER
  9
$DIMSCALE
 40
1.0
  9
$DIMASZ
 40
3.5
  9
$DIMEXO
 40
0.0
  9
$DIMDLI
 40
15.96
  9
$DIMEXE
 40
1.5
  9
$DIMCEN
 40
3.78
  9
$DIMLFAC
 40
1.0
  9
$DIMBLK
  1
_FILLED
  9
$DIMALT
 70
0
  9
$DIMALTF
 40
0.0393700787
  9
$DIMTXT
 40
3.5
  9
$AUNITS
 70
0
  9
$PDMODE
 70
3
  9
$PDSIZE
 40
0.3125
  9
$TILEMODE
 70
1
  0
ENDSEC
  0
SECTION
  2
TABLES
  0
TABLE
  2
LTYPE
 70
6
  0
LTYPE
  2
BYBLOCK
 70
0
  3

 72
65
 73
0
 40
0.0
  0
LTYPE
  2
BYLAYER
 70
0
  3

 72
65
 73
0
 40
0.0
  0
LTYPE
  2
CONTINUOUS
 70
64
  3
Solid line
 72
65
 73
0
 40
0.0
  0
LTYPE
  2
CENTER
 70
64
  3
____ _ ____ _ ____ _ ____ _ ____ _ ____ _ ____
 72
65
 73
4
 40
0.6
 49
0.375
 49
-0.075
 49
0.075
 49
-0.075
  0
LTYPE
  2
HIDDEN
 70
64
  3
- - - - - - - - - - - - - - - - - - - -
 72
65
 73
2
 40
0.2
 49
0.1
 49
-0.1
  0
LTYPE
  2
PHANTOM
 70
64
  3
_____ _ _ _____ _ _ _____ _ _ _____
 72
65
 73
6
 40
0.8
 49
0.45
 49
-0.05
 49
0.1
 49
-0.05
 49
0.1
 49
-0.05
  0
LTYPE
  2
DOT
 70
64
  3
. . . . . . . . . . . . . . . . . . . .
 72
65
 73
2
 40
0.2
 49
0.1
 49
-0.1
  0
LTYPE
  2
DASHED
 70
64
  3
- - - - - - - - - - - - - - - - - - - -
 72
65
 73
2
 40
0.2
 49
0.1
 49
-0.1
  0
ENDTAB
  0
TABLE
  2
LAYER
 70
36
  0
LAYER
  2
0
 70
0
 62
7
  6
CONTINUOUS
  0
LAYER
  2
DEFAULT_1
 70
0
 62
7
  6
CENTER
  0
LAYER
  2
DEFAULT_2
 70
0
 62
8
  6
HIDDEN
  0
LAYER
  2
DEFAULT_3
 70
0
 62
7
  6
PHANTOM
  0
LAYER
  2
AUSFORMSCHRAEGEN
 70
0
 62
7
  6
CONTINUOUS
  0
LAYER
  2
BEZUGSACHSEN
 70
0
 62
7
  6
CONTINUOUS
  0
LAYER
  2
BEZUGSEBENEN
 70
0
 62
7
  6
CONTINUOUS
  0
LAYER
  2
BEZUGSPUNKTE
 70
0
 62
7
  6
CONTINUOUS
  0
LAYER
  2
FASEN
 70
0
 62
7
  6
CONTINUOUS
  0
LAYER
  2
FLAECHEN
 70
0
 62
7
  6
CONTINUOUS
  0
LAYER
  2
KONSTRUKTIONSELEMENTE
 70
0
 62
7
  6
CONTINUOUS
  0
LAYER
  2
KOORDINATENSYSTEME
 70
0
 62
7
  6
CONTINUOUS
  0
LAYER
  2
KURVEN
 70
0
 62
7
  6
CONTINUOUS
  0
LAYER
  2
RUNDUNGEN
 70
0
 62
7
  6
CONTINUOUS
  0
LAYER
  2
SURFACES
 70
0
 62
7
  6
CONTINUOUS
  0
LAYER
  2
VOLUMEN
 70
0
 62
7
  6
CONTINUOUS
  0
LAYER
  2
XSEC_DATUMS
 70
0
 62
7
  6
CONTINUOUS
  0
ENDTAB
  0
TABLE
  2
STYLE
 70
1
  0
STYLE
  2
STANDARD
 70
0
 40
0.0
 41
0.7
 50
0.0
 71
0
 42
0.2
  3
txt
  4

  0
STYLE
  2
TEXTSTYLE_1
 70
0
 40
0.0
 41
0.8
 50
0.0
 71
0
 42
0.2
  3
gdt
  4

  0
ENDTAB
  0
ENDSEC
  0
SECTION
  2
BLOCKS
  0
BLOCK
  8
0
  2
_FILLED
 70
64
 10
0.0
 20
0.0
  0
SOLID
  8
0
  6
BYBLOCK
 62
0
 10
0.0
 20
0.0
 11
-1.0
 21
0.125
 12
-1.0
 22
-0.125
 13
-1.0
 23
-0.125
  0
ENDBLK
  8
0
  6
BYBLOCK
 62
0
  0
BLOCK
  8
0
 62
2
  6
CONTINUOUS
  2
*D0
 70
65
 10
0.0
 20
0.0
  0
TEXT
  8
0
 62
5
  6
CONTINUOUS
 10
55.5147096499
 20
170.8885674637
  7
STANDARD
 40
3.5
  1
5.6
 50
90.0
 41
0.6904761905
 72
0
  0
LINE
  8
0
 62
2
  6
CONTINUOUS
 10
66.3897096499
 20
164.8432216055
 11
54.8897096499
 21
164.8432216055
  0
LINE
  8
0
 62
2
  6
CONTINUOUS
 10
94.1397096499
 20
159.2432216055
 11
54.8897096499
 21
159.2432216055
  0
LINE
  8
0
 62
2
  6
CONTINUOUS
 10
56.3897096499
 20
164.8432216055
 11
56.3897096499
 21
178.1385674637
  0
LINE
  8
0
 62
2
  6
CONTINUOUS
 10
56.3897096499
 20
178.1385674637
 11
56.3897096499
 21
162.0432216055
  0
LINE
  8
0
 62
2
  6
CONTINUOUS
 10
56.3897096499
 20
159.2432216055
 11
56.3897096499
 21
153.2432216055
  0
LINE
  8
0
 62
2
  6
CONTINUOUS
 10
56.3897096499
 20
153.2432216055
 11
56.3897096499
 21
162.0432216055
  0
INSERT
  8
0
 62
2
  6
CONTINUOUS
  2
_FILLED
 10
56.3897096499
 20
164.8432216055
 41
3.5
 42
3.5
 43
3.5
 50
270.0
  0
INSERT
  8
0
 62
2
  6
CONTINUOUS
  2
_FILLED
 10
56.3897096499
 20
159.2432216055
 41
3.5
 42
3.5
 43
3.5
 50
90.0
  0
ENDBLK
  8
0
  6
BYBLOCK
 62
0
  0
BLOCK
  8
0
 62
2
  6
CONTINUOUS
  2
*D1
 70
65
 10
0.0
 20
0.0
  0
TEXT
  8
0
 62
5
  6
CONTINUOUS
 10
384.582796389
 20
154.8682216055
  7
STANDARD
 40
3.5
  1
11.2
 50
90.0
 41
0.625
 72
1
 11
384.582796389
 21
159.2432216055
  0
LINE
  8
0
 62
2
  6
CONTINUOUS
 10
375.457796389
 20
164.8432216055
 11
386.957796389
 21
164.8432216055
  0
LINE
  8
0
 62
2
  6
CONTINUOUS
 10
375.457796389
 20
153.6432216055
 11
386.957796389
 21
153.6432216055
  0
LINE
  8
0
 62
2
  6
CONTINUOUS
 10
385.457796389
 20
164.8432216055
 11
385.457796389
 21
170.8432216055
  0
LINE
  8
0
 62
2
  6
CONTINUOUS
 10
385.457796389
 20
170.8432216055
 11
385.457796389
 21
159.2432216055
  0
LINE
  8
0
 62
2
  6
CONTINUOUS
 10
385.457796389
 20
153.6432216055
 11
385.457796389
 21
147.6432216055
  0
LINE
  8
0
 62
2
  6
CONTINUOUS
 10
385.457796389
 20
147.6432216055
 11
385.457796389
 21
159.2432216055
  0
INSERT
  8
0
 62
2
  6
CONTINUOUS
  2
_FILLED
 10
385.457796389
 20
164.8432216055
 41
3.5
 42
3.5
 43
3.5
 50
270.0
  0
INSERT
  8
0
 62
2
  6
CONTINUOUS
  2
_FILLED
 10
385.457796389
 20
153.6432216055
 41
3.5
 42
3.5
 43
3.5
 50
90.0
  0
ENDBLK
  8
0
  6
BYBLOCK
 62
0
  0
BLOCK
  8
0
 62
2
  6
CONTINUOUS
  2
*D2
 70
65
 10
0.0
 20
0.0
  0
TEXT
  8
0
 62
5
  6
CONTINUOUS
 10
377.5825991217
 20
144.6182216055
  7
STANDARD
 40
3.5
  1
8.6
 41
0.7142857143
 72
0
  0
LINE
  8
0
 62
2
  6
CONTINUOUS
 10
372.957796389
 20
153.6432216055
 11
372.957796389
 21
142.2432216055
  0
LINE
  8
0
 62
2
  6
CONTINUOUS
 10
364.357796389
 20
154.7148616273
 11
364.357796389
 21
142.2432216055
  0
LINE
  8
0
 62
2
  6
CONTINUOUS
 10
372.957796389
 20
143.7432216055
 11
385.0825991217
 21
143.7432216055
  0
LINE
  8
0
 62
2
  6
CONTINUOUS
 10
385.0825991217
 20
143.7432216055
 11
368.657796389
 21
143.7432216055
  0
LINE
  8
0
 62
2
  6
CONTINUOUS
 10
364.357796389
 20
143.7432216055
 11
358.357796389
 21
143.7432216055
  0
LINE
  8
0
 62
2
  6
CONTINUOUS
 10
358.357796389
 20
143.7432216055
 11
368.657796389
 21
143.7432216055
  0
INSERT
  8
0
 62
2
  6
CONTINUOUS
  2
_FILLED
 10
372.957796389
 20
143.7432216055
 41
3.5
 42
3.5
 43
3.5
 50
180.0
  0
INSERT
  8
0
 62
2
  6
CONTINUOUS
  2
_FILLED
 10
364.357796389
 20
143.7432216055
 41
3.5
 42
3.5
 43
3.5
  0
ENDBLK
  8
0
  6
BYBLOCK
 62
0
  0
BLOCK
  8
0
 62
2
  6
CONTINUOUS
  2
*D3
 70
65
 10
0.0
 20
0.0
  0
TEXT
  8
0
 62
5
  6
CONTINUOUS
 10
348.3982027571
 20
170.6024960158
  7
STANDARD
 40
3.5
  1
9.06
 50
90.0
 41
0.7321428571
 72
0
  0
LINE
  8
0
 62
2
  6
CONTINUOUS
 10
361.957796389
 20
163.7715815837
 11
347.7732027571
 21
163.7715815837
  0
LINE
  8
0
 62
2
  6
CONTINUOUS
 10
364.357796389
 20
154.7148616273
 11
347.7732027571
 21
154.7148616273
  0
LINE
  8
0
 62
2
  6
CONTINUOUS
 10
349.2732027571
 20
163.7715815837
 11
349.2732027571
 21
180.8524960158
  0
LINE
  8
0
 62
2
  6
CONTINUOUS
 10
349.2732027571
 20
180.8524960158
 11
349.2732027571
 21
159.2432216055
  0
LINE
  8
0
 62
2
  6
CONTINUOUS
 10
349.2732027571
 20
154.7148616273
 11
349.2732027571
 21
148.7148616273
  0
LINE
  8
0
 62
2
  6
CONTINUOUS
 10
349.2732027571
 20
148.7148616273
 11
349.2732027571
 21
159.2432216055
  0
INSERT
  8
0
 62
2
  6
CONTINUOUS
  2
_FILLED
 10
349.2732027571
 20
163.7715815837
 41
3.5
 42
3.5
 43
3.5
 50
270.0
  0
INSERT
  8
0
 62
2
  6
CONTINUOUS
  2
_FILLED
 10
349.2732027571
 20
154.7148616273
 41
3.5
 42
3.5
 43
3.5
 50
90.0
  0
ENDBLK
  8
0
  6
BYBLOCK
 62
0
  0
BLOCK
  8
0
 62
2
  6
CONTINUOUS
  2
*D4
 70
65
 10
0.0
 20
0.0
  0
TEXT
  8
0
 62
5
  6
CONTINUOUS
 10
94.0147096499
 20
175.7182216055
  7
STANDARD
 40
3.5
  1
6
 41
0.7857142857
 72
1
 11
95.3897096499
 21
175.7182216055
  0
LINE
  8
0
 62
2
  6
CONTINUOUS
 10
92.3897096499
 20
159.2432216055
 11
92.3897096499
 21
176.3432216055
  0
LINE
  8
0
 62
2
  6
CONTINUOUS
 10
98.3897096499
 20
159.2432216055
 11
98.3897096499
 21
176.3432216055
  0
LINE
  8
0
 62
2
  6
CONTINUOUS
 10
92.3897096499
 20
174.8432216055
 11
86.3897096499
 21
174.8432216055
  0
LINE
  8
0
 62
2
  6
CONTINUOUS
 10
86.3897096499
 20
174.8432216055
 11
95.3897096499
 21
174.8432216055
  0
LINE
  8
0
 62
2
  6
CONTINUOUS
 10
98.3897096499
 20
174.8432216055
 11
104.3897096499
 21
174.8432216055
  0
LINE
  8
0
 62
2
  6
CONTINUOUS
 10
104.3897096499
 20
174.8432216055
 11
95.3897096499
 21
174.8432216055
  0
INSERT
  8
0
 62
2
  6
CONTINUOUS
  2
_FILLED
 10
92.3897096499
 20
174.8432216055
 41
3.5
 42
3.5
 43
3.5
  0
INSERT
  8
0
 62
2
  6
CONTINUOUS
  2
_FILLED
 10
98.3897096499
 20
174.8432216055
 41
3.5
 42
3.5
 43
3.5
 50
180.0
  0
ENDBLK
  8
0
  6
BYBLOCK
 62
0
  0
BLOCK
  8
0
 62
2
  6
CONTINUOUS
  2
*D5
 70
65
 10
0.0
 20
0.0
  0
TEXT
  8
0
 62
5
  6
CONTINUOUS
 10
111.6733578622
 20
168.877040661
  7
STANDARD
 40
3.5
  1
3.5
 50
90.0
 41
0.6666666667
 72
0
  0
LINE
  8
0
 62
2
  6
CONTINUOUS
 10
96.6397096499
 20
160.9932216055
 11
114.0483578622
 21
160.9932216055
  0
LINE
  8
0
 62
2
  6
CONTINUOUS
 10
96.6397096499
 20
157.4932216055
 11
114.0483578622
 21
157.4932216055
  0
LINE
  8
0
 62
2
  6
CONTINUOUS
 10
112.5483578622
 20
160.9932216055
 11
112.5483578622
 21
175.877040661
  0
LINE
  8
0
 62
2
  6
CONTINUOUS
 10
112.5483578622
 20
175.877040661
 11
112.5483578622
 21
159.2432216055
  0
LINE
  8
0
 62
2
  6
CONTINUOUS
 10
112.5483578622
 20
157.4932216055
 11
112.5483578622
 21
151.4932216055
  0
LINE
  8
0
 62
2
  6
CONTINUOUS
 10
112.5483578622
 20
151.4932216055
 11
112.5483578622
 21
159.2432216055
  0
INSERT
  8
0
 62
2
  6
CONTINUOUS
  2
_FILLED
 10
112.5483578622
 20
160.9932216055
 41
3.5
 42
3.5
 43
3.5
 50
270.0
  0
INSERT
  8
0
 62
2
  6
CONTINUOUS
  2
_FILLED
 10
112.5483578622
 20
157.4932216055
 41
3.5
 42
3.5
 43
3.5
 50
90.0
  0
ENDBLK
  8
0
  6
BYBLOCK
 62
0
  0
BLOCK
  8
0
 62
2
  6
CONTINUOUS
  2
*D6
 70
65
 10
0.0
 20
0.0
  0
TEXT
  8
0
 62
5
  6
CONTINUOUS
 10
78.1397096499
 20
144.5182216055
  7
STANDARD
 40
3.5
  1
29
 41
0.7857142857
 72
1
 11
80.8897096499
 21
144.5182216055
  0
LINE
  8
0
 62
2
  6
CONTINUOUS
 10
66.3897096499
 20
153.6432216055
 11
66.3897096499
 21
142.1432216055
  0
LINE
  8
0
 62
2
  6
CONTINUOUS
 10
95.3897096499
 20
157.4932216055
 11
95.3897096499
 21
142.1432216055
  0
LINE
  8
0
 62
2
  6
CONTINUOUS
 10
66.3897096499
 20
143.6432216055
 11
80.8897096499
 21
143.6432216055
  0
LINE
  8
0
 62
2
  6
CONTINUOUS
 10
95.3897096499
 20
143.6432216055
 11
80.8897096499
 21
143.6432216055
  0
INSERT
  8
0
 62
2
  6
CONTINUOUS
  2
_FILLED
 10
66.3897096499
 20
143.6432216055
 41
3.5
 42
3.5
 43
3.5
 50
180.0
  0
INSERT
  8
0
 62
2
  6
CONTINUOUS
  2
_FILLED
 10
95.3897096499
 20
143.6432216055
 41
3.5
 42
3.5
 43
3.5
  0
ENDBLK
  8
0
  6
BYBLOCK
 62
0
  0
BLOCK
  8
0
 62
2
  6
CONTINUOUS
  2
*D7
 70
65
 10
0.0
 20
0.0
  0
TEXT
  8
0
 62
5
  6
CONTINUOUS
 10
117.7647096499
 20
144.5182216055
  7
STANDARD
 40
3.5
  1
50
 41
0.75
 72
1
 11
120.3897096499
 21
144.5182216055
  0
LINE
  8
0
 62
2
  6
CONTINUOUS
 10
95.3897096499
 20
157.4932216055
 11
95.3897096499
 21
142.1432216055
  0
LINE
  8
0
 62
2
  6
CONTINUOUS
 10
145.3897096499
 20
157.4932216055
 11
145.3897096499
 21
142.1432216055
  0
LINE
  8
0
 62
2
  6
CONTINUOUS
 10
95.3897096499
 20
143.6432216055
 11
120.3897096499
 21
143.6432216055
  0
LINE
  8
0
 62
2
  6
CONTINUOUS
 10
145.3897096499
 20
143.6432216055
 11
120.3897096499
 21
143.6432216055
  0
INSERT
  8
0
 62
2
  6
CONTINUOUS
  2
_FILLED
 10
95.3897096499
 20
143.6432216055
 41
3.5
 42
3.5
 43
3.5
 50
180.0
  0
INSERT
  8
0
 62
2
  6
CONTINUOUS
  2
_FILLED
 10
145.3897096499
 20
143.6432216055
 41
3.5
 42
3.5
 43
3.5
  0
ENDBLK
  8
0
  6
BYBLOCK
 62
0
  0
BLOCK
  8
0
 62
2
  6
CONTINUOUS
  2
*D8
 70
65
 10
0.0
 20
0.0
  0
TEXT
  8
0
 62
5
  6
CONTINUOUS
 10
167.7647096499
 20
144.5182216055
  7
STANDARD
 40
3.5
  1
50
 41
0.75
 72
1
 11
170.3897096499
 21
144.5182216055
  0
LINE
  8
0
 62
2
  6
CONTINUOUS
 10
145.3897096499
 20
157.4932216055
 11
145.3897096499
 21
142.1432216055
  0
LINE
  8
0
 62
2
  6
CONTINUOUS
 10
195.3897096499
 20
157.4932216055
 11
195.3897096499
 21
142.1432216055
  0
LINE
  8
0
 62
2
  6
CONTINUOUS
 10
145.3897096499
 20
143.6432216055
 11
170.3897096499
 21
143.6432216055
  0
LINE
  8
0
 62
2
  6
CONTINUOUS
 10
195.3897096499
 20
143.6432216055
 11
170.3897096499
 21
143.6432216055
  0
INSERT
  8
0
 62
2
  6
CONTINUOUS
  2
_FILLED
 10
145.3897096499
 20
143.6432216055
 41
3.5
 42
3.5
 43
3.5
 50
180.0
  0
INSERT
  8
0
 62
2
  6
CONTINUOUS
  2
_FILLED
 10
195.3897096499
 20
143.6432216055
 41
3.5
 42
3.5
 43
3.5
  0
ENDBLK
  8
0
  6
BYBLOCK
 62
0
  0
BLOCK
  8
0
 62
2
  6
CONTINUOUS
  2
*D9
 70
65
 10
0.0
 20
0.0
  0
TEXT
  8
0
 62
5
  6
CONTINUOUS
 10
217.7647096499
 20
144.5182216055
  7
STANDARD
 40
3.5
  1
50
 41
0.75
 72
1
 11
220.3897096499
 21
144.5182216055
  0
LINE
  8
0
 62
2
  6
CONTINUOUS
 10
195.3897096499
 20
157.4932216055
 11
195.3897096499
 21
142.1432216055
  0
LINE
  8
0
 62
2
  6
CONTINUOUS
 10
245.3897096499
 20
157.4932216055
 11
245.3897096499
 21
142.1432216055
  0
LINE
  8
0
 62
2
  6
CONTINUOUS
 10
195.3897096499
 20
143.6432216055
 11
220.3897096499
 21
143.6432216055
  0
LINE
  8
0
 62
2
  6
CONTINUOUS
 10
245.3897096499
 20
143.6432216055
 11
220.3897096499
 21
143.6432216055
  0
INSERT
  8
0
 62
2
  6
CONTINUOUS
  2
_FILLED
 10
195.3897096499
 20
143.6432216055
 41
3.5
 42
3.5
 43
3.5
 50
180.0
  0
INSERT
  8
0
 62
2
  6
CONTINUOUS
  2
_FILLED
 10
245.3897096499
 20
143.6432216055
 41
3.5
 42
3.5
 43
3.5
  0
ENDBLK
  8
0
  6
BYBLOCK
 62
0
  0
BLOCK
  8
0
 62
2
  6
CONTINUOUS
  2
*D10
 70
65
 10
0.0
 20
0.0
  0
TEXT
  8
0
 62
5
  6
CONTINUOUS
 10
267.7647096499
 20
144.5182216055
  7
STANDARD
 40
3.5
  1
50
 41
0.75
 72
1
 11
270.3897096499
 21
144.5182216055
  0
LINE
  8
0
 62
2
  6
CONTINUOUS
 10
245.3897096499
 20
157.4932216055
 11
245.3897096499
 21
142.1432216055
  0
LINE
  8
0
 62
2
  6
CONTINUOUS
 10
295.3897096499
 20
157.4932216055
 11
295.3897096499
 21
142.1432216055
  0
LINE
  8
0
 62
2
  6
CONTINUOUS
 10
245.3897096499
 20
143.6432216055
 11
270.3897096499
 21
143.6432216055
  0
LINE
  8
0
 62
2
  6
CONTINUOUS
 10
295.3897096499
 20
143.6432216055
 11
270.3897096499
 21
143.6432216055
  0
INSERT
  8
0
 62
2
  6
CONTINUOUS
  2
_FILLED
 10
245.3897096499
 20
143.6432216055
 41
3.5
 42
3.5
 43
3.5
 50
180.0
  0
INSERT
  8
0
 62
2
  6
CONTINUOUS
  2
_FILLED
 10
295.3897096499
 20
143.6432216055
 41
3.5
 42
3.5
 43
3.5
  0
ENDBLK
  8
0
  6
BYBLOCK
 62
0
  0
BLOCK
  8
0
 62
2
  6
CONTINUOUS
  2
*D11
 70
65
 10
0.0
 20
0.0
  0
TEXT
  8
0
 62
5
  6
CONTINUOUS
 10
302.0147096499
 20
144.5182216055
  7
STANDARD
 40
3.5
  1
(
 41
0.4285714286
 72
1
 11
302.7647096499
 21
144.5182216055
  0
TEXT
  8
0
 62
5
  6
CONTINUOUS
 10
303.5147096499
 20
144.5182216055
  7
STANDARD
 40
3.5
  1
21
 41
0.6785714286
 72
1
 11
305.8897096499
 21
144.5182216055
  0
TEXT
  8
0
 62
5
  6
CONTINUOUS
 10
308.2647096499
 20
144.5182216055
  7
STANDARD
 40
3.5
  1
)
 41
0.4285714286
 72
1
 11
309.0147096499
 21
144.5182216055
  0
LINE
  8
0
 62
2
  6
CONTINUOUS
 10
316.3897096499
 20
153.6432216055
 11
316.3897096499
 21
142.1432216055
  0
LINE
  8
0
 62
2
  6
CONTINUOUS
 10
295.3897096499
 20
157.4932216055
 11
295.3897096499
 21
142.1432216055
  0
LINE
  8
0
 62
2
  6
CONTINUOUS
 10
316.3897096499
 20
143.6432216055
 11
305.8897096499
 21
143.6432216055
  0
LINE
  8
0
 62
2
  6
CONTINUOUS
 10
295.3897096499
 20
143.6432216055
 11
305.8897096499
 21
143.6432216055
  0
INSERT
  8
0
 62
2
  6
CONTINUOUS
  2
_FILLED
 10
316.3897096499
 20
143.6432216055
 41
3.5
 42
3.5
 43
3.5
  0
INSERT
  8
0
 62
2
  6
CONTINUOUS
  2
_FILLED
 10
295.3897096499
 20
143.6432216055
 41
3.5
 42
3.5
 43
3.5
 50
180.0
  0
ENDBLK
  8
0
  6
BYBLOCK
 62
0
  0
BLOCK
  8
0
 62
2
  6
CONTINUOUS
  2
*D12
 70
65
 10
0.0
 20
0.0
  0
TEXT
  8
0
 62
5
  6
CONTINUOUS
 10
187.3897096499
 20
137.5182216055
  7
STANDARD
 40
3.5
  1
250
 41
0.7619047619
 72
1
 11
191.3897096499
 21
137.5182216055
  0
LINE
  8
0
 62
2
  6
CONTINUOUS
 10
66.3897096499
 20
153.6432216055
 11
66.3897096499
 21
135.1432216055
  0
LINE
  8
0
 62
2
  6
CONTINUOUS
 10
316.3897096499
 20
153.6432216055
 11
316.3897096499
 21
135.1432216055
  0
LINE
  8
0
 62
2
  6
CONTINUOUS
 10
66.3897096499
 20
136.6432216055
 11
191.3897096499
 21
136.6432216055
  0
LINE
  8
0
 62
2
  6
CONTINUOUS
 10
316.3897096499
 20
136.6432216055
 11
191.3897096499
 21
136.6432216055
  0
INSERT
  8
0
 62
2
  6
CONTINUOUS
  2
_FILLED
 10
66.3897096499
 20
136.6432216055
 41
3.5
 42
3.5
 43
3.5
 50
180.0
  0
INSERT
  8
0
 62
2
  6
CONTINUOUS
  2
_FILLED
 10
316.3897096499
 20
136.6432216055
 41
3.5
 42
3.5
 43
3.5
  0
ENDBLK
  8
0
  6
BYBLOCK
 62
0
  0
BLOCK
  8
0
 62
2
  6
CONTINUOUS
  2
*D13
 70
65
 10
0.0
 20
0.0
  0
TEXT
  8
0
 62
5
  6
CONTINUOUS
 10
191.1647096499
 20
130.5182216055
  7
STANDARD
 40
3.5
  1
261.8
 41
0.7
 72
1
 11
197.2897096499
 21
130.5182216055
  0
LINE
  8
0
 62
2
  6
CONTINUOUS
 10
328.1897096499
 20
154.8932216055
 11
328.1897096499
 21
128.1432216055
  0
LINE
  8
0
 62
2
  6
CONTINUOUS
 10
66.3897096499
 20
153.6432216055
 11
66.3897096499
 21
128.1432216055
  0
LINE
  8
0
 62
2
  6
CONTINUOUS
 10
328.1897096499
 20
129.6432216055
 11
197.2897096499
 21
129.6432216055
  0
LINE
  8
0
 62
2
  6
CONTINUOUS
 10
66.3897096499
 20
129.6432216055
 11
197.2897096499
 21
129.6432216055
  0
INSERT
  8
0
 62
2
  6
CONTINUOUS
  2
_FILLED
 10
328.1897096499
 20
129.6432216055
 41
3.5
 42
3.5
 43
3.5
  0
INSERT
  8
0
 62
2
  6
CONTINUOUS
  2
_FILLED
 10
66.3897096499
 20
129.6432216055
 41
3.5
 42
3.5
 43
3.5
 50
180.0
  0
ENDBLK
  8
0
  6
BYBLOCK
 62
0
  0
BLOCK
  8
0
 62
2
  6
CONTINUOUS
  2
*D14
 70
65
 10
0.0
 20
0.0
  0
TEXT
  8
0
 62
5
  6
CONTINUOUS
 10
281.5147096499
 20
114.1256702575
  7
STANDARD
 40
3.5
  1
8
 41
0.7857142857
 72
1
 11
282.8897096499
 21
114.1256702575
  0
LINE
  8
0
 62
2
  6
CONTINUOUS
 10
278.8897096499
 20
103.2506702575
 11
278.8897096499
 21
114.7506702575
  0
LINE
  8
0
 62
2
  6
CONTINUOUS
 10
286.8897096499
 20
103.2506702575
 11
286.8897096499
 21
114.7506702575
  0
LINE
  8
0
 62
2
  6
CONTINUOUS
 10
278.8897096499
 20
113.2506702575
 11
272.8897096499
 21
113.2506702575
  0
LINE
  8
0
 62
2
  6
CONTINUOUS
 10
272.8897096499
 20
113.2506702575
 11
282.8897096499
 21
113.2506702575
  0
LINE
  8
0
 62
2
  6
CONTINUOUS
 10
286.8897096499
 20
113.2506702575
 11
292.8897096499
 21
113.2506702575
  0
LINE
  8
0
 62
2
  6
CONTINUOUS
 10
292.8897096499
 20
113.2506702575
 11
282.8897096499
 21
113.2506702575
  0
INSERT
  8
0
 62
2
  6
CONTINUOUS
  2
_FILLED
 10
278.8897096499
 20
113.2506702575
 41
3.5
 42
3.5
 43
3.5
  0
INSERT
  8
0
 62
2
  6
CONTINUOUS
  2
_FILLED
 10
286.8897096499
 20
113.2506702575
 41
3.5
 42
3.5
 43
3.5
 50
180.0
  0
ENDBLK
  8
0
  6
BYBLOCK
 62
0
  0
BLOCK
  8
0
 62
2
  6
CONTINUOUS
  2
*D15
 70
65
 10
0.0
 20
0.0
  0
TEXT
  8
0
 62
5
  6
CONTINUOUS
 10
225.2586637062
 20
114.1256702575
  7
STANDARD
 40
3.5
  1
4.5
 41
0.6904761905
 72
2
 11
232.5086637062
 21
114.1256702575
  0
LINE
  8
0
 62
2
  6
CONTINUOUS
 10
241.3897096499
 20
103.2506702575
 11
241.3897096499
 21
114.7506702575
  0
LINE
  8
0
 62
2
  6
CONTINUOUS
 10
236.8897096499
 20
103.2506702575
 11
236.8897096499
 21
114.7506702575
  0
LINE
  8
0
 62
2
  6
CONTINUOUS
 10
241.3897096499
 20
113.2506702575
 11
247.3897096499
 21
113.2506702575
  0
LINE
  8
0
 62
2
  6
CONTINUOUS
 10
247.3897096499
 20
113.2506702575
 11
239.1397096499
 21
113.2506702575
  0
LINE
  8
0
 62
2
  6
CONTINUOUS
 10
236.8897096499
 20
113.2506702575
 11
225.2586637062
 21
113.2506702575
  0
LINE
  8
0
 62
2
  6
CONTINUOUS
 10
225.2586637062
 20
113.2506702575
 11
239.1397096499
 21
113.2506702575
  0
INSERT
  8
0
 62
2
  6
CONTINUOUS
  2
_FILLED
 10
241.3897096499
 20
113.2506702575
 41
3.5
 42
3.5
 43
3.5
 50
180.0
  0
INSERT
  8
0
 62
2
  6
CONTINUOUS
  2
_FILLED
 10
236.8897096499
 20
113.2506702575
 41
3.5
 42
3.5
 43
3.5
  0
ENDBLK
  8
0
  6
BYBLOCK
 62
0
  0
ENDSEC
  0
SECTION
  2
ENTITIES
  0
DIMENSION
  8
0
 62
2
  6
CONTINUOUS
  2
*D0
 10
56.3897096499
 20
159.2432216055
 11
56.3897096499
 21
174.0135700331
 70
128
 13
66.3897096499
 23
164.8432216055
 14
94.1397096499
 24
159.2432216055
 50
270.0
  0
DIMENSION
  8
0
 62
2
  6
CONTINUOUS
  2
*D1
 10
385.457796389
 20
153.6432216055
 11
385.457796389
 21
158.7432303923
 70
128
 13
375.457796389
 23
164.8432216055
 14
375.457796389
 24
153.6432216055
 50
270.0
  0
DIMENSION
  8
0
 62
2
  6
CONTINUOUS
  2
*D2
 10
364.357796389
 20
143.7432216055
 11
380.832590332
 21
143.7432216055
 70
128
 13
372.957796389
 23
153.6432216055
 14
364.357796389
 24
154.7148616273
 50
180.0
  0
DIMENSION
  8
0
 62
2
  6
CONTINUOUS
  2
*D3
 10
349.2732027571
 20
154.7148616273
 11
349.2732027571
 21
175.227495163
 70
128
 13
361.957796389
 23
163.7715815837
 14
364.357796389
 24
154.7148616273
 50
270.0
  0
DIMENSION
  8
0
 62
2
  6
CONTINUOUS
  2
*D4
 10
98.3897096499
 20
174.8432216055
 11
94.8897093201
 21
174.8432216055
 70
128
 13
92.3897096499
 23
159.2432216055
 14
98.3897096499
 24
159.2432216055
  0
DIMENSION
  8
0
 62
2
  6
CONTINUOUS
  2
*D5
 10
112.5483578622
 20
157.4932216055
 11
112.5483578622
 21
171.8770385117
 70
128
 13
96.6397096499
 23
160.9932216055
 14
96.6397096499
 24
157.4932216055
 50
270.0
  0
DIMENSION
  8
0
 62
2
  6
CONTINUOUS
  2
*D6
 10
95.3897096499
 20
143.6432216055
 11
80.3897085571
 21
143.6432216055
 70
128
 13
66.3897096499
 23
153.6432216055
 14
95.3897096499
 24
157.4932216055
  0
DIMENSION
  8
0
 62
2
  6
CONTINUOUS
  2
*D7
 10
145.3897096499
 20
143.6432216055
 11
119.8897036743
 21
143.6432216055
 70
128
 13
95.3897096499
 23
157.4932216055
 14
145.3897096499
 24
157.4932216055
  0
DIMENSION
  8
0
 62
2
  6
CONTINUOUS
  2
*D8
 10
195.3897096499
 20
143.6432216055
 11
169.8897116089
 21
143.6432216055
 70
128
 13
145.3897096499
 23
157.4932216055
 14
195.3897096499
 24
157.4932216055
  0
DIMENSION
  8
0
 62
2
  6
CONTINUOUS
  2
*D9
 10
245.3897096499
 20
143.6432216055
 11
219.8897131348
 21
143.6432216055
 70
128
 13
195.3897096499
 23
157.4932216055
 14
245.3897096499
 24
157.4932216055
  0
DIMENSION
  8
0
 62
2
  6
CONTINUOUS
  2
*D10
 10
295.3897096499
 20
143.6432216055
 11
269.889708252
 21
143.6432216055
 70
128
 13
245.3897096499
 23
157.4932216055
 14
295.3897096499
 24
157.4932216055
  0
DIMENSION
  8
0
 62
2
  6
CONTINUOUS
  2
*D11
 10
295.3897096499
 20
143.6432216055
 11
305.8897096499
 21
143.6432216055
 70
128
 13
316.3897096499
 23
153.6432216055
 14
295.3897096499
 24
157.4932216055
 50
180.0
  0
DIMENSION
  8
0
 62
2
  6
CONTINUOUS
  2
*D12
 10
316.3897096499
 20
136.6432216055
 11
190.8897116089
 21
136.6432216055
 70
128
 13
66.3897096499
 23
153.6432216055
 14
316.3897096499
 24
153.6432216055
  0
DIMENSION
  8
0
 62
2
  6
CONTINUOUS
  2
*D13
 10
66.3897096499
 20
129.6432216055
 11
196.7897131348
 21
129.6432216055
 70
128
 13
328.1897096499
 23
154.8932216055
 14
66.3897096499
 24
153.6432216055
 50
180.0
  0
DIMENSION
  8
0
 62
2
  6
CONTINUOUS
  2
*D14
 10
286.8897096499
 20
113.2506702575
 11
282.3897070312
 21
113.2506702575
 70
128
 13
278.8897096499
 23
103.2506702575
 14
286.8897096499
 24
103.2506702575
  0
DIMENSION
  8
0
 62
2
  6
CONTINUOUS
  2
*D15
 10
236.8897096499
 20
113.2506702575
 11
228.3836645508
 21
113.2506702575
 70
128
 13
241.3897096499
 23
103.2506702575
 14
236.8897096499
 24
103.2506702575
 50
180.0
  0
LINE
  8
0
 62
7
  6
CONTINUOUS
 10
66.3897096499
 20
164.8432216055
 11
66.3897096499
 21
153.6432216055
  0
LINE
  8
0
 62
7
  6
CONTINUOUS
 10
66.3897096499
 20
153.6432216055
 11
316.3897096499
 21
153.6432216055
  0
LINE
  8
0
 62
7
  6
CONTINUOUS
 10
316.3897096499
 20
154.8932216055
 11
328.1897096499
 21
154.8932216055
  0
LINE
  8
0
 62
7
  6
CONTINUOUS
 10
296.6397096499
 20
157.4932216055
 11
294.1397096499
 21
157.4932216055
  0
LINE
  8
0
 62
7
  6
CONTINUOUS
 10
246.6397096499
 20
157.4932216055
 11
244.1397096499
 21
157.4932216055
  0
LINE
  8
0
 62
7
  6
CONTINUOUS
 10
196.6397096499
 20
157.4932216055
 11
194.1397096499
 21
157.4932216055
  0
LINE
  8
0
 62
7
  6
CONTINUOUS
 10
146.6397096499
 20
157.4932216055
 11
144.1397096499
 21
157.4932216055
  0
LINE
  8
0
 62
7
  6
CONTINUOUS
 10
96.6397096499
 20
157.4932216055
 11
94.1397096499
 21
157.4932216055
  0
LINE
  8
0
 62
7
  6
CONTINUOUS
 10
94.1397096499
 20
160.9932216055
 11
96.6397096499
 21
160.9932216055
  0
LINE
  8
0
 62
7
  6
CONTINUOUS
 10
144.1397096499
 20
160.9932216055
 11
146.6397096499
 21
160.9932216055
  0
LINE
  8
0
 62
7
  6
CONTINUOUS
 10
194.1397096499
 20
160.9932216055
 11
196.6397096499
 21
160.9932216055
  0
LINE
  8
0
 62
7
  6
CONTINUOUS
 10
244.1397096499
 20
160.9932216055
 11
246.6397096499
 21
160.9932216055
  0
LINE
  8
0
 62
7
  6
CONTINUOUS
 10
294.1397096499
 20
160.9932216055
 11
296.6397096499
 21
160.9932216055
  0
LINE
  8
0
 62
7
  6
CONTINUOUS
 10
316.3897096499
 20
163.5932216055
 11
328.1897096499
 21
163.5932216055
  0
LINE
  8
0
 62
7
  6
CONTINUOUS
 10
66.3897096499
 20
164.8432216055
 11
316.3897096499
 21
164.8432216055
  0
LINE
  8
0
 62
7
  6
CONTINUOUS
 10
316.3897096499
 20
164.8432216055
 11
316.3897096499
 21
153.6432216055
  0
LINE
  8
0
 62
7
  6
CONTINUOUS
 10
328.1897096499
 20
163.5932216055
 11
328.1897096499
 21
154.8932216055
  0
LINE
  8
0
 62
7
  6
CONTINUOUS
 10
360.0912195914
 20
154.4834759627
 11
359.2732027571
 21
155.0589354786
  0
LINE
  8
0
 62
7
  6
CONTINUOUS
 10
360.7191027527
 20
159.2432216055
 11
361.0073455388
 21
164.7432216055
  0
LINE
  8
0
 62
7
  6
CONTINUOUS
 10
361.957796389
 20
163.7715815837
 11
361.7204750987
 21
159.2432216055
  0
LINE
  8
0
 62
7
  6
CONTINUOUS
 10
375.457796389
 20
153.6432216055
 11
372.957796389
 21
153.6432216055
  0
LINE
  8
0
 62
7
  6
CONTINUOUS
 10
372.957796389
 20
153.7432216055
 11
363.4389840384
 21
153.7432216055
  0
LINE
  8
0
 62
7
  6
CONTINUOUS
 10
364.357796389
 20
154.7148616273
 11
372.957796389
 21
154.7148616273
  0
LINE
  8
0
 62
7
  6
CONTINUOUS
 10
363.4389840384
 20
153.7432216055
 11
362.957796389
 21
159.2432216055
  0
LINE
  8
0
 62
7
  6
CONTINUOUS
 10
363.9616162265
 20
159.2432216055
 11
364.357796389
 21
154.7148616273
  0
LINE
  8
0
 62
7
  6
CONTINUOUS
 10
362.957796389
 20
159.2432216055
 11
363.9616162265
 21
159.2432216055
  0
LINE
  8
0
 62
7
  6
CONTINUOUS
 10
372.957796389
 20
163.7715815837
 11
361.957796389
 21
163.7715815837
  0
LINE
  8
0
 62
7
  6
CONTINUOUS
 10
372.957796389
 20
153.6432216055
 11
372.957796389
 21
164.8432216055
  0
LINE
  8
0
 62
7
  6
CONTINUOUS
 10
361.0073455388
 20
164.7432216055
 11
372.957796389
 21
164.7432216055
  0
LINE
  8
0
 62
7
  6
CONTINUOUS
 10
372.957796389
 20
164.8432216055
 11
375.457796389
 21
164.8432216055
  0
LINE
  8
0
 62
7
  6
CONTINUOUS
 10
375.457796389
 20
164.8432216055
 11
375.457796389
 21
153.6432216055
  0
LINE
  8
0
 62
7
  6
CONTINUOUS
 10
66.3897096499
 20
89.5660766255
 11
66.3897096499
 21
87.0660766255
  0
LINE
  8
0
 62
7
  6
CONTINUOUS
 10
74.3897096499
 20
103.2506702575
 11
74.3897096499
 21
89.5660766255
  0
LINE
  8
0
 62
7
  6
CONTINUOUS
 10
78.8897096499
 20
103.2506702575
 11
78.8897096499
 21
89.5660766255
  0
LINE
  8
0
 62
7
  6
CONTINUOUS
 10
86.8897096499
 20
103.2506702575
 11
86.8897096499
 21
89.5660766255
  0
LINE
  8
0
 62
7
  6
CONTINUOUS
 10
91.3897096499
 20
103.2506702575
 11
91.3897096499
 21
89.5660766255
  0
LINE
  8
0
 62
7
  6
CONTINUOUS
 10
99.3897096499
 20
103.2506702575
 11
99.3897096499
 21
89.5660766255
  0
LINE
  8
0
 62
7
  6
CONTINUOUS
 10
103.8897096499
 20
103.2506702575
 11
103.8897096499
 21
89.5660766255
  0
LINE
  8
0
 62
7
  6
CONTINUOUS
 10
111.8897096499
 20
103.2506702575
 11
111.8897096499
 21
89.5660766255
  0
LINE
  8
0
 62
7
  6
CONTINUOUS
 10
116.3897096499
 20
103.2506702575
 11
116.3897096499
 21
89.5660766255
  0
LINE
  8
0
 62
7
  6
CONTINUOUS
 10
124.3897096499
 20
103.2506702575
 11
124.3897096499
 21
89.5660766255
  0
LINE
  8
0
 62
7
  6
CONTINUOUS
 10
128.8897096499
 20
103.2506702575
 11
128.8897096499
 21
89.5660766255
  0
LINE
  8
0
 62
7
  6
CONTINUOUS
 10
136.8897096499
 20
103.2506702575
 11
136.8897096499
 21
89.5660766255
  0
LINE
  8
0
 62
7
  6
CONTINUOUS
 10
141.3897096499
 20
103.2506702575
 11
141.3897096499
 21
89.5660766255
  0
LINE
  8
0
 62
7
  6
CONTINUOUS
 10
149.3897096499
 20
103.2506702575
 11
149.3897096499
 21
89.5660766255
  0
LINE
  8
0
 62
7
  6
CONTINUOUS
 10
153.8897096499
 20
103.2506702575
 11
153.8897096499
 21
89.5660766255
  0
LINE
  8
0
 62
7
  6
CONTINUOUS
 10
161.8897096499
 20
103.2506702575
 11
161.8897096499
 21
89.5660766255
  0
LINE
  8
0
 62
7
  6
CONTINUOUS
 10
166.3897096499
 20
103.2506702575
 11
166.3897096499
 21
89.5660766255
  0
LINE
  8
0
 62
7
  6
CONTINUOUS
 10
174.3897096499
 20
103.2506702575
 11
174.3897096499
 21
89.5660766255
  0
LINE
  8
0
 62
7
  6
CONTINUOUS
 10
178.8897096499
 20
103.2506702575
 11
178.8897096499
 21
89.5660766255
  0
LINE
  8
0
 62
7
  6
CONTINUOUS
 10
186.8897096499
 20
103.2506702575
 11
186.8897096499
 21
89.5660766255
  0
LINE
  8
0
 62
7
  6
CONTINUOUS
 10
66.3897096499
 20
87.0660766255
 11
316.3897096499
 21
87.0660766255
  0
LINE
  8
0
 62
7
  6
CONTINUOUS
 10
191.3897096499
 20
103.2506702575
 11
191.3897096499
 21
89.5660766255
  0
LINE
  8
0
 62
7
  6
CONTINUOUS
 10
316.3897096499
 20
87.8160766255
 11
328.1897096499
 21
87.8160766255
  0
LINE
  8
0
 62
7
  6
CONTINUOUS
 10
66.3897096499
 20
89.5660766255
 11
328.1897096499
 21
89.5660766255
  0
LINE
  8
0
 62
7
  6
CONTINUOUS
 10
199.3897096499
 20
103.2506702575
 11
199.3897096499
 21
89.5660766255
  0
LINE
  8
0
 62
7
  6
CONTINUOUS
 10
203.8897096499
 20
103.2506702575
 11
203.8897096499
 21
89.5660766255
  0
LINE
  8
0
 62
7
  6
CONTINUOUS
 10
316.3897096499
 20
101.5165274757
 11
311.8897096499
 21
101.5165274757
  0
LINE
  8
0
 62
7
  6
CONTINUOUS
 10
303.8897096499
 20
101.5165274757
 11
299.3897096499
 21
101.5165274757
  0
LINE
  8
0
 62
7
  6
CONTINUOUS
 10
291.3897096499
 20
101.5165274757
 11
286.8897096499
 21
101.5165274757
  0
LINE
  8
0
 62
7
  6
CONTINUOUS
 10
278.8897096499
 20
101.5165274757
 11
274.3897096499
 21
101.5165274757
  0
LINE
  8
0
 62
7
  6
CONTINUOUS
 10
266.3897096499
 20
101.5165274757
 11
261.8897096499
 21
101.5165274757
  0
LINE
  8
0
 62
7
  6
CONTINUOUS
 10
253.8897096499
 20
101.5165274757
 11
249.3897096499
 21
101.5165274757
  0
LINE
  8
0
 62
7
  6
CONTINUOUS
 10
241.3897096499
 20
101.5165274757
 11
236.8897096499
 21
101.5165274757
  0
LINE
  8
0
 62
7
  6
CONTINUOUS
 10
228.8897096499
 20
101.5165274757
 11
224.3897096499
 21
101.5165274757
  0
LINE
  8
0
 62
7
  6
CONTINUOUS
 10
216.3897096499
 20
101.5165274757
 11
211.8897096499
 21
101.5165274757
  0
LINE
  8
0
 62
7
  6
CONTINUOUS
 10
203.8897096499
 20
101.5165274757
 11
199.3897096499
 21
101.5165274757
  0
LINE
  8
0
 62
7
  6
CONTINUOUS
 10
191.3897096499
 20
101.5165274757
 11
186.8897096499
 21
101.5165274757
  0
LINE
  8
0
 62
7
  6
CONTINUOUS
 10
178.8897096499
 20
101.5165274757
 11
174.3897096499
 21
101.5165274757
  0
LINE
  8
0
 62
7
  6
CONTINUOUS
 10
166.3897096499
 20
101.5165274757
 11
161.8897096499
 21
101.5165274757
  0
LINE
  8
0
 62
7
  6
CONTINUOUS
 10
153.8897096499
 20
101.5165274757
 11
149.3897096499
 21
101.5165274757
  0
LINE
  8
0
 62
7
  6
CONTINUOUS
 10
141.3897096499
 20
101.5165274757
 11
136.8897096499
 21
101.5165274757
  0
LINE
  8
0
 62
7
  6
CONTINUOUS
 10
128.8897096499
 20
101.5165274757
 11
124.3897096499
 21
101.5165274757
  0
LINE
  8
0
 62
7
  6
CONTINUOUS
 10
116.3897096499
 20
101.5165274757
 11
111.8897096499
 21
101.5165274757
  0
LINE
  8
0
 62
7
  6
CONTINUOUS
 10
103.8897096499
 20
101.5165274757
 11
99.3897096499
 21
101.5165274757
  0
LINE
  8
0
 62
7
  6
CONTINUOUS
 10
91.3897096499
 20
101.5165274757
 11
86.8897096499
 21
101.5165274757
  0
LINE
  8
0
 62
7
  6
CONTINUOUS
 10
78.8897096499
 20
101.5165274757
 11
74.3897096499
 21
101.5165274757
  0
LINE
  8
0
 62
9
  6
CONTINUOUS
 10
316.3897096499
 20
101.8047702618
 11
311.8897096499
 21
101.8047702618
  0
LINE
  8
0
 62
9
  6
CONTINUOUS
 10
303.8897096499
 20
101.8047702618
 11
299.3897096499
 21
101.8047702618
  0
LINE
  8
0
 62
9
  6
CONTINUOUS
 10
291.3897096499
 20
101.8047702618
 11
286.8897096499
 21
101.8047702618
  0
LINE
  8
0
 62
9
  6
CONTINUOUS
 10
278.8897096499
 20
101.8047702618
 11
274.3897096499
 21
101.8047702618
  0
LINE
  8
0
 62
9
  6
CONTINUOUS
 10
266.3897096499
 20
101.8047702618
 11
261.8897096499
 21
101.8047702618
  0
LINE
  8
0
 62
9
  6
CONTINUOUS
 10
253.8897096499
 20
101.8047702618
 11
249.3897096499
 21
101.8047702618
  0
LINE
  8
0
 62
9
  6
CONTINUOUS
 10
241.3897096499
 20
101.8047702618
 11
236.8897096499
 21
101.8047702618
  0
LINE
  8
0
 62
9
  6
CONTINUOUS
 10
228.8897096499
 20
101.8047702618
 11
224.3897096499
 21
101.8047702618
  0
LINE
  8
0
 62
9
  6
CONTINUOUS
 10
216.3897096499
 20
101.8047702618
 11
211.8897096499
 21
101.8047702618
  0
LINE
  8
0
 62
9
  6
CONTINUOUS
 10
203.8897096499
 20
101.8047702618
 11
199.3897096499
 21
101.8047702618
  0
LINE
  8
0
 62
9
  6
CONTINUOUS
 10
191.3897096499
 20
101.8047702618
 11
186.8897096499
 21
101.8047702618
  0
LINE
  8
0
 62
9
  6
CONTINUOUS
 10
178.8897096499
 20
101.8047702618
 11
174.3897096499
 21
101.8047702618
  0
LINE
  8
0
 62
9
  6
CONTINUOUS
 10
166.3897096499
 20
101.8047702618
 11
161.8897096499
 21
101.8047702618
  0
LINE
  8
0
 62
9
  6
CONTINUOUS
 10
153.8897096499
 20
101.8047702618
 11
149.3897096499
 21
101.8047702618
  0
LINE
  8
0
 62
9
  6
CONTINUOUS
 10
141.3897096499
 20
101.8047702618
 11
136.8897096499
 21
101.8047702618
  0
LINE
  8
0
 62
9
  6
CONTINUOUS
 10
128.8897096499
 20
101.8047702618
 11
124.3897096499
 21
101.8047702618
  0
LINE
  8
0
 62
9
  6
CONTINUOUS
 10
116.3897096499
 20
101.8047702618
 11
111.8897096499
 21
101.8047702618
  0
LINE
  8
0
 62
9
  6
CONTINUOUS
 10
103.8897096499
 20
101.8047702618
 11
99.3897096499
 21
101.8047702618
  0
LINE
  8
0
 62
9
  6
CONTINUOUS
 10
91.3897096499
 20
101.8047702618
 11
86.8897096499
 21
101.8047702618
  0
LINE
  8
0
 62
9
  6
CONTINUOUS
 10
78.8897096499
 20
101.8047702618
 11
74.3897096499
 21
101.8047702618
  0
LINE
  8
0
 62
7
  6
CONTINUOUS
 10
316.3897096499
 20
103.2506702575
 11
311.8897096499
 21
103.2506702575
  0
LINE
  8
0
 62
7
  6
CONTINUOUS
 10
303.8897096499
 20
103.2506702575
 11
299.3897096499
 21
103.2506702575
  0
LINE
  8
0
 62
7
  6
CONTINUOUS
 10
291.3897096499
 20
103.2506702575
 11
286.8897096499
 21
103.2506702575
  0
LINE
  8
0
 62
7
  6
CONTINUOUS
 10
278.8897096499
 20
103.2506702575
 11
274.3897096499
 21
103.2506702575
  0
LINE
  8
0
 62
7
  6
CONTINUOUS
 10
266.3897096499
 20
103.2506702575
 11
261.8897096499
 21
103.2506702575
  0
LINE
  8
0
 62
7
  6
CONTINUOUS
 10
253.8897096499
 20
103.2506702575
 11
249.3897096499
 21
103.2506702575
  0
LINE
  8
0
 62
7
  6
CONTINUOUS
 10
241.3897096499
 20
103.2506702575
 11
236.8897096499
 21
103.2506702575
  0
LINE
  8
0
 62
7
  6
CONTINUOUS
 10
228.8897096499
 20
103.2506702575
 11
224.3897096499
 21
103.2506702575
  0
LINE
  8
0
 62
7
  6
CONTINUOUS
 10
216.3897096499
 20
103.2506702575
 11
211.8897096499
 21
103.2506702575
  0
LINE
  8
0
 62
7
  6
CONTINUOUS
 10
203.8897096499
 20
103.2506702575
 11
199.3897096499
 21
103.2506702575
  0
LINE
  8
0
 62
7
  6
CONTINUOUS
 10
191.3897096499
 20
103.2506702575
 11
186.8897096499
 21
103.2506702575
  0
LINE
  8
0
 62
7
  6
CONTINUOUS
 10
178.8897096499
 20
103.2506702575
 11
174.3897096499
 21
103.2506702575
  0
LINE
  8
0
 62
7
  6
CONTINUOUS
 10
166.3897096499
 20
103.2506702575
 11
161.8897096499
 21
103.2506702575
  0
LINE
  8
0
 62
7
  6
CONTINUOUS
 10
153.8897096499
 20
103.2506702575
 11
149.3897096499
 21
103.2506702575
  0
LINE
  8
0
 62
7
  6
CONTINUOUS
 10
141.3897096499
 20
103.2506702575
 11
136.8897096499
 21
103.2506702575
  0
LINE
  8
0
 62
7
  6
CONTINUOUS
 10
128.8897096499
 20
103.2506702575
 11
124.3897096499
 21
103.2506702575
  0
LINE
  8
0
 62
7
  6
CONTINUOUS
 10
116.3897096499
 20
103.2506702575
 11
111.8897096499
 21
103.2506702575
  0
LINE
  8
0
 62
7
  6
CONTINUOUS
 10
103.8897096499
 20
103.2506702575
 11
99.3897096499
 21
103.2506702575
  0
LINE
  8
0
 62
7
  6
CONTINUOUS
 10
91.3897096499
 20
103.2506702575
 11
86.8897096499
 21
103.2506702575
  0
LINE
  8
0
 62
7
  6
CONTINUOUS
 10
78.8897096499
 20
103.2506702575
 11
74.3897096499
 21
103.2506702575
  0
LINE
  8
0
 62
7
  6
CONTINUOUS
 10
211.8897096499
 20
103.2506702575
 11
211.8897096499
 21
89.5660766255
  0
LINE
  8
0
 62
7
  6
CONTINUOUS
 10
216.3897096499
 20
103.2506702575
 11
216.3897096499
 21
89.5660766255
  0
LINE
  8
0
 62
7
  6
CONTINUOUS
 10
224.3897096499
 20
103.2506702575
 11
224.3897096499
 21
89.5660766255
  0
LINE
  8
0
 62
7
  6
CONTINUOUS
 10
228.8897096499
 20
103.2506702575
 11
228.8897096499
 21
89.5660766255
  0
LINE
  8
0
 62
7
  6
CONTINUOUS
 10
236.8897096499
 20
103.2506702575
 11
236.8897096499
 21
89.5660766255
  0
LINE
  8
0
 62
7
  6
CONTINUOUS
 10
241.3897096499
 20
103.2506702575
 11
241.3897096499
 21
89.5660766255
  0
LINE
  8
0
 62
7
  6
CONTINUOUS
 10
249.3897096499
 20
103.2506702575
 11
249.3897096499
 21
89.5660766255
  0
LINE
  8
0
 62
7
  6
CONTINUOUS
 10
253.8897096499
 20
103.2506702575
 11
253.8897096499
 21
89.5660766255
  0
LINE
  8
0
 62
7
  6
CONTINUOUS
 10
261.8897096499
 20
103.2506702575
 11
261.8897096499
 21
89.5660766255
  0
LINE
  8
0
 62
7
  6
CONTINUOUS
 10
266.3897096499
 20
103.2506702575
 11
266.3897096499
 21
89.5660766255
  0
LINE
  8
0
 62
7
  6
CONTINUOUS
 10
274.3897096499
 20
103.2506702575
 11
274.3897096499
 21
89.5660766255
  0
LINE
  8
0
 62
7
  6
CONTINUOUS
 10
278.8897096499
 20
103.2506702575
 11
278.8897096499
 21
89.5660766255
  0
LINE
  8
0
 62
7
  6
CONTINUOUS
 10
286.8897096499
 20
103.2506702575
 11
286.8897096499
 21
89.5660766255
  0
LINE
  8
0
 62
7
  6
CONTINUOUS
 10
291.3897096499
 20
103.2506702575
 11
291.3897096499
 21
89.5660766255
  0
LINE
  8
0
 62
7
  6
CONTINUOUS
 10
299.3897096499
 20
103.2506702575
 11
299.3897096499
 21
89.5660766255
  0
LINE
  8
0
 62
7
  6
CONTINUOUS
 10
303.8897096499
 20
103.2506702575
 11
303.8897096499
 21
89.5660766255
  0
LINE
  8
0
 62
7
  6
CONTINUOUS
 10
311.8897096499
 20
103.2506702575
 11
311.8897096499
 21
89.5660766255
  0
LINE
  8
0
 62
7
  6
CONTINUOUS
 10
316.3897096499
 20
103.2506702575
 11
316.3897096499
 21
87.0660766255
  0
LINE
  8
0
 62
7
  6
CONTINUOUS
 10
328.1897096499
 20
87.8160766255
 11
328.1897096499
 21
89.5660766255
  0
ARC
  8
0
 62
7
  6
CONTINUOUS
 10
94.1397096499
 20
159.2432216055
 40
1.75
 50
90.0
 51
270.0
  0
ARC
  8
0
 62
7
  6
CONTINUOUS
 10
96.6397096499
 20
159.2432216055
 40
1.75
 50
270.0
 51
90.0
  0
ARC
  8
0
 62
7
  6
CONTINUOUS
 10
144.1397096499
 20
159.2432216055
 40
1.75
 50
90.0
 51
270.0
  0
ARC
  8
0
 62
7
  6
CONTINUOUS
 10
146.6397096499
 20
159.2432216055
 40
1.75
 50
270.0
 51
90.0
  0
ARC
  8
0
 62
7
  6
CONTINUOUS
 10
194.1397096499
 20
159.2432216055
 40
1.75
 50
90.0
 51
270.0
  0
ARC
  8
0
 62
7
  6
CONTINUOUS
 10
196.6397096499
 20
159.2432216055
 40
1.75
 50
270.0
 51
90.0
  0
ARC
  8
0
 62
7
  6
CONTINUOUS
 10
244.1397096499
 20
159.2432216055
 40
1.75
 50
90.0
 51
270.0
  0
ARC
  8
0
 62
7
  6
CONTINUOUS
 10
246.6397096499
 20
159.2432216055
 40
1.75
 50
270.0
 51
90.0
  0
ARC
  8
0
 62
7
  6
CONTINUOUS
 10
294.1397096499
 20
159.2432216055
 40
1.75
 50
90.0
 51
270.0
  0
ARC
  8
0
 62
7
  6
CONTINUOUS
 10
296.6397096499
 20
159.2432216055
 40
1.75
 50
270.0
 51
90.0
  0
ARC
  8
0
 62
7
  6
CONTINUOUS
 10
352.7300664747
 20
159.6619092554
 40
9.0001525862
 50
324.8743317216
 51
357.3336345142
  0
ARC
  8
0
 62
7
  6
CONTINUOUS
 10
352.7300664747
 20
159.6619092554
 40
8.0
 50
324.8743317216
 51
357.0
  0
ENDSEC
  0
EOF
