999
DXF file: uds3070120.dxf
999
Pro/ENGINEER 2022024 by Parametric Technology Corporation
  0
SECTION
  2
HEADER
  9
$EXTMAX
 10
1500.0
 20
900.0
 30
0.0
  9
$EXTMIN
 10
0.0
 20
0.0
 30
0.0
  9
$LIMMIN
 10
0.0
 20
0.0
  9
$LIMMAX
 10
1500.0
 20
900.0
  9
$VIEWCTR
 10
750.0
 20
450.0
  9
$VIEWSIZE
 40
900.0
  9
$CLAYER
  8
0
  9
$LTSCALE
 40
82.5
  9
$CELTYPE
  6
BYLAYER
  9
$DIMSCALE
 40
1.0
  9
$DIMASZ
 40
3.5
  9
$DIMEXO
 40
1.0
  9
$DIMDLI
 40
57.0
  9
$DIMEXE
 40
1.5
  9
$DIMCEN
 40
13.5
  9
$DIMLFAC
 40
1.0
  9
$DIMBLK
  1
_FILLED
  9
$DIMALT
 70
0
  9
$DIMALTF
 40
0.0393700787
  9
$DIMTXT
 40
3.5
  9
$AUNITS
 70
0
  9
$PDMODE
 70
3
  9
$PDSIZE
 40
8.0
  9
$TILEMODE
 70
1
  0
ENDSEC
  0
SECTION
  2
TABLES
  0
TABLE
  2
LTYPE
 70
6
  0
LTYPE
  2
BYBLOCK
 70
0
  3

 72
65
 73
0
 40
0.0
  0
LTYPE
  2
BYLAYER
 70
0
  3

 72
65
 73
0
 40
0.0
  0
LTYPE
  2
CONTINUOUS
 70
64
  3
Solid line
 72
65
 73
0
 40
0.0
  0
LTYPE
  2
CENTER
 70
64
  3
____ _ ____ _ ____ _ ____ _ ____ _ ____ _ ____
 72
65
 73
4
 40
0.6
 49
0.375
 49
-0.075
 49
0.075
 49
-0.075
  0
LTYPE
  2
HIDDEN
 70
64
  3
- - - - - - - - - - - - - - - - - - - -
 72
65
 73
2
 40
0.2
 49
0.1
 49
-0.1
  0
LTYPE
  2
PHANTOM
 70
64
  3
_____ _ _ _____ _ _ _____ _ _ _____
 72
65
 73
6
 40
0.8
 49
0.45
 49
-0.05
 49
0.1
 49
-0.05
 49
0.1
 49
-0.05
  0
LTYPE
  2
DOT
 70
64
  3
. . . . . . . . . . . . . . . . . . . .
 72
65
 73
2
 40
0.2
 49
0.1
 49
-0.1
  0
LTYPE
  2
DASHED
 70
64
  3
- - - - - - - - - - - - - - - - - - - -
 72
65
 73
2
 40
0.2
 49
0.1
 49
-0.1
  0
ENDTAB
  0
TABLE
  2
LAYER
 70
36
  0
LAYER
  2
0
 70
0
 62
7
  6
CONTINUOUS
  0
LAYER
  2
DEFAULT_1
 70
0
 62
7
  6
CENTER
  0
LAYER
  2
DEFAULT_2
 70
0
 62
8
  6
HIDDEN
  0
LAYER
  2
DEFAULT_3
 70
0
 62
7
  6
PHANTOM
  0
LAYER
  2
01___PRT_ALL_DTM_PLN
 70
0
 62
7
  6
CONTINUOUS
  0
LAYER
  2
01___PRT_DEF_DTM_PLN
 70
0
 62
7
  6
CONTINUOUS
  0
LAYER
  2
02___PRT_ALL_AXES
 70
0
 62
7
  6
CONTINUOUS
  0
LAYER
  2
03___PRT_ALL_CURVES
 70
0
 62
7
  6
CONTINUOUS
  0
LAYER
  2
04___PRT_ALL_DTM_PNT
 70
0
 62
7
  6
CONTINUOUS
  0
LAYER
  2
05___PRT_ALL_DTM_CSYS
 70
0
 62
7
  6
CONTINUOUS
  0
LAYER
  2
05___PRT_DEF_DTM_CSYS
 70
0
 62
7
  6
CONTINUOUS
  0
LAYER
  2
06___PRT_ALL_SURFS
 70
0
 62
7
  6
CONTINUOUS
  0
LAYER
  2
3_ALL_SYMBOLS
 70
0
 62
7
  6
CONTINUOUS
  0
ENDTAB
  0
TABLE
  2
STYLE
 70
1
  0
STYLE
  2
STANDARD
 70
0
 40
0.0
 41
1.0
 50
0.0
 71
0
 42
0.2
  3
isonormlt-regular.ttf
  4

  0
STYLE
  2
TEXTSTYLE_1
 70
0
 40
0.0
 41
0.8
 50
0.0
 71
0
 42
0.2
  3
gdt
  4

  0
STYLE
  2
TEXTSTYLE_2
 70
0
 40
0.0
 41
1.0
 50
0.0
 71
0
 42
0.2
  3
symbol_iso.ttf
  4

  0
ENDTAB
  0
ENDSEC
  0
SECTION
  2
BLOCKS
  0
BLOCK
  8
0
  2
_FILLED
 70
64
 10
0.0
 20
0.0
  0
SOLID
  8
0
  6
BYBLOCK
 62
0
 10
0.0
 20
0.0
 11
-1.0
 21
0.2142857143
 12
-1.0
 22
-0.2142857143
 13
-1.0
 23
-0.2142857143
  0
ENDBLK
  8
0
  6
BYBLOCK
 62
0
  0
BLOCK
  8
0
 62
2
  6
CONTINUOUS
  2
*D0
 70
65
 10
0.0
 20
0.0
  0
TEXT
  8
0
 62
2
  6
CONTINUOUS
 10
1359.5845239705
 20
331.6206004007
  7
TEXTSTYLE_2
 40
20.0
  1
?
 50
90.0
 41
1.0
 72
1
 11
1359.5845239705
 21
340.6165843364
  0
TEXT
  8
0
 62
2
  6
CONTINUOUS
 10
1359.5845239705
 20
349.6125682722
  7
STANDARD
 40
20.0
  1
360
 50
90.0
 41
1.0
 72
1
 11
1359.5845239705
 21
369.7725682722
  0
LINE
  8
0
 62
2
  6
CONTINUOUS
 10
1193.0516738244
 20
540.8120843364
 11
1366.0845239705
 21
540.8120843364
  0
LINE
  8
0
 62
2
  6
CONTINUOUS
 10
1193.0871738244
 20
180.7410843364
 11
1366.0845239705
 21
180.7410843364
  0
LINE
  8
0
 62
2
  6
CONTINUOUS
 10
1364.5845239705
 20
540.8120843364
 11
1364.5845239705
 21
360.7765843364
  0
LINE
  8
0
 62
2
  6
CONTINUOUS
 10
1364.5845239705
 20
180.7410843364
 11
1364.5845239705
 21
360.7765843364
  0
INSERT
  8
0
 62
2
  6
CONTINUOUS
  2
_FILLED
 10
1364.5845239705
 20
540.8120843364
 41
3.5
 42
3.5
 43
3.5
 50
90.0
  0
INSERT
  8
0
 62
2
  6
CONTINUOUS
  2
_FILLED
 10
1364.5845239705
 20
180.7410843364
 41
3.5
 42
3.5
 43
3.5
 50
270.0
  0
ENDBLK
  8
0
  6
BYBLOCK
 62
0
  0
BLOCK
  8
0
 62
2
  6
CONTINUOUS
  2
*D1
 70
65
 10
0.0
 20
0.0
  0
TEXT
  8
0
 62
2
  6
CONTINUOUS
 10
1408.4590545248
 20
331.6206004007
  7
TEXTSTYLE_2
 40
20.0
  1
?
 50
90.0
 41
1.0
 72
1
 11
1408.4590545248
 21
340.6165843364
  0
TEXT
  8
0
 62
2
  6
CONTINUOUS
 10
1408.4590545248
 20
349.6125682722
  7
STANDARD
 40
20.0
  1
498
 50
90.0
 41
1.0
 72
1
 11
1408.4590545248
 21
369.7725682722
  0
LINE
  8
0
 62
2
  6
CONTINUOUS
 10
1268.0516738244
 20
609.7765843364
 11
1414.9590545248
 21
609.7765843364
  0
LINE
  8
0
 62
2
  6
CONTINUOUS
 10
1268.0516738244
 20
111.7765843364
 11
1414.9590545248
 21
111.7765843364
  0
LINE
  8
0
 62
2
  6
CONTINUOUS
 10
1413.4590545248
 20
609.7765843364
 11
1413.4590545248
 21
360.7765843364
  0
LINE
  8
0
 62
2
  6
CONTINUOUS
 10
1413.4590545248
 20
111.7765843364
 11
1413.4590545248
 21
360.7765843364
  0
INSERT
  8
0
 62
2
  6
CONTINUOUS
  2
_FILLED
 10
1413.4590545248
 20
609.7765843364
 41
3.5
 42
3.5
 43
3.5
 50
90.0
  0
INSERT
  8
0
 62
2
  6
CONTINUOUS
  2
_FILLED
 10
1413.4590545248
 20
111.7765843364
 41
3.5
 42
3.5
 43
3.5
 50
270.0
  0
ENDBLK
  8
0
  6
BYBLOCK
 62
0
  0
BLOCK
  8
0
 62
2
  6
CONTINUOUS
  2
*D2
 70
65
 10
0.0
 20
0.0
  0
TEXT
  8
0
 62
2
  6
CONTINUOUS
 10
1320.8261677565
 20
759.6912861246
  7
STANDARD
 40
20.0
  1
101
 50
90.0
 41
1.0
 72
1
 11
1320.8261677565
 21
779.8512861246
  0
LINE
  8
0
 62
2
  6
CONTINUOUS
 10
1302.0516738244
 20
728.9614794836
 11
1327.3261677565
 21
728.9614794836
  0
LINE
  8
0
 62
2
  6
CONTINUOUS
 10
1278.0516738244
 20
829.8614794836
 11
1327.3261677565
 21
829.8614794836
  0
LINE
  8
0
 62
2
  6
CONTINUOUS
 10
1325.8261677565
 20
728.9614794836
 11
1325.8261677565
 21
779.4114794836
  0
LINE
  8
0
 62
2
  6
CONTINUOUS
 10
1325.8261677565
 20
829.8614794836
 11
1325.8261677565
 21
779.4114794836
  0
INSERT
  8
0
 62
2
  6
CONTINUOUS
  2
_FILLED
 10
1325.8261677565
 20
728.9614794836
 41
3.5
 42
3.5
 43
3.5
 50
270.0
  0
INSERT
  8
0
 62
2
  6
CONTINUOUS
  2
_FILLED
 10
1325.8261677565
 20
829.8614794836
 41
3.5
 42
3.5
 43
3.5
 50
90.0
  0
ENDBLK
  8
0
  6
BYBLOCK
 62
0
  0
ENDSEC
  0
SECTION
  2
ENTITIES
  0
DIMENSION
  8
0
 62
2
  6
CONTINUOUS
  2
*D0
 10
1364.5845239705
 20
180.7410843364
 11
1364.5845239705
 21
360.7765843364
 70
128
 13
1192.0516738244
 23
540.8120843364
 14
1192.0871738244
 24
180.7410843364
 50
270.0
  0
DIMENSION
  8
0
 62
2
  6
CONTINUOUS
  2
*D1
 10
1413.4590545248
 20
111.7765843364
 11
1413.4590545248
 21
360.7765843364
 70
128
 13
1267.0516738244
 23
609.7765843364
 14
1267.0516738244
 24
111.7765843364
 50
270.0
  0
DIMENSION
  8
0
 62
2
  6
CONTINUOUS
  2
*D2
 10
1325.8261677565
 20
829.8614794836
 11
1325.8261677565
 21
778.8212798671
 70
128
 13
1301.0516738244
 23
728.9614794836
 14
1277.0516738244
 24
829.8614794836
 50
90.0
  0
LINE
  8
0
 62
7
  6
CONTINUOUS
 10
0.0
 20
0.0
 11
0.0
 21
900.0
  0
LINE
  8
0
 62
7
  6
CONTINUOUS
 10
0.0
 20
0.0
 11
1500.0
 21
0.0
  0
LINE
  8
0
 62
7
  6
CONTINUOUS
 10
0.0
 20
900.0
 11
1500.0
 21
900.0
  0
LINE
  8
0
 62
7
  6
CONTINUOUS
 10
1500.0
 20
0.0
 11
1500.0
 21
900.0
  0
LINE
  8
0
 62
7
  6
CONTINUOUS
 10
750.0516738244
 20
728.9614794836
 11
750.0516738244
 21
729.8614794836
  0
LINE
  8
0
 62
7
  6
CONTINUOUS
 10
755.0516738244
 20
729.8614794836
 11
755.0516738244
 21
728.9614794836
  0
LINE
  8
0
 62
7
  6
CONTINUOUS
 10
779.0516738244
 20
829.8614794836
 11
779.0516738244
 21
828.3614794836
  0
LINE
  8
0
 62
7
  6
CONTINUOUS
 10
779.0871738244
 20
829.8614794836
 11
779.0871738244
 21
828.3614794836
  0
LINE
  8
0
 62
7
  6
CONTINUOUS
 10
789.0871738244
 20
829.8614794836
 11
789.0871738244
 21
828.3614794836
  0
LINE
  8
0
 62
7
  6
CONTINUOUS
 10
790.5516738244
 20
729.8614794836
 11
790.5516738244
 21
826.8614794836
  0
LINE
  8
0
 62
7
  6
CONTINUOUS
 10
783.729949366
 20
826.8614794836
 11
782.6475235375
 21
826.0583835246
  0
LINE
  8
0
 62
7
  6
CONTINUOUS
 10
864.0871738244
 20
829.8614794836
 11
864.0871738244
 21
819.3614794836
  0
LINE
  8
0
 62
7
  6
CONTINUOUS
 10
790.1633322272
 20
826.8614794836
 11
789.0871738244
 21
828.3614794836
  0
LINE
  8
0
 62
7
  6
CONTINUOUS
 10
790.5516738244
 20
730.6092716897
 11
789.8038816183
 21
729.8614794836
  0
LINE
  8
0
 62
7
  6
CONTINUOUS
 10
781.3445670432
 20
826.1543727024
 11
779.3445670432
 21
828.1543727024
  0
LINE
  8
0
 62
7
  6
CONTINUOUS
 10
861.4890976131
 20
826.8614794836
 11
864.0871738244
 21
828.3614794836
  0
LINE
  8
0
 62
7
  6
CONTINUOUS
 10
779.2774302378
 20
828.2311389576
 11
779.0516738244
 21
828.3614794836
  0
LINE
  8
0
 62
7
  6
CONTINUOUS
 10
781.6852500358
 20
826.8614794836
 11
779.0871738244
 21
828.3614794836
  0
LINE
  8
0
 62
7
  6
CONTINUOUS
 10
750.0516738244
 20
728.9614794836
 11
1306.0516738244
 21
728.9614794836
  0
LINE
  8
0
 62
7
  6
CONTINUOUS
 10
1306.0516738244
 20
729.8614794836
 11
750.0516738244
 21
729.8614794836
  0
LINE
  8
0
 62
7
  6
CONTINUOUS
 10
864.0871738244
 20
819.3614794836
 11
1192.0871738244
 21
819.3614794836
  0
LINE
  8
0
 62
7
  6
CONTINUOUS
 10
864.0871738244
 20
825.8614794836
 11
1192.0871738244
 21
825.8614794836
  0
LINE
  8
0
 62
7
  6
CONTINUOUS
 10
864.0871738244
 20
826.1543727024
 11
1192.0871738244
 21
826.1543727024
  0
LINE
  8
0
 62
7
  6
CONTINUOUS
 10
781.6852500358
 20
826.8614794836
 11
861.4890976131
 21
826.8614794836
  0
LINE
  8
0
 62
7
  6
CONTINUOUS
 10
1194.6497500358
 20
826.8614794836
 11
1274.4535976131
 21
826.8614794836
  0
LINE
  8
0
 62
7
  6
CONTINUOUS
 10
862.3551230168
 20
827.3614794836
 11
864.0871738244
 21
827.3614794836
  0
LINE
  8
0
 62
7
  6
CONTINUOUS
 10
1192.0871738244
 20
827.3614794836
 11
1193.783724632
 21
827.3614794836
  0
LINE
  8
0
 62
7
  6
CONTINUOUS
 10
1192.0871738244
 20
828.1543727024
 11
864.0871738244
 21
828.1543727024
  0
LINE
  8
0
 62
7
  6
CONTINUOUS
 10
1277.0516738244
 20
828.3614794836
 11
1192.0516738244
 21
828.3614794836
  0
LINE
  8
0
 62
7
  6
CONTINUOUS
 10
779.0516738244
 20
828.3614794836
 11
864.0871738244
 21
828.3614794836
  0
LINE
  8
0
 62
7
  6
CONTINUOUS
 10
779.0516738244
 20
829.8614794836
 11
1277.0516738244
 21
829.8614794836
  0
LINE
  8
0
 62
7
  6
CONTINUOUS
 10
1274.4535976131
 20
826.8614794836
 11
1277.0516738244
 21
828.3614794836
  0
LINE
  8
0
 62
7
  6
CONTINUOUS
 10
1194.6497500358
 20
826.8614794836
 11
1192.0516738244
 21
828.3614794836
  0
LINE
  8
0
 62
7
  6
CONTINUOUS
 10
1265.5516738244
 20
730.6092716897
 11
1266.2994660306
 21
729.8614794836
  0
LINE
  8
0
 62
7
  6
CONTINUOUS
 10
1276.7942806056
 20
828.1543727024
 11
1274.7942806056
 21
826.1543727024
  0
LINE
  8
0
 62
7
  6
CONTINUOUS
 10
1192.0516738244
 20
829.8614794836
 11
1192.0516738244
 21
828.3614794836
  0
LINE
  8
0
 62
7
  6
CONTINUOUS
 10
1192.0871738244
 20
819.3614794836
 11
1192.0871738244
 21
828.3409835491
  0
LINE
  8
0
 62
7
  6
CONTINUOUS
 10
1192.0871738244
 20
828.4788401768
 11
1192.0871738244
 21
829.4184766257
  0
LINE
  8
0
 62
7
  6
CONTINUOUS
 10
1265.9755154216
 20
826.8614794836
 11
1267.0516738244
 21
828.3614794836
  0
LINE
  8
0
 62
7
  6
CONTINUOUS
 10
1273.4913241113
 20
826.0583835246
 11
1272.4088982828
 21
826.8614794836
  0
LINE
  8
0
 62
7
  6
CONTINUOUS
 10
1265.5516738244
 20
729.8614794836
 11
1265.5516738244
 21
826.8614794836
  0
LINE
  8
0
 62
7
  6
CONTINUOUS
 10
1267.0516738244
 20
829.8614794836
 11
1267.0516738244
 21
828.3614794836
  0
LINE
  8
0
 62
7
  6
CONTINUOUS
 10
1277.0516738244
 20
829.8614794836
 11
1277.0516738244
 21
828.3614794836
  0
LINE
  8
0
 62
7
  6
CONTINUOUS
 10
1301.0516738244
 20
728.9614794836
 11
1301.0516738244
 21
729.8614794836
  0
LINE
  8
0
 62
7
  6
CONTINUOUS
 10
1306.0516738244
 20
729.8614794836
 11
1306.0516738244
 21
728.9614794836
  0
LINE
  8
0
 62
7
  6
CONTINUOUS
 10
779.0516738244
 20
599.7765843364
 11
789.0516738244
 21
609.7765843364
  0
LINE
  8
0
 62
7
  6
CONTINUOUS
 10
789.0871738244
 20
111.7765843364
 11
779.0871738244
 21
121.7765843364
  0
LINE
  8
0
 62
7
  6
CONTINUOUS
 10
750.0516738244
 20
633.7765843364
 11
750.0516738244
 21
87.7765843364
  0
LINE
  8
0
 62
7
  6
CONTINUOUS
 10
1301.0516738244
 20
82.7765843364
 11
755.0516738244
 21
82.7765843364
  0
LINE
  8
0
 62
7
  6
CONTINUOUS
 10
779.0516738244
 20
196.7765843364
 11
779.0516738244
 21
599.7765843364
  0
LINE
  8
0
 62
7
  6
CONTINUOUS
 10
779.0871738244
 20
196.7765843364
 11
779.0871738244
 21
121.7765843364
  0
LINE
  8
0
 62
7
  6
CONTINUOUS
 10
780.0516738244
 20
524.7765843364
 11
780.0516738244
 21
196.7765843364
  0
LINE
  8
0
 62
7
  6
CONTINUOUS
 10
864.0871738244
 20
111.7410843364
 11
1192.0871738244
 21
111.7410843364
  0
LINE
  8
0
 62
7
  6
CONTINUOUS
 10
864.0871738244
 20
111.7765843364
 11
789.0871738244
 21
111.7765843364
  0
LINE
  8
0
 62
7
  6
CONTINUOUS
 10
1192.0516738244
 20
111.7765843364
 11
1267.0516738244
 21
111.7765843364
  0
LINE
  8
0
 62
7
  6
CONTINUOUS
 10
864.0871738244
 20
112.7410843364
 11
1192.0871738244
 21
112.7410843364
  0
LINE
  8
0
 62
7
  6
CONTINUOUS
 10
848.0516738244
 20
196.7765843364
 11
848.0516738244
 21
540.7765843364
  0
LINE
  8
0
 62
7
  6
CONTINUOUS
 10
848.0871738244
 20
180.7765843364
 11
848.0871738244
 21
540.7410843364
  0
LINE
  8
0
 62
7
  6
CONTINUOUS
 10
1192.0871738244
 20
180.7410843364
 11
864.0871738244
 21
180.7410843364
  0
LINE
  8
0
 62
7
  6
CONTINUOUS
 10
1208.0516738244
 20
180.7765843364
 11
1192.0516738244
 21
180.7765843364
  0
LINE
  8
0
 62
7
  6
CONTINUOUS
 10
848.0871738244
 20
180.7765843364
 11
864.0871738244
 21
180.7765843364
  0
LINE
  8
0
 62
7
  6
CONTINUOUS
 10
864.0516738244
 20
540.7765843364
 11
864.0516738244
 21
609.7765843364
  0
LINE
  8
0
 62
7
  6
CONTINUOUS
 10
864.0871738244
 20
180.7765843364
 11
864.0871738244
 21
111.7765843364
  0
LINE
  8
0
 62
7
  6
CONTINUOUS
 10
864.0871738244
 20
111.7624948662
 11
864.0871738244
 21
111.7410843364
  0
LINE
  8
0
 62
7
  6
CONTINUOUS
 10
848.0871738244
 20
196.7765843364
 11
779.0871738244
 21
196.7765843364
  0
LINE
  8
0
 62
7
  6
CONTINUOUS
 10
1208.0516738244
 20
196.7765843364
 11
1277.0516738244
 21
196.7765843364
  0
LINE
  8
0
 62
7
  6
CONTINUOUS
 10
1277.0657632947
 20
196.7765843364
 11
1277.0871738244
 21
196.7765843364
  0
LINE
  8
0
 62
7
  6
CONTINUOUS
 10
1192.0516738244
 20
180.7765843364
 11
1192.0516738244
 21
111.7765843364
  0
LINE
  8
0
 62
7
  6
CONTINUOUS
 10
1192.0516738244
 20
540.7765843364
 11
1192.0516738244
 21
609.7765843364
  0
LINE
  8
0
 62
7
  6
CONTINUOUS
 10
1192.0516738244
 20
609.7906738067
 11
1192.0516738244
 21
609.8120843364
  0
LINE
  8
0
 62
7
  6
CONTINUOUS
 10
1192.0871738244
 20
112.1840871944
 11
1192.0871738244
 21
180.7410843364
  0
LINE
  8
0
 62
7
  6
CONTINUOUS
 10
1208.0516738244
 20
540.7765843364
 11
1208.0516738244
 21
524.7765843364
  0
LINE
  8
0
 62
7
  6
CONTINUOUS
 10
1208.0516738244
 20
180.7765843364
 11
1208.0516738244
 21
196.7765843364
  0
LINE
  8
0
 62
7
  6
CONTINUOUS
 10
1208.0871738244
 20
524.7765843364
 11
1208.0871738244
 21
196.7765843364
  0
LINE
  8
0
 62
7
  6
CONTINUOUS
 10
848.0516738244
 20
524.7765843364
 11
779.0516738244
 21
524.7765843364
  0
LINE
  8
0
 62
7
  6
CONTINUOUS
 10
1208.0516738244
 20
524.7765843364
 11
1277.0516738244
 21
524.7765843364
  0
LINE
  8
0
 62
7
  6
CONTINUOUS
 10
848.0871738244
 20
540.7410843364
 11
1208.0871738244
 21
540.7410843364
  0
LINE
  8
0
 62
7
  6
CONTINUOUS
 10
1208.0516738244
 20
540.7765843364
 11
1192.0516738244
 21
540.7765843364
  0
LINE
  8
0
 62
7
  6
CONTINUOUS
 10
848.0516738244
 20
540.7765843364
 11
864.0516738244
 21
540.7765843364
  0
LINE
  8
0
 62
7
  6
CONTINUOUS
 10
864.0516738244
 20
540.8120843364
 11
1192.0516738244
 21
540.8120843364
  0
LINE
  8
0
 62
7
  6
CONTINUOUS
 10
1276.0871738244
 20
196.7765843364
 11
1276.0871738244
 21
524.7765843364
  0
LINE
  8
0
 62
7
  6
CONTINUOUS
 10
1277.0516738244
 20
196.7765843364
 11
1277.0516738244
 21
121.7765843364
  0
LINE
  8
0
 62
7
  6
CONTINUOUS
 10
1277.0516738244
 20
524.7765843364
 11
1277.0516738244
 21
599.7765843364
  0
LINE
  8
0
 62
7
  6
CONTINUOUS
 10
1277.0871738244
 20
196.7765843364
 11
1277.0871738244
 21
524.7765843364
  0
LINE
  8
0
 62
7
  6
CONTINUOUS
 10
1192.0516738244
 20
608.8120843364
 11
864.0516738244
 21
608.8120843364
  0
LINE
  8
0
 62
7
  6
CONTINUOUS
 10
864.0516738244
 20
609.7765843364
 11
789.0516738244
 21
609.7765843364
  0
LINE
  8
0
 62
7
  6
CONTINUOUS
 10
1192.0516738244
 20
609.7765843364
 11
1267.0516738244
 21
609.7765843364
  0
LINE
  8
0
 62
7
  6
CONTINUOUS
 10
1192.0516738244
 20
609.8120843364
 11
864.0516738244
 21
609.8120843364
  0
LINE
  8
0
 62
7
  6
CONTINUOUS
 10
1306.0516738244
 20
633.7765843364
 11
1306.0516738244
 21
87.7765843364
  0
LINE
  8
0
 62
7
  6
CONTINUOUS
 10
755.0516738244
 20
638.7765843364
 11
1301.0516738244
 21
638.7765843364
  0
LINE
  8
0
 62
7
  6
CONTINUOUS
 10
1277.0516738244
 20
121.7765843364
 11
1267.0516738244
 21
111.7765843364
  0
LINE
  8
0
 62
7
  6
CONTINUOUS
 10
1267.0516738244
 20
609.7765843364
 11
1277.0516738244
 21
599.7765843364
  0
LINE
  8
0
 62
7
  6
CONTINUOUS
 10
82.3799730316
 20
435.2011755218
 11
82.3799730316
 21
434.6500363903
  0
POLYLINE
  8
0
 62
7
  6
CONTINUOUS
 66
1
 70
0
  0
VERTEX
  8
0
 62
7
  6
CONTINUOUS
 10
81.2816124212
 20
436.7320918454
  0
VERTEX
  8
0
 62
7
  6
CONTINUOUS
 10
81.3275367608
 20
437.0697596388
  0
VERTEX
  8
0
 62
7
  6
CONTINUOUS
 10
81.4648868405
 20
437.3992386566
  0
VERTEX
  8
0
 62
7
  6
CONTINUOUS
 10
81.6886463471
 20
437.7130561188
  0
VERTEX
  8
0
 62
7
  6
CONTINUOUS
 10
81.9930242722
 20
437.9996948574
  0
VERTEX
  8
0
 62
7
  6
CONTINUOUS
 10
82.3799509519
 20
438.2629939283
  0
SEQEND
  0
POLYLINE
  8
0
 62
7
  6
CONTINUOUS
 66
1
 70
0
  0
VERTEX
  8
0
 62
7
  6
CONTINUOUS
 10
81.2816124212
 20
436.180951073
  0
VERTEX
  8
0
 62
7
  6
CONTINUOUS
 10
81.327541631
 20
435.8432656203
  0
VERTEX
  8
0
 62
7
  6
CONTINUOUS
 10
81.4648964627
 20
435.5137872629
  0
VERTEX
  8
0
 62
7
  6
CONTINUOUS
 10
81.6886604953
 20
435.1999708763
  0
VERTEX
  8
0
 62
7
  6
CONTINUOUS
 10
81.9930425545
 20
434.913333601
  0
VERTEX
  8
0
 62
7
  6
CONTINUOUS
 10
82.3799730316
 20
434.6500363903
  0
SEQEND
  0
LINE
  8
0
 62
7
  6
CONTINUOUS
 10
81.3275075717
 20
436.3945293854
 11
81.2816124212
 21
436.7320918454
  0
LINE
  8
0
 62
7
  6
CONTINUOUS
 10
115.7907794823
 20
493.9894626937
 11
115.7907353228
 21
501.0316647259
  0
LINE
  8
0
 62
7
  6
CONTINUOUS
 10
122.685048519
 20
436.7321816066
 11
122.685048519
 21
490.0091446563
  0
POLYLINE
  8
0
 62
7
  6
CONTINUOUS
 66
1
 70
0
  0
VERTEX
  8
0
 62
7
  6
CONTINUOUS
 10
145.2207311629
 20
497.2861041655
  0
VERTEX
  8
0
 62
7
  6
CONTINUOUS
 10
145.2222667307
 20
497.3579132947
  0
VERTEX
  8
0
 62
7
  6
CONTINUOUS
 10
145.1905970261
 20
497.6834703377
  0
VERTEX
  8
0
 62
7
  6
CONTINUOUS
 10
145.0959908727
 20
498.0049331597
  0
VERTEX
  8
0
 62
7
  6
CONTINUOUS
 10
144.9396379976
 20
498.3182591793
  0
VERTEX
  8
0
 62
7
  6
CONTINUOUS
 10
144.7235046292
 20
498.61950814
  0
VERTEX
  8
0
 62
7
  6
CONTINUOUS
 10
144.4503087697
 20
498.9048916612
  0
VERTEX
  8
0
 62
7
  6
CONTINUOUS
 10
144.1234860158
 20
499.1708208797
  0
VERTEX
  8
0
 62
7
  6
CONTINUOUS
 10
143.7471463531
 20
499.4139515812
  0
VERTEX
  8
0
 62
7
  6
CONTINUOUS
 10
143.3260224713
 20
499.631226256
  0
VERTEX
  8
0
 62
7
  6
CONTINUOUS
 10
142.8654102475
 20
499.8199125491
  0
VERTEX
  8
0
 62
7
  6
CONTINUOUS
 10
142.3711021477
 20
499.9776376209
  0
VERTEX
  8
0
 62
7
  6
CONTINUOUS
 10
141.849314383
 20
500.102417987
  0
VERTEX
  8
0
 62
7
  6
CONTINUOUS
 10
141.3066087374
 20
500.192684462
  0
VERTEX
  8
0
 62
7
  6
CONTINUOUS
 10
140.7498100492
 20
500.2473018925
  0
VERTEX
  8
0
 62
7
  6
CONTINUOUS
 10
140.185920385
 20
500.2655834328
  0
VERTEX
  8
0
 62
7
  6
CONTINUOUS
 10
139.6220309845
 20
500.2472991817
  0
VERTEX
  8
0
 62
7
  6
CONTINUOUS
 10
139.065233084
 20
500.1926790744
  0
VERTEX
  8
0
 62
7
  6
CONTINUOUS
 10
138.5225287403
 20
500.1024099904
  0
VERTEX
  8
0
 62
7
  6
CONTINUOUS
 10
138.0007427753
 20
499.9776271158
  0
VERTEX
  8
0
 62
7
  6
CONTINUOUS
 10
137.5064369504
 20
499.8198996677
  0
VERTEX
  8
0
 62
7
  6
CONTINUOUS
 10
137.0458274479
 20
499.6312111603
  0
VERTEX
  8
0
 62
7
  6
CONTINUOUS
 10
136.6247066998
 20
499.4139344609
  0
SEQEND
  0
POLYLINE
  8
0
 62
7
  6
CONTINUOUS
 66
1
 70
0
  0
VERTEX
  8
0
 62
7
  6
CONTINUOUS
 10
81.6885946254
 20
435.7511848713
  0
VERTEX
  8
0
 62
7
  6
CONTINUOUS
 10
81.4648381239
 20
436.0650308219
  0
VERTEX
  8
0
 62
7
  6
CONTINUOUS
 10
81.3275075717
 20
436.3945293854
  0
SEQEND
  0
POLYLINE
  8
0
 62
7
  6
CONTINUOUS
 66
1
 70
0
  0
VERTEX
  8
0
 62
7
  6
CONTINUOUS
 10
135.1511515435
 20
497.2861041655
  0
VERTEX
  8
0
 62
7
  6
CONTINUOUS
 10
135.1812856804
 20
497.03233204
  0
VERTEX
  8
0
 62
7
  6
CONTINUOUS
 10
135.2758918338
 20
496.7108692179
  0
VERTEX
  8
0
 62
7
  6
CONTINUOUS
 10
135.4322447088
 20
496.3975431983
  0
VERTEX
  8
0
 62
7
  6
CONTINUOUS
 10
135.6483780773
 20
496.0962942377
  0
VERTEX
  8
0
 62
7
  6
CONTINUOUS
 10
135.9215739367
 20
495.8109107164
  0
VERTEX
  8
0
 62
7
  6
CONTINUOUS
 10
136.2483966907
 20
495.5449814979
  0
SEQEND
  0
POLYLINE
  8
0
 62
7
  6
CONTINUOUS
 66
1
 70
0
  0
VERTEX
  8
0
 62
7
  6
CONTINUOUS
 10
155.5657015218
 20
471.3321086584
  0
VERTEX
  8
0
 62
7
  6
CONTINUOUS
 10
155.5703716594
 20
471.2542165494
  0
VERTEX
  8
0
 62
7
  6
CONTINUOUS
 10
155.5837711117
 20
471.1840570868
  0
VERTEX
  8
0
 62
7
  6
CONTINUOUS
 10
155.6061268228
 20
471.1211286382
  0
VERTEX
  8
0
 62
7
  6
CONTINUOUS
 10
155.6367543975
 20
471.066942404
  0
SEQEND
  0
LINE
  8
0
 62
7
  6
CONTINUOUS
 10
155.5657015218
 20
471.9444854712
 11
155.5657015218
 21
471.0259202519
  0
LINE
  8
0
 62
7
  6
CONTINUOUS
 10
190.8135969113
 20
500.2337361416
 11
190.8135969113
 21
501.174040362
  0
POLYLINE
  8
0
 62
7
  6
CONTINUOUS
 66
1
 70
0
  0
VERTEX
  8
0
 62
7
  6
CONTINUOUS
 10
376.2920485812
 20
267.6274374908
  0
VERTEX
  8
0
 62
7
  6
CONTINUOUS
 10
375.7484436777
 20
267.4982534613
  0
VERTEX
  8
0
 62
7
  6
CONTINUOUS
 10
375.1777272658
 20
267.4189667635
  0
VERTEX
  8
0
 62
7
  6
CONTINUOUS
 10
374.5929471531
 20
267.3929155356
  0
VERTEX
  8
0
 62
7
  6
CONTINUOUS
 10
374.0081774403
 20
267.4189836156
  0
VERTEX
  8
0
 62
7
  6
CONTINUOUS
 10
373.4374948831
 20
267.4982815874
  0
VERTEX
  8
0
 62
7
  6
CONTINUOUS
 10
372.8939393236
 20
267.627467352
  0
SEQEND
  0
POLYLINE
  8
0
 62
7
  6
CONTINUOUS
 66
1
 70
0
  0
VERTEX
  8
0
 62
7
  6
CONTINUOUS
 10
128.8160953054
 20
433.1925001723
  0
VERTEX
  8
0
 62
7
  6
CONTINUOUS
 10
128.9670536678
 20
433.0142651435
  0
VERTEX
  8
0
 62
7
  6
CONTINUOUS
 10
129.8993391708
 20
432.2051325602
  0
VERTEX
  8
0
 62
7
  6
CONTINUOUS
 10
131.0030939183
 20
431.4720885219
  0
VERTEX
  8
0
 62
7
  6
CONTINUOUS
 10
132.262890086
 20
430.8294556935
  0
VERTEX
  8
0
 62
7
  6
CONTINUOUS
 10
133.6558233076
 20
430.2853089741
  0
VERTEX
  8
0
 62
7
  6
CONTINUOUS
 10
134.0468987575
 20
430.1725627113
  0
SEQEND
  0
LINE
  8
0
 62
7
  6
CONTINUOUS
 10
192.139427646
 20
502.8798087449
 11
192.139427646
 21
500.9992003039
  0
LINE
  8
0
 62
7
  6
CONTINUOUS
 10
192.1582544424
 20
502.8689393348
 11
192.1582544424
 21
501.9503741155
  0
POLYLINE
  8
0
 62
7
  6
CONTINUOUS
 66
1
 70
0
  0
VERTEX
  8
0
 62
7
  6
CONTINUOUS
 10
144.1235121627
 20
495.5450004274
  0
VERTEX
  8
0
 62
7
  6
CONTINUOUS
 10
144.4503310813
 20
495.810931217
  0
VERTEX
  8
0
 62
7
  6
CONTINUOUS
 10
144.7235228247
 20
496.0963160516
  0
VERTEX
  8
0
 62
7
  6
CONTINUOUS
 10
144.9396518484
 20
496.3975660513
  0
VERTEX
  8
0
 62
7
  6
CONTINUOUS
 10
145.0960002044
 20
496.7108928226
  0
VERTEX
  8
0
 62
7
  6
CONTINUOUS
 10
145.1906017215
 20
497.0323560994
  0
VERTEX
  8
0
 62
7
  6
CONTINUOUS
 10
145.2207311629
 20
497.2861041655
  0
SEQEND
  0
POLYLINE
  8
0
 62
7
  6
CONTINUOUS
 66
1
 70
0
  0
VERTEX
  8
0
 62
7
  6
CONTINUOUS
 10
136.0758660758
 20
500.3428043439
  0
VERTEX
  8
0
 62
7
  6
CONTINUOUS
 10
135.6389861838
 20
500.0600133251
  0
VERTEX
  8
0
 62
7
  6
CONTINUOUS
 10
135.2639373775
 20
499.754911396
  0
VERTEX
  8
0
 62
7
  6
CONTINUOUS
 10
134.948965107
 20
499.425317479
  0
VERTEX
  8
0
 62
7
  6
CONTINUOUS
 10
134.6993330221
 20
499.0777748072
  0
VERTEX
  8
0
 62
7
  6
CONTINUOUS
 10
134.5195289725
 20
498.7163085431
  0
VERTEX
  8
0
 62
7
  6
CONTINUOUS
 10
134.4101258082
 20
498.3462918203
  0
VERTEX
  8
0
 62
7
  6
CONTINUOUS
 10
134.3734322987
 20
497.9735696002
  0
VERTEX
  8
0
 62
7
  6
CONTINUOUS
 10
134.4087285348
 20
497.6007515622
  0
VERTEX
  8
0
 62
7
  6
CONTINUOUS
 10
134.5168119323
 20
497.2304355569
  0
VERTEX
  8
0
 62
7
  6
CONTINUOUS
 10
134.6954392862
 20
496.8685020325
  0
VERTEX
  8
0
 62
7
  6
CONTINUOUS
 10
134.9442645847
 20
496.5202575368
  0
VERTEX
  8
0
 62
7
  6
CONTINUOUS
 10
135.2583936649
 20
496.1900216227
  0
VERTEX
  8
0
 62
7
  6
CONTINUOUS
 10
135.6347608045
 20
495.8828438125
  0
VERTEX
  8
0
 62
7
  6
CONTINUOUS
 10
136.0675346697
 20
495.6018407456
  0
VERTEX
  8
0
 62
7
  6
CONTINUOUS
 10
136.2279478133
 20
495.5123366937
  0
SEQEND
  0
POLYLINE
  8
0
 62
7
  6
CONTINUOUS
 66
1
 70
0
  0
VERTEX
  8
0
 62
7
  6
CONTINUOUS
 10
136.6247066998
 20
499.4139344609
  0
VERTEX
  8
0
 62
7
  6
CONTINUOUS
 10
136.2483705437
 20
499.1708019502
  0
VERTEX
  8
0
 62
7
  6
CONTINUOUS
 10
135.9215516252
 20
498.9048711606
  0
VERTEX
  8
0
 62
7
  6
CONTINUOUS
 10
135.6483598818
 20
498.619486326
  0
VERTEX
  8
0
 62
7
  6
CONTINUOUS
 10
135.4322308581
 20
498.3182363263
  0
VERTEX
  8
0
 62
7
  6
CONTINUOUS
 10
135.2758825021
 20
498.0049095551
  0
VERTEX
  8
0
 62
7
  6
CONTINUOUS
 10
135.181280985
 20
497.6834462782
  0
VERTEX
  8
0
 62
7
  6
CONTINUOUS
 10
135.1496159758
 20
497.357889083
  0
VERTEX
  8
0
 62
7
  6
CONTINUOUS
 10
135.1511515435
 20
497.2861041655
  0
SEQEND
  0
LINE
  8
0
 62
7
  6
CONTINUOUS
 10
155.565326166
 20
523.9953983812
 11
115.7907353228
 21
501.0316647259
  0
LINE
  8
0
 62
7
  6
CONTINUOUS
 10
329.5128701206
 20
624.4234602336
 11
369.2874609639
 21
647.3871938888
  0
LINE
  8
0
 62
7
  6
CONTINUOUS
 10
329.6493772969
 20
624.165292287
 11
155.857163519
 21
523.8269098186
  0
LINE
  8
0
 62
7
  6
CONTINUOUS
 10
330.0243756181
 20
624.1281490778
 11
156.0768316635
 21
523.7000872254
  0
LINE
  8
0
 62
7
  6
CONTINUOUS
 10
372.8939393236
 20
267.627467352
 11
372.3974593674
 21
267.8031975167
  0
POLYLINE
  8
0
 62
7
  6
CONTINUOUS
 66
1
 70
0
  0
VERTEX
  8
0
 62
7
  6
CONTINUOUS
 10
371.9414054793
 20
267.4754474142
  0
VERTEX
  8
0
 62
7
  6
CONTINUOUS
 10
372.3975296352
 20
267.2520323213
  0
VERTEX
  8
0
 62
7
  6
CONTINUOUS
 10
372.8940689932
 20
267.0762901915
  0
VERTEX
  8
0
 62
7
  6
CONTINUOUS
 10
373.4376757598
 20
266.9471087753
  0
VERTEX
  8
0
 62
7
  6
CONTINUOUS
 10
374.0083933153
 20
266.8678248212
  0
VERTEX
  8
0
 62
7
  6
CONTINUOUS
 10
374.5931738036
 20
266.8417764046
  0
VERTEX
  8
0
 62
7
  6
CONTINUOUS
 10
375.1779431405
 20
266.8678472958
  0
VERTEX
  8
0
 62
7
  6
CONTINUOUS
 10
375.7486245539
 20
266.9471480111
  0
VERTEX
  8
0
 62
7
  6
CONTINUOUS
 10
376.2921782502
 20
267.0763363888
  0
VERTEX
  8
0
 62
7
  6
CONTINUOUS
 10
376.7886556719
 20
267.2520689403
  0
VERTEX
  8
0
 62
7
  6
CONTINUOUS
 10
377.2447063382
 20
267.4754601618
  0
SEQEND
  0
LINE
  8
0
 62
7
  6
CONTINUOUS
 10
372.3974593674
 20
267.8031975167
 11
371.9414054793
 21
268.0265865458
  0
LINE
  8
0
 62
7
  6
CONTINUOUS
 10
371.9414054793
 20
267.4754474142
 11
82.3799730316
 21
434.6500363903
  0
LINE
  8
0
 62
7
  6
CONTINUOUS
 10
82.3799730316
 20
435.2011755218
 11
371.9414054793
 21
268.0265865458
  0
POLYLINE
  8
0
 62
7
  6
CONTINUOUS
 66
1
 70
0
  0
VERTEX
  8
0
 62
7
  6
CONTINUOUS
 10
82.3799730316
 20
435.2011755218
  0
VERTEX
  8
0
 62
7
  6
CONTINUOUS
 10
81.9929974094
 20
435.464513301
  0
VERTEX
  8
0
 62
7
  6
CONTINUOUS
 10
81.6885946254
 20
435.7511848713
  0
SEQEND
  0
POLYLINE
  8
0
 62
7
  6
CONTINUOUS
 66
1
 70
0
  0
VERTEX
  8
0
 62
7
  6
CONTINUOUS
 10
156.0960293997
 20
472.2506685866
  0
VERTEX
  8
0
 62
7
  6
CONTINUOUS
 10
155.9895161979
 20
472.176062216
  0
VERTEX
  8
0
 62
7
  6
CONTINUOUS
 10
155.8915134133
 20
472.0852151142
  0
VERTEX
  8
0
 62
7
  6
CONTINUOUS
 10
155.8006382873
 20
471.9760938652
  0
VERTEX
  8
0
 62
7
  6
CONTINUOUS
 10
155.7210390958
 20
471.8547987168
  0
VERTEX
  8
0
 62
7
  6
CONTINUOUS
 10
155.6557945121
 20
471.7252156947
  0
VERTEX
  8
0
 62
7
  6
CONTINUOUS
 10
155.6067305852
 20
471.5919540485
  0
VERTEX
  8
0
 62
7
  6
CONTINUOUS
 10
155.5770561226
 20
471.4616564437
  0
VERTEX
  8
0
 62
7
  6
CONTINUOUS
 10
155.5657015218
 20
471.3321086584
  0
SEQEND
  0
POLYLINE
  8
0
 62
7
  6
CONTINUOUS
 66
1
 70
0
  0
VERTEX
  8
0
 62
7
  6
CONTINUOUS
 10
144.2960166307
 20
495.5970055726
  0
VERTEX
  8
0
 62
7
  6
CONTINUOUS
 10
144.7328965227
 20
495.8797965914
  0
VERTEX
  8
0
 62
7
  6
CONTINUOUS
 10
145.107945329
 20
496.1848985205
  0
VERTEX
  8
0
 62
7
  6
CONTINUOUS
 10
145.4229175995
 20
496.5144924375
  0
VERTEX
  8
0
 62
7
  6
CONTINUOUS
 10
145.6725496844
 20
496.8620351094
  0
VERTEX
  8
0
 62
7
  6
CONTINUOUS
 10
145.852353734
 20
497.2235013734
  0
VERTEX
  8
0
 62
7
  6
CONTINUOUS
 10
145.9617568983
 20
497.5935180962
  0
VERTEX
  8
0
 62
7
  6
CONTINUOUS
 10
145.9984504078
 20
497.9662403163
  0
VERTEX
  8
0
 62
7
  6
CONTINUOUS
 10
145.9631541716
 20
498.3390583543
  0
VERTEX
  8
0
 62
7
  6
CONTINUOUS
 10
145.8550707742
 20
498.7093743596
  0
VERTEX
  8
0
 62
7
  6
CONTINUOUS
 10
145.6764434203
 20
499.071307884
  0
VERTEX
  8
0
 62
7
  6
CONTINUOUS
 10
145.4276181217
 20
499.4195523797
  0
VERTEX
  8
0
 62
7
  6
CONTINUOUS
 10
145.1134890416
 20
499.7497882938
  0
VERTEX
  8
0
 62
7
  6
CONTINUOUS
 10
144.737121902
 20
500.056966104
  0
VERTEX
  8
0
 62
7
  6
CONTINUOUS
 10
144.3043480368
 20
500.3379691709
  0
VERTEX
  8
0
 62
7
  6
CONTINUOUS
 10
143.819769502
 20
500.5888152288
  0
VERTEX
  8
0
 62
7
  6
CONTINUOUS
 10
143.2901398535
 20
500.8070516341
  0
VERTEX
  8
0
 62
7
  6
CONTINUOUS
 10
142.7211315454
 20
500.9894526427
  0
VERTEX
  8
0
 62
7
  6
CONTINUOUS
 10
142.1205899383
 20
501.1343552904
  0
VERTEX
  8
0
 62
7
  6
CONTINUOUS
 10
141.4953052822
 20
501.2391992118
  0
VERTEX
  8
0
 62
7
  6
CONTINUOUS
 10
140.8541153635
 20
501.3034508668
  0
VERTEX
  8
0
 62
7
  6
CONTINUOUS
 10
140.2063424991
 20
501.3256569217
  0
VERTEX
  8
0
 62
7
  6
CONTINUOUS
 10
139.5573233473
 20
501.3060163917
  0
VERTEX
  8
0
 62
7
  6
CONTINUOUS
 10
138.9119250232
 20
501.243778373
  0
VERTEX
  8
0
 62
7
  6
CONTINUOUS
 10
138.2808784727
 20
501.1403392889
  0
VERTEX
  8
0
 62
7
  6
CONTINUOUS
 10
137.6740514151
 20
500.9958687176
  0
VERTEX
  8
0
 62
7
  6
CONTINUOUS
 10
137.0989006456
 20
500.8132962908
  0
VERTEX
  8
0
 62
7
  6
CONTINUOUS
 10
136.5675154535
 20
500.5959814359
  0
VERTEX
  8
0
 62
7
  6
CONTINUOUS
 10
136.0758660758
 20
500.3428043439
  0
SEQEND
  0
LINE
  8
0
 62
7
  6
CONTINUOUS
 10
143.8378970038
 20
495.3604783464
 11
144.1235121627
 21
495.5450004274
  0
LINE
  8
0
 62
7
  6
CONTINUOUS
 10
378.2440210151
 20
630.6941918924
 11
378.5279832552
 21
630.8776461028
  0
LINE
  8
0
 62
7
  6
CONTINUOUS
 10
144.146665241
 20
495.5138033663
 11
144.2960166307
 21
495.5970055726
  0
POLYLINE
  8
0
 62
7
  6
CONTINUOUS
 66
1
 70
0
  0
VERTEX
  8
0
 62
7
  6
CONTINUOUS
 10
378.5488870459
 20
630.8452898695
  0
VERTEX
  8
0
 62
7
  6
CONTINUOUS
 10
378.6925295584
 20
630.9251127515
  0
VERTEX
  8
0
 62
7
  6
CONTINUOUS
 10
379.1270138868
 20
631.2048802994
  0
VERTEX
  8
0
 62
7
  6
CONTINUOUS
 10
379.5050158327
 20
631.5106577481
  0
VERTEX
  8
0
 62
7
  6
CONTINUOUS
 10
379.8209481635
 20
631.8391701515
  0
VERTEX
  8
0
 62
7
  6
CONTINUOUS
 10
380.0719304996
 20
632.1858880533
  0
VERTEX
  8
0
 62
7
  6
CONTINUOUS
 10
380.2535280944
 20
632.5468911569
  0
VERTEX
  8
0
 62
7
  6
CONTINUOUS
 10
380.3648168163
 20
632.9170770369
  0
VERTEX
  8
0
 62
7
  6
CONTINUOUS
 10
380.4032793814
 20
633.291063528
  0
VERTEX
  8
0
 62
7
  6
CONTINUOUS
 10
380.3692604992
 20
633.6657695532
  0
VERTEX
  8
0
 62
7
  6
CONTINUOUS
 10
380.2614595476
 20
634.0383851224
  0
VERTEX
  8
0
 62
7
  6
CONTINUOUS
 10
380.0822952372
 20
634.4027148097
  0
VERTEX
  8
0
 62
7
  6
CONTINUOUS
 10
379.8320612902
 20
634.7530615662
  0
VERTEX
  8
0
 62
7
  6
CONTINUOUS
 10
379.5158320501
 20
635.0851202706
  0
VERTEX
  8
0
 62
7
  6
CONTINUOUS
 10
379.1394262992
 20
635.3919112684
  0
VERTEX
  8
0
 62
7
  6
CONTINUOUS
 10
378.7009044434
 20
635.675761111
  0
SEQEND
  0
LINE
  8
0
 62
7
  6
CONTINUOUS
 10
143.804367253
 20
495.3438284806
 11
144.146665241
 21
495.5138033663
  0
LINE
  8
0
 62
7
  6
CONTINUOUS
 10
378.2058110114
 20
630.6752542159
 11
378.5488870459
 21
630.8452898695
  0
POLYLINE
  8
0
 62
7
  6
CONTINUOUS
 66
1
 70
0
  0
VERTEX
  8
0
 62
7
  6
CONTINUOUS
 10
380.7255923784
 20
294.837110138
  0
VERTEX
  8
0
 62
7
  6
CONTINUOUS
 10
381.0423771546
 20
294.9264816622
  0
VERTEX
  8
0
 62
7
  6
CONTINUOUS
 10
382.4488442321
 20
295.4674568849
  0
VERTEX
  8
0
 62
7
  6
CONTINUOUS
 10
383.7398764442
 20
296.119474772
  0
SEQEND
  0
LINE
  8
0
 62
7
  6
CONTINUOUS
 10
122.685048519
 20
436.7321816066
 11
374.5928881026
 21
291.2964128087
  0
LINE
  8
0
 62
7
  6
CONTINUOUS
 10
155.6367543975
 20
471.066942404
 11
155.6749836915
 21
471.0229843722
  0
POLYLINE
  8
0
 62
7
  6
CONTINUOUS
 66
1
 70
0
  0
VERTEX
  8
0
 62
7
  6
CONTINUOUS
 10
378.5284341991
 20
630.8779374358
  0
VERTEX
  8
0
 62
7
  6
CONTINUOUS
 10
378.8552531177
 20
631.1438682254
  0
VERTEX
  8
0
 62
7
  6
CONTINUOUS
 10
379.1284448611
 20
631.42925306
  0
VERTEX
  8
0
 62
7
  6
CONTINUOUS
 10
379.3445738848
 20
631.7305030597
  0
VERTEX
  8
0
 62
7
  6
CONTINUOUS
 10
379.5009222408
 20
632.043829831
  0
VERTEX
  8
0
 62
7
  6
CONTINUOUS
 10
379.5955237579
 20
632.3652931078
  0
VERTEX
  8
0
 62
7
  6
CONTINUOUS
 10
379.6256531993
 20
632.6190411739
  0
SEQEND
  0
LINE
  8
0
 62
7
  6
CONTINUOUS
 10
192.139427646
 20
502.8798087449
 11
366.0869716006
 21
603.3078705972
  0
LINE
  8
0
 62
7
  6
CONTINUOUS
 10
374.5910444436
 20
608.1959310336
 11
366.105798397
 21
603.2970011871
  0
LINE
  8
0
 62
7
  6
CONTINUOUS
 10
183.6730083958
 20
497.9700094883
 11
192.1582544424
 21
502.8689393348
  0
LINE
  8
0
 62
7
  6
CONTINUOUS
 10
192.1582544424
 20
501.9503741155
 11
184.4685205833
 21
497.510730703
  0
LINE
  8
0
 62
7
  6
CONTINUOUS
 10
366.105798397
 20
602.3784359679
 11
374.5910444436
 21
607.2773658143
  0
LINE
  8
0
 62
7
  6
CONTINUOUS
 10
82.3799509519
 20
438.2629939283
 11
122.685048519
 21
461.5330139551
  0
LINE
  8
0
 62
7
  6
CONTINUOUS
 10
185.2828595671
 20
497.0405825076
 11
374.6286978797
 21
606.3588006856
  0
LINE
  8
0
 62
7
  6
CONTINUOUS
 10
192.1583250976
 20
493.0711204341
 11
155.5657015218
 21
471.9444854712
  0
LINE
  8
0
 62
7
  6
CONTINUOUS
 10
383.0763611453
 20
603.2970419794
 11
419.6689847212
 21
624.4236769422
  0
LINE
  8
0
 62
7
  6
CONTINUOUS
 10
383.095187785
 20
602.3893462607
 11
383.0763611453
 21
602.3784767601
  0
LINE
  8
0
 62
7
  6
CONTINUOUS
 10
155.5657015218
 20
471.0259202519
 11
155.6367543975
 21
471.066942404
  0
LINE
  8
0
 62
7
  6
CONTINUOUS
 10
155.6749836915
 20
471.0229843722
 11
155.721030961
 21
470.9887718196
  0
POLYLINE
  8
0
 62
7
  6
CONTINUOUS
 66
1
 70
0
  0
VERTEX
  8
0
 62
7
  6
CONTINUOUS
 10
615.1305144147
 20
430.1700471464
  0
VERTEX
  8
0
 62
7
  6
CONTINUOUS
 10
615.447299191
 20
430.2594186706
  0
VERTEX
  8
0
 62
7
  6
CONTINUOUS
 10
616.8537662685
 20
430.8003938932
  0
VERTEX
  8
0
 62
7
  6
CONTINUOUS
 10
618.1447984806
 20
431.4524117804
  0
SEQEND
  0
LINE
  8
0
 62
7
  6
CONTINUOUS
 10
379.9150443048
 20
347.6460471939
 11
369.3084425871
 21
347.6460216988
  0
LINE
  8
0
 62
7
  6
CONTINUOUS
 10
379.9150443048
 20
348.5646124132
 11
369.3084425871
 21
348.564586918
  0
LINE
  8
0
 62
7
  6
CONTINUOUS
 10
115.7907794823
 20
493.9894626937
 11
155.5657015218
 21
471.0259202519
  0
LINE
  8
0
 62
7
  6
CONTINUOUS
 10
369.3084425871
 20
347.6460216988
 11
329.5335205476
 21
370.6095641405
  0
LINE
  8
0
 62
7
  6
CONTINUOUS
 10
329.5468529498
 20
370.6326570609
 11
155.721030961
 21
470.9887718196
  0
LINE
  8
0
 62
7
  6
CONTINUOUS
 10
155.5657015218
 20
471.9444854712
 11
115.7907794823
 21
494.908027913
  0
LINE
  8
0
 62
7
  6
CONTINUOUS
 10
329.5335205476
 20
371.5281293598
 11
369.3084425871
 21
348.564586918
  0
LINE
  8
0
 62
7
  6
CONTINUOUS
 10
156.0960293997
 20
472.2506685866
 11
330.0450217858
 21
371.8234429746
  0
LINE
  8
0
 62
7
  6
CONTINUOUS
 10
136.2483966907
 20
495.5449814979
 11
136.537103052
 21
495.3584654671
  0
POLYLINE
  8
0
 62
7
  6
CONTINUOUS
 66
1
 70
0
  0
VERTEX
  8
0
 62
7
  6
CONTINUOUS
 10
363.2229691917
 20
297.8606900488
  0
VERTEX
  8
0
 62
7
  6
CONTINUOUS
 10
363.3739275541
 20
297.68245502
  0
VERTEX
  8
0
 62
7
  6
CONTINUOUS
 10
364.306213057
 20
296.8733224367
  0
VERTEX
  8
0
 62
7
  6
CONTINUOUS
 10
365.4099678045
 20
296.1402783984
  0
VERTEX
  8
0
 62
7
  6
CONTINUOUS
 10
366.6697639722
 20
295.49764557
  0
VERTEX
  8
0
 62
7
  6
CONTINUOUS
 10
368.0626971938
 20
294.9534988507
  0
VERTEX
  8
0
 62
7
  6
CONTINUOUS
 10
368.4537726438
 20
294.8407525878
  0
SEQEND
  0
POLYLINE
  8
0
 62
7
  6
CONTINUOUS
 66
1
 70
0
  0
VERTEX
  8
0
 62
7
  6
CONTINUOUS
 10
370.650952707
 20
360.1928440832
  0
VERTEX
  8
0
 62
7
  6
CONTINUOUS
 10
370.9914162402
 20
360.0238160736
  0
VERTEX
  8
0
 62
7
  6
CONTINUOUS
 10
371.5198758376
 20
359.8072846399
  0
VERTEX
  8
0
 62
7
  6
CONTINUOUS
 10
372.0907574089
 20
359.6254379144
  0
VERTEX
  8
0
 62
7
  6
CONTINUOUS
 10
372.6927275801
 20
359.4813148234
  0
VERTEX
  8
0
 62
7
  6
CONTINUOUS
 10
373.3188144652
 20
359.377506391
  0
VERTEX
  8
0
 62
7
  6
CONTINUOUS
 10
373.9597113908
 20
359.3143433476
  0
VERTEX
  8
0
 62
7
  6
CONTINUOUS
 10
374.6052944423
 20
359.2931586429
  0
VERTEX
  8
0
 62
7
  6
CONTINUOUS
 10
375.2510434576
 20
359.313536643
  0
VERTEX
  8
0
 62
7
  6
CONTINUOUS
 10
375.8924587634
 20
359.3759377295
  0
VERTEX
  8
0
 62
7
  6
CONTINUOUS
 10
376.5193549785
 20
359.4790668061
  0
VERTEX
  8
0
 62
7
  6
CONTINUOUS
 10
377.1225407616
 20
359.6227241054
  0
VERTEX
  8
0
 62
7
  6
CONTINUOUS
 10
377.6945343205
 20
359.8040840217
  0
VERTEX
  8
0
 62
7
  6
CONTINUOUS
 10
378.2265895009
 20
360.0213765846
  0
SEQEND
  0
POLYLINE
  8
0
 62
7
  6
CONTINUOUS
 66
1
 70
0
  0
VERTEX
  8
0
 62
7
  6
CONTINUOUS
 10
136.2279478133
 20
495.5123366937
  0
VERTEX
  8
0
 62
7
  6
CONTINUOUS
 10
136.5521132044
 20
495.3509946877
  0
VERTEX
  8
0
 62
7
  6
CONTINUOUS
 10
137.081742853
 20
495.1327582825
  0
VERTEX
  8
0
 62
7
  6
CONTINUOUS
 10
137.6507511611
 20
494.9503572739
  0
VERTEX
  8
0
 62
7
  6
CONTINUOUS
 10
138.2512927681
 20
494.8054546261
  0
VERTEX
  8
0
 62
7
  6
CONTINUOUS
 10
138.8765774243
 20
494.7006107047
  0
VERTEX
  8
0
 62
7
  6
CONTINUOUS
 10
139.517767343
 20
494.6363590497
  0
VERTEX
  8
0
 62
7
  6
CONTINUOUS
 10
140.1655402074
 20
494.6141529948
  0
VERTEX
  8
0
 62
7
  6
CONTINUOUS
 10
140.8145593592
 20
494.6337935248
  0
VERTEX
  8
0
 62
7
  6
CONTINUOUS
 10
141.4599576833
 20
494.6960315435
  0
VERTEX
  8
0
 62
7
  6
CONTINUOUS
 10
142.0910042338
 20
494.7994706276
  0
VERTEX
  8
0
 62
7
  6
CONTINUOUS
 10
142.6978312914
 20
494.9439411989
  0
VERTEX
  8
0
 62
7
  6
CONTINUOUS
 10
143.2729820609
 20
495.1265136257
  0
VERTEX
  8
0
 62
7
  6
CONTINUOUS
 10
143.804367253
 20
495.3438284806
  0
SEQEND
  0
POLYLINE
  8
0
 62
7
  6
CONTINUOUS
 66
1
 70
0
  0
VERTEX
  8
0
 62
7
  6
CONTINUOUS
 10
378.7216829329
 20
365.0218834797
  0
VERTEX
  8
0
 62
7
  6
CONTINUOUS
 10
378.2318675181
 20
365.2741125971
  0
VERTEX
  8
0
 62
7
  6
CONTINUOUS
 10
377.7034079207
 20
365.4906440309
  0
VERTEX
  8
0
 62
7
  6
CONTINUOUS
 10
377.1325263493
 20
365.6724907563
  0
VERTEX
  8
0
 62
7
  6
CONTINUOUS
 10
376.5305561781
 20
365.8166138474
  0
VERTEX
  8
0
 62
7
  6
CONTINUOUS
 10
375.9044692931
 20
365.9204222797
  0
VERTEX
  8
0
 62
7
  6
CONTINUOUS
 10
375.2635723675
 20
365.9835853231
  0
VERTEX
  8
0
 62
7
  6
CONTINUOUS
 10
374.6179893159
 20
366.0047700278
  0
VERTEX
  8
0
 62
7
  6
CONTINUOUS
 10
373.9722403006
 20
365.9843920277
  0
VERTEX
  8
0
 62
7
  6
CONTINUOUS
 10
373.3308249949
 20
365.9219909412
  0
VERTEX
  8
0
 62
7
  6
CONTINUOUS
 10
372.7039287798
 20
365.8188618647
  0
VERTEX
  8
0
 62
7
  6
CONTINUOUS
 10
372.1007429967
 20
365.6752045653
  0
VERTEX
  8
0
 62
7
  6
CONTINUOUS
 10
371.5287494377
 20
365.493844649
  0
VERTEX
  8
0
 62
7
  6
CONTINUOUS
 10
370.9966942573
 20
365.2765520861
  0
VERTEX
  8
0
 62
7
  6
CONTINUOUS
 10
370.5099757104
 20
365.0266935506
  0
VERTEX
  8
0
 62
7
  6
CONTINUOUS
 10
370.0754913819
 20
364.7469260027
  0
VERTEX
  8
0
 62
7
  6
CONTINUOUS
 10
369.697489436
 20
364.4411485539
  0
VERTEX
  8
0
 62
7
  6
CONTINUOUS
 10
369.3815571053
 20
364.1126361505
  0
VERTEX
  8
0
 62
7
  6
CONTINUOUS
 10
369.1305747692
 20
363.7659182487
  0
VERTEX
  8
0
 62
7
  6
CONTINUOUS
 10
368.9489771744
 20
363.4049151451
  0
VERTEX
  8
0
 62
7
  6
CONTINUOUS
 10
368.8376884525
 20
363.0347292651
  0
VERTEX
  8
0
 62
7
  6
CONTINUOUS
 10
368.7992258874
 20
362.6607427741
  0
VERTEX
  8
0
 62
7
  6
CONTINUOUS
 10
368.8332447695
 20
362.2860367489
  0
VERTEX
  8
0
 62
7
  6
CONTINUOUS
 10
368.9410457212
 20
361.9134211796
  0
VERTEX
  8
0
 62
7
  6
CONTINUOUS
 10
369.1202100316
 20
361.5490914923
  0
VERTEX
  8
0
 62
7
  6
CONTINUOUS
 10
369.3704439786
 20
361.1987447358
  0
VERTEX
  8
0
 62
7
  6
CONTINUOUS
 10
369.6866732187
 20
360.8666860314
  0
VERTEX
  8
0
 62
7
  6
CONTINUOUS
 10
370.0630789695
 20
360.5598950336
  0
VERTEX
  8
0
 62
7
  6
CONTINUOUS
 10
370.5016008253
 20
360.276045191
  0
SEQEND
  0
POLYLINE
  8
0
 62
7
  6
CONTINUOUS
 66
1
 70
0
  0
VERTEX
  8
0
 62
7
  6
CONTINUOUS
 10
378.172846879
 20
364.0930109583
  0
VERTEX
  8
0
 62
7
  6
CONTINUOUS
 10
377.7517229972
 20
364.3102856331
  0
VERTEX
  8
0
 62
7
  6
CONTINUOUS
 10
377.2911107734
 20
364.4989719262
  0
VERTEX
  8
0
 62
7
  6
CONTINUOUS
 10
376.7968026736
 20
364.656696998
  0
VERTEX
  8
0
 62
7
  6
CONTINUOUS
 10
376.2750149089
 20
364.7814773641
  0
VERTEX
  8
0
 62
7
  6
CONTINUOUS
 10
375.7323092633
 20
364.8717438391
  0
VERTEX
  8
0
 62
7
  6
CONTINUOUS
 10
375.1755105751
 20
364.9263612697
  0
VERTEX
  8
0
 62
7
  6
CONTINUOUS
 10
374.6116209109
 20
364.9446428099
  0
VERTEX
  8
0
 62
7
  6
CONTINUOUS
 10
374.0477315104
 20
364.9263585588
  0
VERTEX
  8
0
 62
7
  6
CONTINUOUS
 10
373.4909336099
 20
364.8717384515
  0
VERTEX
  8
0
 62
7
  6
CONTINUOUS
 10
372.9482292662
 20
364.7814693675
  0
VERTEX
  8
0
 62
7
  6
CONTINUOUS
 10
372.4264433012
 20
364.656686493
  0
VERTEX
  8
0
 62
7
  6
CONTINUOUS
 10
371.9321374763
 20
364.4989590449
  0
VERTEX
  8
0
 62
7
  6
CONTINUOUS
 10
371.4715279738
 20
364.3102705374
  0
VERTEX
  8
0
 62
7
  6
CONTINUOUS
 10
371.0504072257
 20
364.092993838
  0
VERTEX
  8
0
 62
7
  6
CONTINUOUS
 10
370.6740710696
 20
363.8498613274
  0
VERTEX
  8
0
 62
7
  6
CONTINUOUS
 10
370.3472521511
 20
363.5839305377
  0
VERTEX
  8
0
 62
7
  6
CONTINUOUS
 10
370.0740604077
 20
363.2985457031
  0
VERTEX
  8
0
 62
7
  6
CONTINUOUS
 10
369.857931384
 20
362.9972957034
  0
VERTEX
  8
0
 62
7
  6
CONTINUOUS
 10
369.701583028
 20
362.6839689322
  0
VERTEX
  8
0
 62
7
  6
CONTINUOUS
 10
369.6069815109
 20
362.3625056553
  0
VERTEX
  8
0
 62
7
  6
CONTINUOUS
 10
369.5753165017
 20
362.0369484601
  0
VERTEX
  8
0
 62
7
  6
CONTINUOUS
 10
369.5768520694
 20
361.9651635427
  0
SEQEND
  0
LINE
  8
0
 62
7
  6
CONTINUOUS
 10
370.5016008253
 20
360.276045191
 11
370.650952707
 21
360.1928440832
  0
LINE
  8
0
 62
7
  6
CONTINUOUS
 10
370.6740972166
 20
360.2240408751
 11
370.9594848928
 21
360.0396688495
  0
POLYLINE
  8
0
 62
7
  6
CONTINUOUS
 66
1
 70
0
  0
VERTEX
  8
0
 62
7
  6
CONTINUOUS
 10
329.5551192089
 20
370.6939030263
  0
VERTEX
  8
0
 62
7
  6
CONTINUOUS
 10
329.5327634979
 20
370.7568314748
  0
VERTEX
  8
0
 62
7
  6
CONTINUOUS
 10
329.5193640456
 20
370.8269909374
  0
SEQEND
  0
LINE
  8
0
 62
7
  6
CONTINUOUS
 10
329.5193640456
 20
370.8269909374
 11
329.5146939079
 21
370.9048830464
  0
LINE
  8
0
 62
7
  6
CONTINUOUS
 10
329.5128701206
 20
624.4234602336
 11
329.5128701206
 21
624.0864803025
  0
LINE
  8
0
 62
7
  6
CONTINUOUS
 10
329.5335205476
 20
371.5281293598
 11
329.5335205476
 21
370.6095641405
  0
LINE
  8
0
 62
7
  6
CONTINUOUS
 10
366.1073174838
 20
392.6438948221
 11
183.6730083958
 21
497.9700094883
  0
LINE
  8
0
 62
7
  6
CONTINUOUS
 10
374.6114608252
 20
387.7558752684
 11
366.1261441234
 21
392.6547643227
  0
LINE
  8
0
 62
7
  6
CONTINUOUS
 10
192.1582544424
 20
502.8689393348
 11
155.565326166
 21
523.9953983812
  0
LINE
  8
0
 62
7
  6
CONTINUOUS
 10
383.0967068718
 20
392.6548051149
 11
419.6896351481
 21
371.5283460685
  0
POLYLINE
  8
0
 62
7
  6
CONTINUOUS
 66
1
 70
0
  0
VERTEX
  8
0
 62
7
  6
CONTINUOUS
 10
419.1781296507
 20
371.8236572243
  0
VERTEX
  8
0
 62
7
  6
CONTINUOUS
 10
419.2846437394
 20
371.7490513657
  0
VERTEX
  8
0
 62
7
  6
CONTINUOUS
 10
419.38264734
 20
371.658204735
  0
SEQEND
  0
LINE
  8
0
 62
7
  6
CONTINUOUS
 10
329.5146939079
 20
370.9048830464
 11
329.5260485087
 21
371.0344308317
  0
LINE
  8
0
 62
7
  6
CONTINUOUS
 10
329.5260485087
 20
371.0344308317
 11
329.5557229713
 21
371.1647284365
  0
LINE
  8
0
 62
7
  6
CONTINUOUS
 10
368.5219242423
 20
602.8330743279
 11
368.4826660363
 21
603.7507129479
  0
LINE
  8
0
 62
7
  6
CONTINUOUS
 10
366.0869716006
 20
603.3078705972
 11
366.0869716006
 21
601.4272621563
  0
LINE
  8
0
 62
7
  6
CONTINUOUS
 10
366.105798397
 20
603.2970011871
 11
366.105798397
 21
602.3784359679
  0
LINE
  8
0
 62
7
  6
CONTINUOUS
 10
369.3084425871
 20
348.564586918
 11
369.3084425871
 21
347.6460216988
  0
LINE
  8
0
 62
7
  6
CONTINUOUS
 10
371.9414054793
 20
267.4754474142
 11
371.9414054793
 21
268.0265865458
  0
LINE
  8
0
 62
7
  6
CONTINUOUS
 10
374.5910444436
 20
608.1959310336
 11
374.5910444436
 21
607.2773658143
  0
LINE
  8
0
 62
7
  6
CONTINUOUS
 10
374.5928881026
 20
291.2964128087
 11
374.5928881026
 21
347.646034401
  0
LINE
  8
0
 62
7
  6
CONTINUOUS
 10
377.2447063382
 20
268.0265992933
 11
377.2447063382
 21
267.4754601618
  0
POLYLINE
  8
0
 62
7
  6
CONTINUOUS
 66
1
 70
0
  0
VERTEX
  8
0
 62
7
  6
CONTINUOUS
 10
379.6256531993
 20
632.6190411739
  0
VERTEX
  8
0
 62
7
  6
CONTINUOUS
 10
379.6271887671
 20
632.6908503031
  0
VERTEX
  8
0
 62
7
  6
CONTINUOUS
 10
379.5955190625
 20
633.0164073461
  0
VERTEX
  8
0
 62
7
  6
CONTINUOUS
 10
379.500912909
 20
633.3378701681
  0
VERTEX
  8
0
 62
7
  6
CONTINUOUS
 10
379.344560034
 20
633.6511961877
  0
VERTEX
  8
0
 62
7
  6
CONTINUOUS
 10
379.1284266655
 20
633.9524451484
  0
VERTEX
  8
0
 62
7
  6
CONTINUOUS
 10
378.8552308061
 20
634.2378286696
  0
VERTEX
  8
0
 62
7
  6
CONTINUOUS
 10
378.5284080522
 20
634.5037578881
  0
VERTEX
  8
0
 62
7
  6
CONTINUOUS
 10
378.1520683895
 20
634.7468885896
  0
SEQEND
  0
LINE
  8
0
 62
7
  6
CONTINUOUS
 10
380.6616289247
 20
602.8757651195
 11
380.6990719233
 21
603.7509742823
  0
POLYLINE
  8
0
 62
7
  6
CONTINUOUS
 66
1
 70
0
  0
VERTEX
  8
0
 62
7
  6
CONTINUOUS
 10
369.5768520694
 20
361.9651635427
  0
VERTEX
  8
0
 62
7
  6
CONTINUOUS
 10
369.6069862063
 20
361.7113914171
  0
VERTEX
  8
0
 62
7
  6
CONTINUOUS
 10
369.7015923597
 20
361.389928595
  0
VERTEX
  8
0
 62
7
  6
CONTINUOUS
 10
369.8579452347
 20
361.0766025754
  0
VERTEX
  8
0
 62
7
  6
CONTINUOUS
 10
370.0740786032
 20
360.7753536148
  0
VERTEX
  8
0
 62
7
  6
CONTINUOUS
 10
370.3472744626
 20
360.4899700935
  0
VERTEX
  8
0
 62
7
  6
CONTINUOUS
 10
370.6740972166
 20
360.2240408751
  0
SEQEND
  0
LINE
  8
0
 62
7
  6
CONTINUOUS
 10
379.9150443048
 20
348.5646124132
 11
379.9150443048
 21
347.6460471939
  0
LINE
  8
0
 62
7
  6
CONTINUOUS
 10
383.0763611453
 20
603.2970419794
 11
383.0763611453
 21
602.3784767601
  0
LINE
  8
0
 62
7
  6
CONTINUOUS
 10
383.095187785
 20
603.30791148
 11
383.095187785
 21
601.4707810414
  0
POLYLINE
  8
0
 62
7
  6
CONTINUOUS
 66
1
 70
0
  0
VERTEX
  8
0
 62
7
  6
CONTINUOUS
 10
379.6464316888
 20
361.9651635427
  0
VERTEX
  8
0
 62
7
  6
CONTINUOUS
 10
379.6479672566
 20
362.0369726718
  0
VERTEX
  8
0
 62
7
  6
CONTINUOUS
 10
379.616297552
 20
362.3625297148
  0
VERTEX
  8
0
 62
7
  6
CONTINUOUS
 10
379.5216913985
 20
362.6839925368
  0
VERTEX
  8
0
 62
7
  6
CONTINUOUS
 10
379.3653385235
 20
362.9973185564
  0
VERTEX
  8
0
 62
7
  6
CONTINUOUS
 10
379.149205155
 20
363.2985675171
  0
VERTEX
  8
0
 62
7
  6
CONTINUOUS
 10
378.8760092956
 20
363.5839510383
  0
VERTEX
  8
0
 62
7
  6
CONTINUOUS
 10
378.5491865417
 20
363.8498802568
  0
VERTEX
  8
0
 62
7
  6
CONTINUOUS
 10
378.172846879
 20
364.0930109583
  0
SEQEND
  0
POLYLINE
  8
0
 62
7
  6
CONTINUOUS
 66
1
 70
0
  0
VERTEX
  8
0
 62
7
  6
CONTINUOUS
 10
155.8723139741
 20
523.7707860797
  0
VERTEX
  8
0
 62
7
  6
CONTINUOUS
 10
155.9703175748
 20
523.74847046
  0
VERTEX
  8
0
 62
7
  6
CONTINUOUS
 10
156.0768316635
 20
523.7000872254
  0
SEQEND
  0
POLYLINE
  8
0
 62
7
  6
CONTINUOUS
 66
1
 70
0
  0
VERTEX
  8
0
 62
7
  6
CONTINUOUS
 10
419.6674325395
 20
371.1649450384
  0
VERTEX
  8
0
 62
7
  6
CONTINUOUS
 10
419.6971072492
 20
371.0346475762
  0
VERTEX
  8
0
 62
7
  6
CONTINUOUS
 10
419.7084619445
 20
370.9050998455
  0
SEQEND
  0
POLYLINE
  8
0
 62
7
  6
CONTINUOUS
 66
1
 70
0
  0
VERTEX
  8
0
 62
7
  6
CONTINUOUS
 10
369.5560735799
 20
632.6190411739
  0
VERTEX
  8
0
 62
7
  6
CONTINUOUS
 10
369.5862077168
 20
632.3652690484
  0
VERTEX
  8
0
 62
7
  6
CONTINUOUS
 10
369.6808138702
 20
632.0438062263
  0
VERTEX
  8
0
 62
7
  6
CONTINUOUS
 10
369.8371667452
 20
631.7304802067
  0
VERTEX
  8
0
 62
7
  6
CONTINUOUS
 10
370.0533001137
 20
631.4292312461
  0
VERTEX
  8
0
 62
7
  6
CONTINUOUS
 10
370.3264959731
 20
631.1438477248
  0
VERTEX
  8
0
 62
7
  6
CONTINUOUS
 10
370.6533187271
 20
630.8779185063
  0
SEQEND
  0
LINE
  8
0
 62
7
  6
CONTINUOUS
 10
419.6689847212
 20
624.4236769422
 11
419.6689847212
 21
624.0866983237
  0
LINE
  8
0
 62
7
  6
CONTINUOUS
 10
419.6896351481
 20
371.5283460685
 11
419.6896351481
 21
370.6097808492
  0
POLYLINE
  8
0
 62
7
  6
CONTINUOUS
 66
1
 70
0
  0
VERTEX
  8
0
 62
7
  6
CONTINUOUS
 10
329.8405057995
 20
371.6579895022
  0
VERTEX
  8
0
 62
7
  6
CONTINUOUS
 10
329.9385085841
 20
371.748836604
  0
VERTEX
  8
0
 62
7
  6
CONTINUOUS
 10
330.0450217858
 20
371.8234429746
  0
SEQEND
  0
POLYLINE
  8
0
 62
7
  6
CONTINUOUS
 66
1
 70
0
  0
VERTEX
  8
0
 62
7
  6
CONTINUOUS
 10
593.1064758691
 20
523.7011377154
  0
VERTEX
  8
0
 62
7
  6
CONTINUOUS
 10
593.2129890708
 20
523.7495214621
  0
VERTEX
  8
0
 62
7
  6
CONTINUOUS
 10
593.3109918554
 20
523.7718375529
  0
SEQEND
  0
POLYLINE
  8
0
 62
7
  6
CONTINUOUS
 66
1
 70
0
  0
VERTEX
  8
0
 62
7
  6
CONTINUOUS
 10
419.7084619445
 20
370.9050998455
  0
VERTEX
  8
0
 62
7
  6
CONTINUOUS
 10
419.703791768
 20
370.8272077141
  0
VERTEX
  8
0
 62
7
  6
CONTINUOUS
 10
419.6903922042
 20
370.7570481871
  0
SEQEND
  0
POLYLINE
  8
0
 62
7
  6
CONTINUOUS
 66
1
 70
0
  0
VERTEX
  8
0
 62
7
  6
CONTINUOUS
 10
419.6903922042
 20
370.7570481871
  0
VERTEX
  8
0
 62
7
  6
CONTINUOUS
 10
419.668036307
 20
370.6941196311
  0
VERTEX
  8
0
 62
7
  6
CONTINUOUS
 10
419.6374049145
 20
370.6399269465
  0
VERTEX
  8
0
 62
7
  6
CONTINUOUS
 10
419.5991788648
 20
370.595975034
  0
SEQEND
  0
LINE
  8
0
 62
7
  6
CONTINUOUS
 10
366.1261441234
 20
392.6547643227
 11
329.5335205476
 21
371.5281293598
  0
LINE
  8
0
 62
7
  6
CONTINUOUS
 10
557.0253535315
 20
502.8698163674
 11
593.6179771073
 21
523.9964513302
  0
LINE
  8
0
 62
7
  6
CONTINUOUS
 10
565.5106702333
 20
497.9709273131
 11
557.0254241867
 21
493.0719974667
  0
LINE
  8
0
 62
7
  6
CONTINUOUS
 10
374.6114608252
 20
387.7558752684
 11
383.0967068718
 21
392.6548051149
  0
LINE
  8
0
 62
7
  6
CONTINUOUS
 10
557.0630776228
 20
493.0719975572
 11
383.1155336682
 21
392.6439357048
  0
LINE
  8
0
 62
7
  6
CONTINUOUS
 10
612.6161631756
 20
495.3449553655
 11
612.9584611636
 21
495.5149302512
  0
POLYLINE
  8
0
 62
7
  6
CONTINUOUS
 66
1
 70
0
  0
VERTEX
  8
0
 62
7
  6
CONTINUOUS
 10
378.5492126886
 20
360.2240598045
  0
VERTEX
  8
0
 62
7
  6
CONTINUOUS
 10
378.8760316072
 20
360.4899905941
  0
VERTEX
  8
0
 62
7
  6
CONTINUOUS
 10
379.1492233506
 20
360.7753754287
  0
VERTEX
  8
0
 62
7
  6
CONTINUOUS
 10
379.3653523743
 20
361.0766254284
  0
VERTEX
  8
0
 62
7
  6
CONTINUOUS
 10
379.5217007303
 20
361.3899521997
  0
VERTEX
  8
0
 62
7
  6
CONTINUOUS
 10
379.6163022474
 20
361.7114154765
  0
VERTEX
  8
0
 62
7
  6
CONTINUOUS
 10
379.6464316888
 20
361.9651635427
  0
SEQEND
  0
POLYLINE
  8
0
 62
7
  6
CONTINUOUS
 66
1
 70
0
  0
VERTEX
  8
0
 62
7
  6
CONTINUOUS
 10
604.8876619984
 20
500.3439312288
  0
VERTEX
  8
0
 62
7
  6
CONTINUOUS
 10
604.4507821064
 20
500.06114021
  0
VERTEX
  8
0
 62
7
  6
CONTINUOUS
 10
604.0757333001
 20
499.756038281
  0
VERTEX
  8
0
 62
7
  6
CONTINUOUS
 10
603.7607610296
 20
499.426444364
  0
VERTEX
  8
0
 62
7
  6
CONTINUOUS
 10
603.5111289447
 20
499.0789016921
  0
VERTEX
  8
0
 62
7
  6
CONTINUOUS
 10
603.3313248951
 20
498.717435428
  0
VERTEX
  8
0
 62
7
  6
CONTINUOUS
 10
603.2219217308
 20
498.3474187053
  0
VERTEX
  8
0
 62
7
  6
CONTINUOUS
 10
603.1852282213
 20
497.9746964851
  0
VERTEX
  8
0
 62
7
  6
CONTINUOUS
 10
603.2205244575
 20
497.6018784471
  0
VERTEX
  8
0
 62
7
  6
CONTINUOUS
 10
603.3286078549
 20
497.2315624418
  0
VERTEX
  8
0
 62
7
  6
CONTINUOUS
 10
603.5072352088
 20
496.8696289175
  0
VERTEX
  8
0
 62
7
  6
CONTINUOUS
 10
603.7560605073
 20
496.5213844217
  0
VERTEX
  8
0
 62
7
  6
CONTINUOUS
 10
604.0701895875
 20
496.1911485076
  0
VERTEX
  8
0
 62
7
  6
CONTINUOUS
 10
604.4465567271
 20
495.8839706974
  0
VERTEX
  8
0
 62
7
  6
CONTINUOUS
 10
604.8793305923
 20
495.6029676305
  0
VERTEX
  8
0
 62
7
  6
CONTINUOUS
 10
605.0397437359
 20
495.5134635786
  0
SEQEND
  0
LINE
  8
0
 62
7
  6
CONTINUOUS
 10
378.2647995046
 20
360.0403142611
 11
378.5487617447
 21
360.2237684715
  0
POLYLINE
  8
0
 62
7
  6
CONTINUOUS
 66
1
 70
0
  0
VERTEX
  8
0
 62
7
  6
CONTINUOUS
 10
605.4365026224
 20
499.4150613458
  0
VERTEX
  8
0
 62
7
  6
CONTINUOUS
 10
605.0601664664
 20
499.1719288352
  0
VERTEX
  8
0
 62
7
  6
CONTINUOUS
 10
604.7333475478
 20
498.9059980455
  0
VERTEX
  8
0
 62
7
  6
CONTINUOUS
 10
604.4601558044
 20
498.6206132109
  0
VERTEX
  8
0
 62
7
  6
CONTINUOUS
 10
604.2440267807
 20
498.3193632112
  0
VERTEX
  8
0
 62
7
  6
CONTINUOUS
 10
604.0876784247
 20
498.00603644
  0
VERTEX
  8
0
 62
7
  6
CONTINUOUS
 10
603.9930769076
 20
497.6845731631
  0
VERTEX
  8
0
 62
7
  6
CONTINUOUS
 10
603.9614118984
 20
497.3590159679
  0
VERTEX
  8
0
 62
7
  6
CONTINUOUS
 10
603.9629474661
 20
497.2872310505
  0
SEQEND
  0
LINE
  8
0
 62
7
  6
CONTINUOUS
 10
419.1781296507
 20
371.8236572243
 11
593.1256736053
 21
472.2517190766
  0
LINE
  8
0
 62
7
  6
CONTINUOUS
 10
612.9584611636
 20
495.5149302512
 11
613.1078125533
 21
495.5981324575
  0
POLYLINE
  8
0
 62
7
  6
CONTINUOUS
 66
1
 70
0
  0
VERTEX
  8
0
 62
7
  6
CONTINUOUS
 10
378.5696655354
 20
360.1914122382
  0
VERTEX
  8
0
 62
7
  6
CONTINUOUS
 10
378.7133080479
 20
360.2712351202
  0
VERTEX
  8
0
 62
7
  6
CONTINUOUS
 10
379.1477923763
 20
360.5510026681
  0
VERTEX
  8
0
 62
7
  6
CONTINUOUS
 10
379.5257943222
 20
360.8567801168
  0
VERTEX
  8
0
 62
7
  6
CONTINUOUS
 10
379.841726653
 20
361.1852925203
  0
VERTEX
  8
0
 62
7
  6
CONTINUOUS
 10
380.0927089891
 20
361.532010422
  0
VERTEX
  8
0
 62
7
  6
CONTINUOUS
 10
380.2743065839
 20
361.8930135256
  0
VERTEX
  8
0
 62
7
  6
CONTINUOUS
 10
380.3855953058
 20
362.2631994056
  0
VERTEX
  8
0
 62
7
  6
CONTINUOUS
 10
380.4240578709
 20
362.6371858967
  0
VERTEX
  8
0
 62
7
  6
CONTINUOUS
 10
380.3900389887
 20
363.0118919219
  0
VERTEX
  8
0
 62
7
  6
CONTINUOUS
 10
380.2822380371
 20
363.3845074911
  0
VERTEX
  8
0
 62
7
  6
CONTINUOUS
 10
380.1030737267
 20
363.7488371784
  0
VERTEX
  8
0
 62
7
  6
CONTINUOUS
 10
379.8528397797
 20
364.0991839349
  0
VERTEX
  8
0
 62
7
  6
CONTINUOUS
 10
379.5366105396
 20
364.4312426394
  0
VERTEX
  8
0
 62
7
  6
CONTINUOUS
 10
379.1602047887
 20
364.7380336371
  0
VERTEX
  8
0
 62
7
  6
CONTINUOUS
 10
378.7216829329
 20
365.0218834797
  0
SEQEND
  0
LINE
  8
0
 62
7
  6
CONTINUOUS
 10
378.2265895009
 20
360.0213765846
 11
378.5696655354
 21
360.1914122382
  0
LINE
  8
0
 62
7
  6
CONTINUOUS
 10
593.5006751666
 20
470.9898241124
 11
593.5467228194
 21
471.0240368864
  0
POLYLINE
  8
0
 62
7
  6
CONTINUOUS
 66
1
 70
0
  0
VERTEX
  8
0
 62
7
  6
CONTINUOUS
 10
613.1078125533
 20
495.5981324575
  0
VERTEX
  8
0
 62
7
  6
CONTINUOUS
 10
613.5446924453
 20
495.8809234763
  0
VERTEX
  8
0
 62
7
  6
CONTINUOUS
 10
613.9197412516
 20
496.1860254054
  0
VERTEX
  8
0
 62
7
  6
CONTINUOUS
 10
614.2347135221
 20
496.5156193224
  0
VERTEX
  8
0
 62
7
  6
CONTINUOUS
 10
614.484345607
 20
496.8631619943
  0
VERTEX
  8
0
 62
7
  6
CONTINUOUS
 10
614.6641496566
 20
497.2246282584
  0
VERTEX
  8
0
 62
7
  6
CONTINUOUS
 10
614.7735528209
 20
497.5946449811
  0
VERTEX
  8
0
 62
7
  6
CONTINUOUS
 10
614.8102463304
 20
497.9673672012
  0
VERTEX
  8
0
 62
7
  6
CONTINUOUS
 10
614.7749500942
 20
498.3401852392
  0
VERTEX
  8
0
 62
7
  6
CONTINUOUS
 10
614.6668666968
 20
498.7105012446
  0
VERTEX
  8
0
 62
7
  6
CONTINUOUS
 10
614.4882393429
 20
499.0724347689
  0
VERTEX
  8
0
 62
7
  6
CONTINUOUS
 10
614.2394140444
 20
499.4206792646
  0
VERTEX
  8
0
 62
7
  6
CONTINUOUS
 10
613.9252849642
 20
499.7509151788
  0
VERTEX
  8
0
 62
7
  6
CONTINUOUS
 10
613.5489178246
 20
500.058092989
  0
VERTEX
  8
0
 62
7
  6
CONTINUOUS
 10
613.1161439594
 20
500.3390960558
  0
VERTEX
  8
0
 62
7
  6
CONTINUOUS
 10
612.6315654247
 20
500.5899421137
  0
VERTEX
  8
0
 62
7
  6
CONTINUOUS
 10
612.1019357761
 20
500.808178519
  0
VERTEX
  8
0
 62
7
  6
CONTINUOUS
 10
611.532927468
 20
500.9905795276
  0
VERTEX
  8
0
 62
7
  6
CONTINUOUS
 10
610.9323858609
 20
501.1354821753
  0
VERTEX
  8
0
 62
7
  6
CONTINUOUS
 10
610.3071012048
 20
501.2403260967
  0
VERTEX
  8
0
 62
7
  6
CONTINUOUS
 10
609.6659112861
 20
501.3045777517
  0
VERTEX
  8
0
 62
7
  6
CONTINUOUS
 10
609.0181384217
 20
501.3267838066
  0
VERTEX
  8
0
 62
7
  6
CONTINUOUS
 10
608.3691192699
 20
501.3071432766
  0
VERTEX
  8
0
 62
7
  6
CONTINUOUS
 10
607.7237209458
 20
501.2449052579
  0
VERTEX
  8
0
 62
7
  6
CONTINUOUS
 10
607.0926743953
 20
501.1414661738
  0
VERTEX
  8
0
 62
7
  6
CONTINUOUS
 10
606.4858473377
 20
500.9969956025
  0
VERTEX
  8
0
 62
7
  6
CONTINUOUS
 10
605.9106965682
 20
500.8144231757
  0
VERTEX
  8
0
 62
7
  6
CONTINUOUS
 10
605.3793113761
 20
500.5971083209
  0
VERTEX
  8
0
 62
7
  6
CONTINUOUS
 10
604.8876619984
 20
500.3439312288
  0
SEQEND
  0
LINE
  8
0
 62
7
  6
CONTINUOUS
 10
612.6496929264
 20
495.3616052313
 11
612.9353080854
 21
495.5461273123
  0
LINE
  8
0
 62
7
  6
CONTINUOUS
 10
419.6896351481
 20
371.5283460685
 11
379.9150443048
 21
348.5646124132
  0
LINE
  8
0
 62
7
  6
CONTINUOUS
 10
593.618352463
 20
471.9455384202
 11
633.3929433063
 21
494.9092720755
  0
LINE
  8
0
 62
7
  6
CONTINUOUS
 10
593.5006751666
 20
470.9898241124
 11
419.6763020666
 21
370.6328745616
  0
LINE
  8
0
 62
7
  6
CONTINUOUS
 10
633.3929433063
 20
493.9907068562
 11
593.618352463
 21
471.026973201
  0
LINE
  8
0
 62
7
  6
CONTINUOUS
 10
379.9150443048
 20
347.6460471939
 11
419.6896351481
 21
370.6097808492
  0
POLYLINE
  8
0
 62
7
  6
CONTINUOUS
 66
1
 70
0
  0
VERTEX
  8
0
 62
7
  6
CONTINUOUS
 10
612.9353080854
 20
495.5461273123
  0
VERTEX
  8
0
 62
7
  6
CONTINUOUS
 10
613.2621270039
 20
495.8120581019
  0
VERTEX
  8
0
 62
7
  6
CONTINUOUS
 10
613.5353187473
 20
496.0974429365
  0
VERTEX
  8
0
 62
7
  6
CONTINUOUS
 10
613.751447771
 20
496.3986929362
  0
VERTEX
  8
0
 62
7
  6
CONTINUOUS
 10
613.907796127
 20
496.7120197075
  0
VERTEX
  8
0
 62
7
  6
CONTINUOUS
 10
614.0023976441
 20
497.0334829843
  0
VERTEX
  8
0
 62
7
  6
CONTINUOUS
 10
614.0325270856
 20
497.2872310505
  0
SEQEND
  0
POLYLINE
  8
0
 62
7
  6
CONTINUOUS
 66
1
 70
0
  0
VERTEX
  8
0
 62
7
  6
CONTINUOUS
 10
383.7398764442
 20
296.119474772
  0
VERTEX
  8
0
 62
7
  6
CONTINUOUS
 10
384.8659874729
 20
296.8633024653
  0
VERTEX
  8
0
 62
7
  6
CONTINUOUS
 10
385.8000024623
 20
297.6706405309
  0
VERTEX
  8
0
 62
7
  6
CONTINUOUS
 10
385.9606029501
 20
297.8595268595
  0
SEQEND
  0
POLYLINE
  8
0
 62
7
  6
CONTINUOUS
 66
1
 70
0
  0
VERTEX
  8
0
 62
7
  6
CONTINUOUS
 10
330.0243756181
 20
624.1281490778
  0
VERTEX
  8
0
 62
7
  6
CONTINUOUS
 10
329.9178615294
 20
624.1765323124
  0
VERTEX
  8
0
 62
7
  6
CONTINUOUS
 10
329.8198579287
 20
624.1988479321
  0
VERTEX
  8
0
 62
7
  6
CONTINUOUS
 10
329.728982046
 20
624.1946591768
  0
VERTEX
  8
0
 62
7
  6
CONTINUOUS
 10
329.6493773803
 20
624.1652923352
  0
SEQEND
  0
POLYLINE
  8
0
 62
7
  6
CONTINUOUS
 66
1
 70
0
  0
VERTEX
  8
0
 62
7
  6
CONTINUOUS
 10
605.0397437359
 20
495.5134635786
  0
VERTEX
  8
0
 62
7
  6
CONTINUOUS
 10
605.363909127
 20
495.3521215727
  0
VERTEX
  8
0
 62
7
  6
CONTINUOUS
 10
605.8935387756
 20
495.1338851674
  0
VERTEX
  8
0
 62
7
  6
CONTINUOUS
 10
606.4625470837
 20
494.9514841588
  0
VERTEX
  8
0
 62
7
  6
CONTINUOUS
 10
607.0630886908
 20
494.806581511
  0
VERTEX
  8
0
 62
7
  6
CONTINUOUS
 10
607.6883733469
 20
494.7017375896
  0
VERTEX
  8
0
 62
7
  6
CONTINUOUS
 10
608.3295632656
 20
494.6374859346
  0
VERTEX
  8
0
 62
7
  6
CONTINUOUS
 10
608.97733613
 20
494.6152798798
  0
VERTEX
  8
0
 62
7
  6
CONTINUOUS
 10
609.6263552818
 20
494.6349204098
  0
VERTEX
  8
0
 62
7
  6
CONTINUOUS
 10
610.2717536059
 20
494.6971584285
  0
VERTEX
  8
0
 62
7
  6
CONTINUOUS
 10
610.9028001564
 20
494.8005975125
  0
VERTEX
  8
0
 62
7
  6
CONTINUOUS
 10
611.509627214
 20
494.9450680838
  0
VERTEX
  8
0
 62
7
  6
CONTINUOUS
 10
612.0847779835
 20
495.1276405106
  0
VERTEX
  8
0
 62
7
  6
CONTINUOUS
 10
612.6161631756
 20
495.3449553655
  0
SEQEND
  0
LINE
  8
0
 62
7
  6
CONTINUOUS
 10
593.618352463
 20
471.026973201
 11
593.5723670131
 21
471.0535223123
  0
LINE
  8
0
 62
7
  6
CONTINUOUS
 10
366.0869716006
 20
602.389305378
 11
366.105798397
 21
602.3784359679
  0
LINE
  8
0
 62
7
  6
CONTINUOUS
 10
366.105798397
 20
603.2970011871
 11
329.5128701206
 21
624.4234602336
  0
LINE
  8
0
 62
7
  6
CONTINUOUS
 10
557.0254241867
 20
493.0719974667
 11
593.618352463
 21
471.9455384202
  0
LINE
  8
0
 62
7
  6
CONTINUOUS
 10
593.1256736053
 20
472.2517190766
 11
557.0630776228
 21
493.0719975572
  0
LINE
  8
0
 62
7
  6
CONTINUOUS
 10
374.6286978797
 20
606.3588006856
 11
563.9384724981
 21
497.0632239457
  0
LINE
  8
0
 62
7
  6
CONTINUOUS
 10
626.4986301101
 20
461.5340184634
 11
666.8037055975
 21
438.2643987102
  0
LINE
  8
0
 62
7
  6
CONTINUOUS
 10
383.0763611453
 20
602.3784767601
 11
374.5910444436
 21
607.2773658143
  0
LINE
  8
0
 62
7
  6
CONTINUOUS
 10
557.0253535315
 20
501.9512511481
 11
564.7151580458
 21
497.5116408791
  0
LINE
  8
0
 62
7
  6
CONTINUOUS
 10
565.5106702333
 20
497.9709273131
 11
557.0253535315
 21
502.8698163674
  0
LINE
  8
0
 62
7
  6
CONTINUOUS
 10
374.5910444436
 20
608.1959310336
 11
383.0763611453
 21
603.2970419794
  0
LINE
  8
0
 62
7
  6
CONTINUOUS
 10
383.095187785
 20
603.30791148
 11
557.0441801712
 21
502.880685868
  0
POLYLINE
  8
0
 62
7
  6
CONTINUOUS
 66
1
 70
0
  0
VERTEX
  8
0
 62
7
  6
CONTINUOUS
 10
593.5467228194
 20
471.0240368864
  0
VERTEX
  8
0
 62
7
  6
CONTINUOUS
 10
593.5849488691
 20
471.0679887989
  0
VERTEX
  8
0
 62
7
  6
CONTINUOUS
 10
593.6155802616
 20
471.1221814834
  0
VERTEX
  8
0
 62
7
  6
CONTINUOUS
 10
593.6379361588
 20
471.1851100395
  0
VERTEX
  8
0
 62
7
  6
CONTINUOUS
 10
593.6513357226
 20
471.2552695665
  0
SEQEND
  0
POLYLINE
  8
0
 62
7
  6
CONTINUOUS
 66
1
 70
0
  0
VERTEX
  8
0
 62
7
  6
CONTINUOUS
 10
618.1447984806
 20
431.4524117804
  0
VERTEX
  8
0
 62
7
  6
CONTINUOUS
 10
619.2709095093
 20
432.1962394737
  0
VERTEX
  8
0
 62
7
  6
CONTINUOUS
 10
620.2049244987
 20
433.0035775393
  0
VERTEX
  8
0
 62
7
  6
CONTINUOUS
 10
620.3655249865
 20
433.1924638679
  0
SEQEND
  0
LINE
  8
0
 62
7
  6
CONTINUOUS
 10
374.5928881026
 20
291.2964128087
 11
626.4986301101
 21
436.7333926254
  0
LINE
  8
0
 62
7
  6
CONTINUOUS
 10
666.8037276772
 20
435.2025803037
 11
377.2447063382
 21
268.0265992933
  0
LINE
  8
0
 62
7
  6
CONTINUOUS
 10
377.2447063382
 20
267.4754601618
 11
666.8037276772
 21
434.6514411721
  0
POLYLINE
  8
0
 62
7
  6
CONTINUOUS
 66
1
 70
0
  0
VERTEX
  8
0
 62
7
  6
CONTINUOUS
 10
375.5313547671
 20
605.8376632783
  0
VERTEX
  8
0
 62
7
  6
CONTINUOUS
 10
376.153849554
 20
605.895966594
  0
VERTEX
  8
0
 62
7
  6
CONTINUOUS
 10
376.804483106
 20
605.9994653167
  0
SEQEND
  0
POLYLINE
  8
0
 62
7
  6
CONTINUOUS
 66
1
 70
0
  0
VERTEX
  8
0
 62
7
  6
CONTINUOUS
 10
372.3775520947
 20
605.9994130392
  0
VERTEX
  8
0
 62
7
  6
CONTINUOUS
 10
373.0279882896
 20
605.8959526047
  0
VERTEX
  8
0
 62
7
  6
CONTINUOUS
 10
373.7154945807
 20
605.8315656623
  0
SEQEND
  0
POLYLINE
  8
0
 62
7
  6
CONTINUOUS
 66
1
 70
0
  0
VERTEX
  8
0
 62
7
  6
CONTINUOUS
 10
370.6301742175
 20
630.8467217145
  0
VERTEX
  8
0
 62
7
  6
CONTINUOUS
 10
370.9706377506
 20
630.6776937049
  0
VERTEX
  8
0
 62
7
  6
CONTINUOUS
 10
371.4990973481
 20
630.4611622712
  0
VERTEX
  8
0
 62
7
  6
CONTINUOUS
 10
372.0699789194
 20
630.2793155457
  0
VERTEX
  8
0
 62
7
  6
CONTINUOUS
 10
372.6719490906
 20
630.1351924547
  0
VERTEX
  8
0
 62
7
  6
CONTINUOUS
 10
373.2980359757
 20
630.0313840223
  0
VERTEX
  8
0
 62
7
  6
CONTINUOUS
 10
373.9389329013
 20
629.9682209789
  0
VERTEX
  8
0
 62
7
  6
CONTINUOUS
 10
374.5845159528
 20
629.9470362742
  0
VERTEX
  8
0
 62
7
  6
CONTINUOUS
 10
375.2302649681
 20
629.9674142743
  0
VERTEX
  8
0
 62
7
  6
CONTINUOUS
 10
375.8716802739
 20
630.0298153608
  0
VERTEX
  8
0
 62
7
  6
CONTINUOUS
 10
376.498576489
 20
630.1329444374
  0
VERTEX
  8
0
 62
7
  6
CONTINUOUS
 10
377.1017622721
 20
630.2766017367
  0
VERTEX
  8
0
 62
7
  6
CONTINUOUS
 10
377.673755831
 20
630.457961653
  0
VERTEX
  8
0
 62
7
  6
CONTINUOUS
 10
378.2058110114
 20
630.6752542159
  0
SEQEND
  0
POLYLINE
  8
0
 62
7
  6
CONTINUOUS
 66
1
 70
0
  0
VERTEX
  8
0
 62
7
  6
CONTINUOUS
 10
378.7009044434
 20
635.675761111
  0
VERTEX
  8
0
 62
7
  6
CONTINUOUS
 10
378.2110890286
 20
635.9279902284
  0
VERTEX
  8
0
 62
7
  6
CONTINUOUS
 10
377.6826294312
 20
636.1445216621
  0
VERTEX
  8
0
 62
7
  6
CONTINUOUS
 10
377.1117478598
 20
636.3263683876
  0
VERTEX
  8
0
 62
7
  6
CONTINUOUS
 10
376.5097776886
 20
636.4704914786
  0
VERTEX
  8
0
 62
7
  6
CONTINUOUS
 10
375.8836908036
 20
636.574299911
  0
VERTEX
  8
0
 62
7
  6
CONTINUOUS
 10
375.242793878
 20
636.6374629544
  0
VERTEX
  8
0
 62
7
  6
CONTINUOUS
 10
374.5972108264
 20
636.6586476591
  0
VERTEX
  8
0
 62
7
  6
CONTINUOUS
 10
373.9514618111
 20
636.638269659
  0
VERTEX
  8
0
 62
7
  6
CONTINUOUS
 10
373.3100465054
 20
636.5758685725
  0
VERTEX
  8
0
 62
7
  6
CONTINUOUS
 10
372.6831502903
 20
636.4727394959
  0
VERTEX
  8
0
 62
7
  6
CONTINUOUS
 10
372.0799645072
 20
636.3290821966
  0
VERTEX
  8
0
 62
7
  6
CONTINUOUS
 10
371.5079709482
 20
636.1477222803
  0
VERTEX
  8
0
 62
7
  6
CONTINUOUS
 10
370.9759157678
 20
635.9304297174
  0
VERTEX
  8
0
 62
7
  6
CONTINUOUS
 10
370.4891972209
 20
635.6805711819
  0
VERTEX
  8
0
 62
7
  6
CONTINUOUS
 10
370.0547128924
 20
635.4008036339
  0
VERTEX
  8
0
 62
7
  6
CONTINUOUS
 10
369.6767109465
 20
635.0950261852
  0
VERTEX
  8
0
 62
7
  6
CONTINUOUS
 10
369.3607786158
 20
634.7665137818
  0
VERTEX
  8
0
 62
7
  6
CONTINUOUS
 10
369.1097962797
 20
634.41979588
  0
VERTEX
  8
0
 62
7
  6
CONTINUOUS
 10
368.9281986849
 20
634.0587927764
  0
VERTEX
  8
0
 62
7
  6
CONTINUOUS
 10
368.816909963
 20
633.6886068964
  0
VERTEX
  8
0
 62
7
  6
CONTINUOUS
 10
368.7784473978
 20
633.3146204053
  0
VERTEX
  8
0
 62
7
  6
CONTINUOUS
 10
368.81246628
 20
632.9399143802
  0
VERTEX
  8
0
 62
7
  6
CONTINUOUS
 10
368.9202672317
 20
632.5672988109
  0
VERTEX
  8
0
 62
7
  6
CONTINUOUS
 10
369.0994315421
 20
632.2029691236
  0
VERTEX
  8
0
 62
7
  6
CONTINUOUS
 10
369.3496654891
 20
631.8526223671
  0
VERTEX
  8
0
 62
7
  6
CONTINUOUS
 10
369.6658947292
 20
631.5205636627
  0
VERTEX
  8
0
 62
7
  6
CONTINUOUS
 10
370.04230048
 20
631.2137726649
  0
VERTEX
  8
0
 62
7
  6
CONTINUOUS
 10
370.4808223358
 20
630.9299228223
  0
SEQEND
  0
POLYLINE
  8
0
 62
7
  6
CONTINUOUS
 66
1
 70
0
  0
VERTEX
  8
0
 62
7
  6
CONTINUOUS
 10
378.1520683895
 20
634.7468885896
  0
VERTEX
  8
0
 62
7
  6
CONTINUOUS
 10
377.7309445077
 20
634.9641632644
  0
VERTEX
  8
0
 62
7
  6
CONTINUOUS
 10
377.2703322839
 20
635.1528495575
  0
VERTEX
  8
0
 62
7
  6
CONTINUOUS
 10
376.7760241841
 20
635.3105746293
  0
VERTEX
  8
0
 62
7
  6
CONTINUOUS
 10
376.2542364194
 20
635.4353549954
  0
VERTEX
  8
0
 62
7
  6
CONTINUOUS
 10
375.7115307738
 20
635.5256214704
  0
VERTEX
  8
0
 62
7
  6
CONTINUOUS
 10
375.1547320856
 20
635.5802389009
  0
VERTEX
  8
0
 62
7
  6
CONTINUOUS
 10
374.5908424214
 20
635.5985204412
  0
VERTEX
  8
0
 62
7
  6
CONTINUOUS
 10
374.0269530209
 20
635.5802361901
  0
VERTEX
  8
0
 62
7
  6
CONTINUOUS
 10
373.4701551204
 20
635.5256160828
  0
VERTEX
  8
0
 62
7
  6
CONTINUOUS
 10
372.9274507767
 20
635.4353469988
  0
VERTEX
  8
0
 62
7
  6
CONTINUOUS
 10
372.4056648117
 20
635.3105641242
  0
VERTEX
  8
0
 62
7
  6
CONTINUOUS
 10
371.9113589868
 20
635.1528366761
  0
VERTEX
  8
0
 62
7
  6
CONTINUOUS
 10
371.4507494843
 20
634.9641481687
  0
VERTEX
  8
0
 62
7
  6
CONTINUOUS
 10
371.0296287362
 20
634.7468714693
  0
VERTEX
  8
0
 62
7
  6
CONTINUOUS
 10
370.6532925801
 20
634.5037389586
  0
VERTEX
  8
0
 62
7
  6
CONTINUOUS
 10
370.3264736616
 20
634.237808169
  0
VERTEX
  8
0
 62
7
  6
CONTINUOUS
 10
370.0532819182
 20
633.9524233344
  0
VERTEX
  8
0
 62
7
  6
CONTINUOUS
 10
369.8371528945
 20
633.6511733347
  0
VERTEX
  8
0
 62
7
  6
CONTINUOUS
 10
369.6808045385
 20
633.3378465635
  0
VERTEX
  8
0
 62
7
  6
CONTINUOUS
 10
369.5862030214
 20
633.0163832866
  0
VERTEX
  8
0
 62
7
  6
CONTINUOUS
 10
369.5545380122
 20
632.6908260914
  0
VERTEX
  8
0
 62
7
  6
CONTINUOUS
 10
369.5560735799
 20
632.6190411739
  0
SEQEND
  0
LINE
  8
0
 62
7
  6
CONTINUOUS
 10
370.4808223358
 20
630.9299228223
 11
370.6301742175
 21
630.8467217145
  0
LINE
  8
0
 62
7
  6
CONTINUOUS
 10
370.6533187271
 20
630.8779185063
 11
370.9387064033
 21
630.6935464808
  0
LINE
  8
0
 62
7
  6
CONTINUOUS
 10
605.0601926133
 20
495.5461083829
 11
605.3488989746
 21
495.359592352
  0
POLYLINE
  8
0
 62
7
  6
CONTINUOUS
 66
1
 70
0
  0
VERTEX
  8
0
 62
7
  6
CONTINUOUS
 10
666.8037055975
 20
438.2643987102
  0
VERTEX
  8
0
 62
7
  6
CONTINUOUS
 10
667.1906812197
 20
438.001060931
  0
VERTEX
  8
0
 62
7
  6
CONTINUOUS
 10
667.4950840037
 20
437.7143893607
  0
VERTEX
  8
0
 62
7
  6
CONTINUOUS
 10
667.7188405052
 20
437.4005434101
  0
VERTEX
  8
0
 62
7
  6
CONTINUOUS
 10
667.8561710574
 20
437.0710448466
  0
VERTEX
  8
0
 62
7
  6
CONTINUOUS
 10
667.9020662079
 20
436.7334823866
  0
SEQEND
  0
LINE
  8
0
 62
7
  6
CONTINUOUS
 10
557.0253535315
 20
502.8698163674
 11
557.0253535315
 21
501.9512511481
  0
LINE
  8
0
 62
7
  6
CONTINUOUS
 10
557.0254241867
 20
493.0719974667
 11
557.0254241867
 21
493.0502584655
  0
LINE
  8
0
 62
7
  6
CONTINUOUS
 10
557.0441801712
 20
502.880685868
 11
557.0441801712
 21
501.0435554294
  0
LINE
  8
0
 62
7
  6
CONTINUOUS
 10
558.3699998659
 20
501.1749367875
 11
558.3699998659
 21
500.2781103884
  0
LINE
  8
0
 62
7
  6
CONTINUOUS
 10
667.1906543569
 20
435.4658793746
 11
666.8037276772
 21
435.2025803037
  0
POLYLINE
  8
0
 62
7
  6
CONTINUOUS
 66
1
 70
0
  0
VERTEX
  8
0
 62
7
  6
CONTINUOUS
 10
666.8037276772
 20
434.6514411721
  0
VERTEX
  8
0
 62
7
  6
CONTINUOUS
 10
667.1906995014
 20
434.9147808116
  0
VERTEX
  8
0
 62
7
  6
CONTINUOUS
 10
667.4950981508
 20
435.2014538453
  0
VERTEX
  8
0
 62
7
  6
CONTINUOUS
 10
667.7188501259
 20
435.5153008716
  0
VERTEX
  8
0
 62
7
  6
CONTINUOUS
 10
667.8561759258
 20
435.8448000953
  0
VERTEX
  8
0
 62
7
  6
CONTINUOUS
 10
667.9020662079
 20
436.1823448959
  0
SEQEND
  0
LINE
  8
0
 62
7
  6
CONTINUOUS
 10
377.2447063382
 20
268.0265992933
 11
376.7885854045
 21
267.8031820077
  0
LINE
  8
0
 62
7
  6
CONTINUOUS
 10
376.7885854045
 20
267.8031820077
 11
376.2920485812
 21
267.6274374908
  0
POLYLINE
  8
0
 62
7
  6
CONTINUOUS
 66
1
 70
0
  0
VERTEX
  8
0
 62
7
  6
CONTINUOUS
 10
419.5324769968
 20
624.1655093121
  0
VERTEX
  8
0
 62
7
  6
CONTINUOUS
 10
419.4528745953
 20
624.1948748465
  0
VERTEX
  8
0
 62
7
  6
CONTINUOUS
 10
419.3619994693
 20
624.1990631649
  0
VERTEX
  8
0
 62
7
  6
CONTINUOUS
 10
419.2639966847
 20
624.1767470741
  0
VERTEX
  8
0
 62
7
  6
CONTINUOUS
 10
419.1574834829
 20
624.1283633274
  0
SEQEND
  0
LINE
  8
0
 62
7
  6
CONTINUOUS
 10
593.1064758691
 20
523.7011377154
 11
419.1574834829
 21
624.1283633274
  0
LINE
  8
0
 62
7
  6
CONTINUOUS
 10
593.3261408911
 20
523.827960618
 11
419.5324771203
 21
624.1655092408
  0
LINE
  8
0
 62
7
  6
CONTINUOUS
 10
419.6689847212
 20
624.4236769422
 11
379.8940626816
 21
647.387219384
  0
LINE
  8
0
 62
7
  6
CONTINUOUS
 10
593.6179771073
 20
523.9964513302
 11
633.3928991468
 21
501.0329088885
  0
LINE
  8
0
 62
7
  6
CONTINUOUS
 10
369.2874609639
 20
647.3871938888
 11
379.8940626816
 21
647.387219384
  0
POLYLINE
  8
0
 62
7
  6
CONTINUOUS
 66
1
 70
0
  0
VERTEX
  8
0
 62
7
  6
CONTINUOUS
 10
593.6560058991
 20
471.3331616979
  0
VERTEX
  8
0
 62
7
  6
CONTINUOUS
 10
593.6446512038
 20
471.4627094286
  0
VERTEX
  8
0
 62
7
  6
CONTINUOUS
 10
593.6149764941
 20
471.5930068908
  0
VERTEX
  8
0
 62
7
  6
CONTINUOUS
 10
593.5659121587
 20
471.7262683011
  0
VERTEX
  8
0
 62
7
  6
CONTINUOUS
 10
593.5006670317
 20
471.8558510096
  0
VERTEX
  8
0
 62
7
  6
CONTINUOUS
 10
593.4210671773
 20
471.9771457753
  0
VERTEX
  8
0
 62
7
  6
CONTINUOUS
 10
593.3301912946
 20
472.0862665874
  0
VERTEX
  8
0
 62
7
  6
CONTINUOUS
 10
593.232187694
 20
472.1771132181
  0
VERTEX
  8
0
 62
7
  6
CONTINUOUS
 10
593.1256736053
 20
472.2517190766
  0
SEQEND
  0
LINE
  8
0
 62
7
  6
CONTINUOUS
 10
593.618352463
 20
471.9455384202
 11
593.618352463
 21
471.026973201
  0
LINE
  8
0
 62
7
  6
CONTINUOUS
 10
593.6513357226
 20
471.2552695665
 11
593.6560058991
 21
471.3331616979
  0
LINE
  8
0
 62
7
  6
CONTINUOUS
 10
667.495032282
 20
435.7525181132
 11
667.1906543569
 21
435.4658793746
  0
POLYLINE
  8
0
 62
7
  6
CONTINUOUS
 66
1
 70
0
  0
VERTEX
  8
0
 62
7
  6
CONTINUOUS
 10
603.9629474661
 20
497.2872310505
  0
VERTEX
  8
0
 62
7
  6
CONTINUOUS
 10
603.993081603
 20
497.0334589249
  0
VERTEX
  8
0
 62
7
  6
CONTINUOUS
 10
604.0876877564
 20
496.7119961028
  0
VERTEX
  8
0
 62
7
  6
CONTINUOUS
 10
604.2440406315
 20
496.3986700832
  0
VERTEX
  8
0
 62
7
  6
CONTINUOUS
 10
604.4601739999
 20
496.0974211226
  0
VERTEX
  8
0
 62
7
  6
CONTINUOUS
 10
604.7333698594
 20
495.8120376013
  0
VERTEX
  8
0
 62
7
  6
CONTINUOUS
 10
605.0601926133
 20
495.5461083829
  0
SEQEND
  0
LINE
  8
0
 62
7
  6
CONTINUOUS
 10
626.4986301101
 20
436.7333926254
 11
626.4986301101
 21
490.0102970363
  0
LINE
  8
0
 62
7
  6
CONTINUOUS
 10
633.3928991468
 20
501.0329088885
 11
633.3929433063
 21
493.9907068562
  0
POLYLINE
  8
0
 62
7
  6
CONTINUOUS
 66
1
 70
0
  0
VERTEX
  8
0
 62
7
  6
CONTINUOUS
 10
614.0325270856
 20
497.2872310505
  0
VERTEX
  8
0
 62
7
  6
CONTINUOUS
 10
614.0340626533
 20
497.3590401796
  0
VERTEX
  8
0
 62
7
  6
CONTINUOUS
 10
614.0023929487
 20
497.6845972226
  0
VERTEX
  8
0
 62
7
  6
CONTINUOUS
 10
613.9077867953
 20
498.0060600446
  0
VERTEX
  8
0
 62
7
  6
CONTINUOUS
 10
613.7514339203
 20
498.3193860642
  0
VERTEX
  8
0
 62
7
  6
CONTINUOUS
 10
613.5353005518
 20
498.6206350249
  0
VERTEX
  8
0
 62
7
  6
CONTINUOUS
 10
613.2621046923
 20
498.9060185461
  0
VERTEX
  8
0
 62
7
  6
CONTINUOUS
 10
612.9352819384
 20
499.1719477646
  0
VERTEX
  8
0
 62
7
  6
CONTINUOUS
 10
612.5589422757
 20
499.4150784661
  0
VERTEX
  8
0
 62
7
  6
CONTINUOUS
 10
612.1378183939
 20
499.6323531409
  0
VERTEX
  8
0
 62
7
  6
CONTINUOUS
 10
611.6772061701
 20
499.821039434
  0
VERTEX
  8
0
 62
7
  6
CONTINUOUS
 10
611.1828980703
 20
499.9787645058
  0
VERTEX
  8
0
 62
7
  6
CONTINUOUS
 10
610.6611103057
 20
500.1035448719
  0
VERTEX
  8
0
 62
7
  6
CONTINUOUS
 10
610.11840466
 20
500.1938113469
  0
VERTEX
  8
0
 62
7
  6
CONTINUOUS
 10
609.5616059718
 20
500.2484287775
  0
VERTEX
  8
0
 62
7
  6
CONTINUOUS
 10
608.9977163076
 20
500.2667103177
  0
VERTEX
  8
0
 62
7
  6
CONTINUOUS
 10
608.4338269071
 20
500.2484260666
  0
VERTEX
  8
0
 62
7
  6
CONTINUOUS
 10
607.8770290067
 20
500.1938059593
  0
VERTEX
  8
0
 62
7
  6
CONTINUOUS
 10
607.3343246629
 20
500.1035368753
  0
VERTEX
  8
0
 62
7
  6
CONTINUOUS
 10
606.812538698
 20
499.9787540008
  0
VERTEX
  8
0
 62
7
  6
CONTINUOUS
 10
606.318232873
 20
499.8210265527
  0
VERTEX
  8
0
 62
7
  6
CONTINUOUS
 10
605.8576233706
 20
499.6323380452
  0
VERTEX
  8
0
 62
7
  6
CONTINUOUS
 10
605.4365026224
 20
499.4150613458
  0
SEQEND
  0
LINE
  8
0
 62
7
  6
CONTINUOUS
 10
666.8037276772
 20
434.6514411721
 11
666.8037276772
 21
435.2025803037
  0
POLYLINE
  8
0
 62
7
  6
CONTINUOUS
 66
1
 70
0
  0
VERTEX
  8
0
 62
7
  6
CONTINUOUS
 10
667.9020662079
 20
436.7334823866
  0
VERTEX
  8
0
 62
7
  6
CONTINUOUS
 10
667.8561418683
 20
436.3958145932
  0
VERTEX
  8
0
 62
7
  6
CONTINUOUS
 10
667.7187917886
 20
436.0663355754
  0
VERTEX
  8
0
 62
7
  6
CONTINUOUS
 10
667.495032282
 20
435.7525181132
  0
SEQEND
  0
ARC
  8
0
 62
7
  6
CONTINUOUS
 10
1276.0871738244
 20
828.8614794836
 40
1.0
 50
344.7497596905
 51
14.4228003284
  0
ARC
  8
0
 62
7
  6
CONTINUOUS
 10
1276.0871738244
 20
828.8614794836
 40
1.0
 50
314.9999999993
 51
322.5628459781
  0
ARC
  8
0
 62
7
  6
CONTINUOUS
 10
1274.0871738244
 20
826.8614794836
 40
1.0
 50
233.4267700494
 51
315.0000000006
  0
ARC
  8
0
 62
7
  6
CONTINUOUS
 10
780.0516738244
 20
828.8614794836
 40
1.0
 50
216.3820944546
 51
225.0000000007
  0
ARC
  8
0
 62
7
  6
CONTINUOUS
 10
780.0516738244
 20
828.8614794836
 40
1.0
 50
165.5771996716
 51
195.2502403095
  0
ARC
  8
0
 62
7
  6
CONTINUOUS
 10
782.0516738244
 20
826.8614794836
 40
1.0
 50
224.9999999994
 51
306.5732299506
  0
CIRCLE
  8
0
 62
7
  6
CONTINUOUS
 10
807.0871738244
 20
139.7765843364
 40
7.75
  0
CIRCLE
  8
0
 62
7
  6
CONTINUOUS
 10
807.0871738244
 20
139.7765843364
 40
6.7151005033
  0
CIRCLE
  8
0
 62
7
  6
CONTINUOUS
 10
807.0871738244
 20
139.7765843364
 40
5.3531692203
  0
ARC
  8
0
 62
7
  6
CONTINUOUS
 10
755.0516738244
 20
87.7765843364
 40
5.0
 50
180.0
 51
270.0
  0
CIRCLE
  8
0
 62
2
  6
CONTINUOUS
 10
807.0871738244
 20
139.7765843364
 40
4.0
  0
CIRCLE
  8
0
 62
7
  6
CONTINUOUS
 10
807.0871738244
 20
139.7765843364
 40
3.3
  0
CIRCLE
  8
0
 62
7
  6
CONTINUOUS
 10
807.0516738244
 20
581.7765843364
 40
7.75
  0
CIRCLE
  8
0
 62
7
  6
CONTINUOUS
 10
807.0516738244
 20
581.7765843364
 40
6.7151005033
  0
CIRCLE
  8
0
 62
7
  6
CONTINUOUS
 10
807.0516738244
 20
581.7765843364
 40
5.3531692203
  0
ARC
  8
0
 62
7
  6
CONTINUOUS
 10
755.0516738244
 20
633.7765843364
 40
5.0
 50
90.0
 51
180.0
  0
CIRCLE
  8
0
 62
2
  6
CONTINUOUS
 10
807.0516738244
 20
581.7765843364
 40
4.0
  0
CIRCLE
  8
0
 62
7
  6
CONTINUOUS
 10
807.0516738244
 20
581.7765843364
 40
3.3
  0
CIRCLE
  8
0
 62
7
  6
CONTINUOUS
 10
1249.0516738244
 20
139.7765843364
 40
7.75
  0
CIRCLE
  8
0
 62
7
  6
CONTINUOUS
 10
1249.0516738244
 20
139.7765843364
 40
6.7151005033
  0
CIRCLE
  8
0
 62
7
  6
CONTINUOUS
 10
1249.0516738244
 20
139.7765843364
 40
5.3531692203
  0
ARC
  8
0
 62
7
  6
CONTINUOUS
 10
1301.0516738244
 20
87.7765843364
 40
5.0
 50
270.0
 51
360.0
  0
CIRCLE
  8
0
 62
2
  6
CONTINUOUS
 10
1249.0516738244
 20
139.7765843364
 40
4.0
  0
CIRCLE
  8
0
 62
7
  6
CONTINUOUS
 10
1249.0516738244
 20
139.7765843364
 40
3.3
  0
CIRCLE
  8
0
 62
7
  6
CONTINUOUS
 10
1249.0516738244
 20
581.7765843364
 40
7.75
  0
CIRCLE
  8
0
 62
7
  6
CONTINUOUS
 10
1249.0516738244
 20
581.7765843364
 40
6.7151005033
  0
CIRCLE
  8
0
 62
7
  6
CONTINUOUS
 10
1249.0516738244
 20
581.7765843364
 40
5.3531692203
  0
ARC
  8
0
 62
7
  6
CONTINUOUS
 10
1301.0516738244
 20
633.7765843364
 40
5.0
 50
0.0
 51
90.0
  0
CIRCLE
  8
0
 62
2
  6
CONTINUOUS
 10
1249.0516738244
 20
581.7765843364
 40
4.0
  0
CIRCLE
  8
0
 62
7
  6
CONTINUOUS
 10
1249.0516738244
 20
581.7765843364
 40
3.3
  0
ENDSEC
  0
EOF
