999
DXF file: bsm032.dxf
999
Pro/ENGINEER 2022281 by Parametric Technology Corporation
  0
SECTION
  2
HEADER
  9
$EXTMAX
 10
210.0
 20
297.0
 30
0.0
  9
$EXTMIN
 10
0.0
 20
0.0
 30
0.0
  9
$LIMMIN
 10
0.0
 20
0.0
  9
$LIMMAX
 10
210.0
 20
297.0
  9
$VIEWCTR
 10
105.0
 20
148.5
  9
$VIEWSIZE
 40
297.0
  9
$CLAYER
  8
0
  9
$LTSCALE
 40
19.36
  9
$CELTYPE
  6
BYLAYER
  9
$DIMSCALE
 40
1.0
  9
$DIMASZ
 40
2.0
  9
$DIMEXO
 40
0.05
  9
$DIMDLI
 40
13.376
  9
$DIMEXE
 40
1.0
  9
$DIMCEN
 40
3.168
  9
$DIMLFAC
 40
1.0
  9
$DIMBLK
  1
_FILLED
  9
$DIMALT
 70
0
  9
$DIMALTF
 40
0.0393700787
  9
$DIMTXT
 40
2.5
  9
$AUNITS
 70
0
  9
$PDMODE
 70
3
  9
$PDSIZE
 40
0.3125
  9
$TILEMODE
 70
1
  0
ENDSEC
  0
SECTION
  2
TABLES
  0
TABLE
  2
LTYPE
 70
6
  0
LTYPE
  2
BYBLOCK
 70
0
  3

 72
65
 73
0
 40
0.0
  0
LTYPE
  2
BYLAYER
 70
0
  3

 72
65
 73
0
 40
0.0
  0
LTYPE
  2
CONTINUOUS
 70
64
  3
Solid line
 72
65
 73
0
 40
0.0
  0
LTYPE
  2
CENTER
 70
64
  3
____ _ ____ _ ____ _ ____ _ ____ _ ____ _ ____
 72
65
 73
4
 40
0.6
 49
0.375
 49
-0.075
 49
0.075
 49
-0.075
  0
LTYPE
  2
HIDDEN
 70
64
  3
- - - - - - - - - - - - - - - - - - - -
 72
65
 73
2
 40
0.2
 49
0.1
 49
-0.1
  0
LTYPE
  2
PHANTOM
 70
64
  3
_____ _ _ _____ _ _ _____ _ _ _____
 72
65
 73
6
 40
0.8
 49
0.45
 49
-0.05
 49
0.1
 49
-0.05
 49
0.1
 49
-0.05
  0
LTYPE
  2
DOT
 70
64
  3
. . . . . . . . . . . . . . . . . . . .
 72
65
 73
2
 40
0.2
 49
0.1
 49
-0.1
  0
LTYPE
  2
DASHED
 70
64
  3
- - - - - - - - - - - - - - - - - - - -
 72
65
 73
2
 40
0.2
 49
0.1
 49
-0.1
  0
ENDTAB
  0
TABLE
  2
LAYER
 70
36
  0
LAYER
  2
0
 70
0
 62
7
  6
CONTINUOUS
  0
LAYER
  2
DEFAULT_1
 70
0
 62
7
  6
CENTER
  0
LAYER
  2
DEFAULT_2
 70
0
 62
8
  6
HIDDEN
  0
LAYER
  2
DEFAULT_3
 70
0
 62
7
  6
PHANTOM
  0
LAYER
  2
AUSFORMSCHRAEGEN
 70
0
 62
7
  6
CONTINUOUS
  0
LAYER
  2
BEZUGSACHSEN
 70
0
 62
7
  6
CONTINUOUS
  0
LAYER
  2
BEZUGSEBENEN
 70
0
 62
7
  6
CONTINUOUS
  0
LAYER
  2
BEZUGSPUNKTE
 70
0
 62
7
  6
CONTINUOUS
  0
LAYER
  2
FASEN
 70
0
 62
7
  6
CONTINUOUS
  0
LAYER
  2
FLAECHEN
 70
0
 62
7
  6
CONTINUOUS
  0
LAYER
  2
KONSTRUKTIONSELEMENTE
 70
0
 62
7
  6
CONTINUOUS
  0
LAYER
  2
KOORDINATENSYSTEME
 70
0
 62
7
  6
CONTINUOUS
  0
LAYER
  2
KOPIEGEOMETRIE
 70
0
 62
7
  6
CONTINUOUS
  0
LAYER
  2
RUNDUNGEN
 70
0
 62
7
  6
CONTINUOUS
  0
LAYER
  2
SURFACES
 70
0
 62
7
  6
CONTINUOUS
  0
LAYER
  2
VOLUMEN
 70
0
 62
7
  6
CONTINUOUS
  0
ENDTAB
  0
TABLE
  2
STYLE
 70
1
  0
STYLE
  2
STANDARD
 70
0
 40
0.0
 41
0.8
 50
0.0
 71
0
 42
0.2
  3
txt
  4

  0
STYLE
  2
TEXTSTYLE_1
 70
0
 40
0.0
 41
0.8
 50
0.0
 71
0
 42
0.2
  3
gdt
  4

  0
ENDTAB
  0
ENDSEC
  0
SECTION
  2
BLOCKS
  0
BLOCK
  8
0
  2
_FILLED
 70
64
 10
0.0
 20
0.0
  0
SOLID
  8
0
  6
BYBLOCK
 62
0
 10
0.0
 20
0.0
 11
-1.0
 21
0.2
 12
-1.0
 22
-0.2
 13
-1.0
 23
-0.2
  0
ENDBLK
  8
0
  6
BYBLOCK
 62
0
  0
BLOCK
  8
0
 62
2
  6
CONTINUOUS
  2
*D0
 70
65
 10
0.0
 20
0.0
  0
TEXT
  8
0
 62
2
  6
CONTINUOUS
 10
155.1179122565
 20
140.5327773451
  7
STANDARD
 40
2.5
  1
1.5
 50
90.0
 41
0.619047619
 72
0
  0
LINE
  8
0
 62
2
  6
CONTINUOUS
 10
149.5241310645
 20
132.8491948476
 11
156.7429122565
 21
132.8491948476
  0
LINE
  8
0
 62
2
  6
CONTINUOUS
 10
149.5241310645
 20
134.3491948476
 11
156.7429122565
 21
134.3491948476
  0
LINE
  8
0
 62
2
  6
CONTINUOUS
 10
155.7429122565
 20
132.8491948476
 11
155.7429122565
 21
130.8491948476
  0
LINE
  8
0
 62
2
  6
CONTINUOUS
 10
155.7429122565
 20
130.8491948476
 11
155.7429122565
 21
133.5991948476
  0
LINE
  8
0
 62
2
  6
CONTINUOUS
 10
155.7429122565
 20
134.3491948476
 11
155.7429122565
 21
145.175634488
  0
LINE
  8
0
 62
2
  6
CONTINUOUS
 10
155.7429122565
 20
145.175634488
 11
155.7429122565
 21
133.5991948476
  0
INSERT
  8
0
 62
2
  6
CONTINUOUS
  2
_FILLED
 10
155.7429122565
 20
132.8491948476
 41
2.0
 42
2.0
 43
2.0
 50
90.0
  0
INSERT
  8
0
 62
2
  6
CONTINUOUS
  2
_FILLED
 10
155.7429122565
 20
134.3491948476
 41
2.0
 42
2.0
 43
2.0
 50
270.0
  0
ENDBLK
  8
0
  6
BYBLOCK
 62
0
  0
BLOCK
  8
0
 62
2
  6
CONTINUOUS
  2
*D1
 70
65
 10
0.0
 20
0.0
  0
TEXT
  8
0
 62
2
  6
CONTINUOUS
 10
107.7602289893
 20
252.5032861041
  7
STANDARD
 40
2.5
  1
77
 41
0.7857142857
 72
1
 11
109.7245147036
 21
252.5032861041
  0
LINE
  8
0
 62
2
  6
CONTINUOUS
 10
71.2245147036
 20
244.4387808861
 11
71.2245147036
 21
252.8782861041
  0
LINE
  8
0
 62
2
  6
CONTINUOUS
 10
148.2245147036
 20
244.4387808861
 11
148.2245147036
 21
252.8782861041
  0
LINE
  8
0
 62
2
  6
CONTINUOUS
 10
71.2245147036
 20
251.8782861041
 11
109.7245147036
 21
251.8782861041
  0
LINE
  8
0
 62
2
  6
CONTINUOUS
 10
148.2245147036
 20
251.8782861041
 11
109.7245147036
 21
251.8782861041
  0
INSERT
  8
0
 62
2
  6
CONTINUOUS
  2
_FILLED
 10
71.2245147036
 20
251.8782861041
 41
2.0
 42
2.0
 43
2.0
 50
180.0
  0
INSERT
  8
0
 62
2
  6
CONTINUOUS
  2
_FILLED
 10
148.2245147036
 20
251.8782861041
 41
2.0
 42
2.0
 43
2.0
  0
ENDBLK
  8
0
  6
BYBLOCK
 62
0
  0
BLOCK
  8
0
 62
2
  6
CONTINUOUS
  2
*D2
 70
65
 10
0.0
 20
0.0
  0
TEXT
  8
0
 62
2
  6
CONTINUOUS
 10
158.1748992822
 20
226.1030666004
  7
STANDARD
 40
2.5
  1
35
 50
90.0
 41
0.7142857143
 72
1
 11
158.1748992822
 21
227.8887808861
  0
LINE
  8
0
 62
2
  6
CONTINUOUS
 10
143.4745147036
 20
245.3887808861
 11
159.7998992822
 21
245.3887808861
  0
LINE
  8
0
 62
2
  6
CONTINUOUS
 10
109.7745147036
 20
210.3887808861
 11
159.7998992822
 21
210.3887808861
  0
LINE
  8
0
 62
2
  6
CONTINUOUS
 10
158.7998992822
 20
245.3887808861
 11
158.7998992822
 21
227.8887808861
  0
LINE
  8
0
 62
2
  6
CONTINUOUS
 10
158.7998992822
 20
210.3887808861
 11
158.7998992822
 21
227.8887808861
  0
INSERT
  8
0
 62
2
  6
CONTINUOUS
  2
_FILLED
 10
158.7998992822
 20
245.3887808861
 41
2.0
 42
2.0
 43
2.0
 50
90.0
  0
INSERT
  8
0
 62
2
  6
CONTINUOUS
  2
_FILLED
 10
158.7998992822
 20
210.3887808861
 41
2.0
 42
2.0
 43
2.0
 50
270.0
  0
ENDBLK
  8
0
  6
BYBLOCK
 62
0
  0
BLOCK
  8
0
 62
2
  6
CONTINUOUS
  2
*D3
 70
65
 10
0.0
 20
0.0
  0
TEXT
  8
0
 62
2
  6
CONTINUOUS
 10
97.3316575607
 20
204.4423414105
  7
STANDARD
 40
2.5
  1
14.9
 41
0.6785714286
 72
1
 11
100.7245147036
 21
204.4423414105
  0
LINE
  8
0
 62
2
  6
CONTINUOUS
 10
93.2745147036
 20
241.3387808861
 11
93.2745147036
 21
202.8173414105
  0
LINE
  8
0
 62
2
  6
CONTINUOUS
 10
108.1745147036
 20
241.3387808861
 11
108.1745147036
 21
202.8173414105
  0
LINE
  8
0
 62
2
  6
CONTINUOUS
 10
93.2745147036
 20
203.8173414105
 11
91.2745147036
 21
203.8173414105
  0
LINE
  8
0
 62
2
  6
CONTINUOUS
 10
91.2745147036
 20
203.8173414105
 11
100.7245147036
 21
203.8173414105
  0
LINE
  8
0
 62
2
  6
CONTINUOUS
 10
108.1745147036
 20
203.8173414105
 11
110.1745147036
 21
203.8173414105
  0
LINE
  8
0
 62
2
  6
CONTINUOUS
 10
110.1745147036
 20
203.8173414105
 11
100.7245147036
 21
203.8173414105
  0
INSERT
  8
0
 62
2
  6
CONTINUOUS
  2
_FILLED
 10
93.2745147036
 20
203.8173414105
 41
2.0
 42
2.0
 43
2.0
  0
INSERT
  8
0
 62
2
  6
CONTINUOUS
  2
_FILLED
 10
108.1745147036
 20
203.8173414105
 41
2.0
 42
2.0
 43
2.0
 50
180.0
  0
ENDBLK
  8
0
  6
BYBLOCK
 62
0
  0
BLOCK
  8
0
 62
2
  6
CONTINUOUS
  2
*D4
 70
65
 10
0.0
 20
0.0
  0
TEXT
  8
0
 62
2
  6
CONTINUOUS
 10
58.1056729699
 20
227.1959237432
  7
STANDARD
 40
2.5
  1
21.6
 50
90.0
 41
0.6785714286
 72
1
 11
58.1056729699
 21
230.5887808861
  0
LINE
  8
0
 62
2
  6
CONTINUOUS
 10
97.5745147036
 20
219.7887808861
 11
57.7306729699
 21
219.7887808861
  0
LINE
  8
0
 62
2
  6
CONTINUOUS
 10
93.2245147036
 20
241.3887808861
 11
57.7306729699
 21
241.3887808861
  0
LINE
  8
0
 62
2
  6
CONTINUOUS
 10
58.7306729699
 20
219.7887808861
 11
58.7306729699
 21
230.5887808861
  0
LINE
  8
0
 62
2
  6
CONTINUOUS
 10
58.7306729699
 20
241.3887808861
 11
58.7306729699
 21
230.5887808861
  0
INSERT
  8
0
 62
2
  6
CONTINUOUS
  2
_FILLED
 10
58.7306729699
 20
219.7887808861
 41
2.0
 42
2.0
 43
2.0
 50
270.0
  0
INSERT
  8
0
 62
2
  6
CONTINUOUS
  2
_FILLED
 10
58.7306729699
 20
241.3887808861
 41
2.0
 42
2.0
 43
2.0
 50
90.0
  0
ENDBLK
  8
0
  6
BYBLOCK
 62
0
  0
ENDSEC
  0
SECTION
  2
ENTITIES
  0
DIMENSION
  8
0
 62
2
  6
CONTINUOUS
  2
*D0
 10
155.7429122565
 20
134.3491948476
 11
155.7429122565
 21
142.4970613777
 70
128
 13
149.4741310645
 23
132.8491948476
 14
149.4741310645
 24
134.3491948476
 50
90.0
  0
DIMENSION
  8
0
 62
2
  6
CONTINUOUS
  2
*D1
 10
148.2245147036
 20
251.8782861041
 11
109.3673759766
 21
251.8782861041
 70
128
 13
71.2245147036
 23
244.3887808861
 14
148.2245147036
 24
244.3887808861
  0
DIMENSION
  8
0
 62
2
  6
CONTINUOUS
  2
*D2
 10
158.7998992822
 20
210.3887808861
 11
158.7998992822
 21
227.531640951
 70
128
 13
143.4245147036
 23
245.3887808861
 14
109.7245147036
 24
210.3887808861
 50
270.0
  0
DIMENSION
  8
0
 62
2
  6
CONTINUOUS
  2
*D3
 10
108.1745147036
 20
203.8173414105
 11
100.3673725586
 21
203.8173414105
 70
128
 13
93.2745147036
 23
241.3887808861
 14
108.1745147036
 24
241.3887808861
  0
DIMENSION
  8
0
 62
2
  6
CONTINUOUS
  2
*D4
 10
58.7306729699
 20
241.3887808861
 11
58.7306729699
 21
230.2316340741
 70
128
 13
97.6245147036
 23
219.7887808861
 14
93.2745147036
 24
241.3887808861
 50
90.0
  0
TEXT
  8
0
 62
2
  6
CONTINUOUS
 10
106.1527200997
 20
21.4684336862
  7
STANDARD
 40
2.5
  1
1:1
 41
0.5
 72
2
 11
109.9027200997
 21
21.4684336862
  0
TEXT
  8
0
 62
2
  6
CONTINUOUS
 10
106.3152212439
 20
197.2469543832
  7
STANDARD
 40
2.5
  1
1:1
 41
0.5
 72
2
 11
110.0652212439
 21
197.2469543832
  0
TEXT
  8
0
 62
2
  6
CONTINUOUS
 10
107.2241310645
 20
127.3391948476
  7
STANDARD
 40
2.5
  1
1:1
 41
0.5
 72
2
 11
110.9741310645
 21
127.3391948476
  0
LINE
  8
0
 62
7
  6
CONTINUOUS
 10
0.0
 20
0.0
 11
210.0
 21
0.0
  0
LINE
  8
0
 62
7
  6
CONTINUOUS
 10
0.0
 20
0.0
 11
0.0
 21
297.0
  0
LINE
  8
0
 62
7
  6
CONTINUOUS
 10
210.0
 20
0.0
 11
210.0
 21
297.0
  0
LINE
  8
0
 62
7
  6
CONTINUOUS
 10
0.0
 20
297.0
 11
210.0
 21
297.0
  0
LINE
  8
0
 62
7
  6
CONTINUOUS
 10
82.1488900731
 20
44.0196983594
 11
82.1488900731
 21
41.570191108
  0
LINE
  8
0
 62
7
  6
CONTINUOUS
 10
83.2095546608
 20
43.4073372276
 11
83.2095546608
 21
40.9578299762
  0
LINE
  8
0
 62
7
  6
CONTINUOUS
 10
90.2735131627
 20
29.0110517691
 11
91.3341777504
 21
28.3986906373
  0
LINE
  8
0
 62
7
  6
CONTINUOUS
 10
82.1488900731
 20
41.570191108
 11
90.2735131627
 21
29.0110517691
  0
LINE
  8
0
 62
7
  6
CONTINUOUS
 10
83.2095546608
 20
40.9578299762
 11
91.3341777504
 21
28.3986906373
  0
LINE
  8
0
 62
7
  6
CONTINUOUS
 10
85.5429884917
 20
46.7957727151
 11
85.5429884917
 21
45.5710190894
  0
LINE
  8
0
 62
7
  6
CONTINUOUS
 10
98.0587264104
 20
27.590794818
 11
99.1193909981
 21
26.9784336862
  0
POLYLINE
  8
0
 62
7
  6
CONTINUOUS
 66
1
 70
0
  0
VERTEX
  8
0
 62
7
  6
CONTINUOUS
 10
86.3915219283
 20
41.9784262515
  0
VERTEX
  8
0
 62
7
  6
CONTINUOUS
 10
86.3925642712
 20
41.9347589505
  0
VERTEX
  8
0
 62
7
  6
CONTINUOUS
 10
86.3956670012
 20
41.8925399564
  0
VERTEX
  8
0
 62
7
  6
CONTINUOUS
 10
86.4008391949
 20
41.8517105806
  0
VERTEX
  8
0
 62
7
  6
CONTINUOUS
 10
86.408053623
 20
41.8124468889
  0
VERTEX
  8
0
 62
7
  6
CONTINUOUS
 10
86.4172980655
 20
41.7748711918
  0
VERTEX
  8
0
 62
7
  6
CONTINUOUS
 10
86.4285365718
 20
41.7390860672
  0
VERTEX
  8
0
 62
7
  6
CONTINUOUS
 10
86.4417448805
 20
41.7052045895
  0
VERTEX
  8
0
 62
7
  6
CONTINUOUS
 10
86.4568757037
 20
41.6733175798
  0
VERTEX
  8
0
 62
7
  6
CONTINUOUS
 10
86.4738930232
 20
41.6435275508
  0
VERTEX
  8
0
 62
7
  6
CONTINUOUS
 10
86.4927387683
 20
41.615912502
  0
VERTEX
  8
0
 62
7
  6
CONTINUOUS
 10
86.5133655862
 20
41.5905631826
  0
VERTEX
  8
0
 62
7
  6
CONTINUOUS
 10
86.5357053039
 20
41.5675438559
  0
VERTEX
  8
0
 62
7
  6
CONTINUOUS
 10
86.5596997896
 20
41.5469324437
  0
VERTEX
  8
0
 62
7
  6
CONTINUOUS
 10
86.5852715673
 20
41.5287787197
  0
VERTEX
  8
0
 62
7
  6
CONTINUOUS
 10
86.5986441846
 20
41.5206343678
  0
SEQEND
  0
POLYLINE
  8
0
 62
7
  6
CONTINUOUS
 66
1
 70
0
  0
VERTEX
  8
0
 62
7
  6
CONTINUOUS
 10
87.8057296027
 20
42.7949145593
  0
VERTEX
  8
0
 62
7
  6
CONTINUOUS
 10
87.8046872598
 20
42.8385818603
  0
VERTEX
  8
0
 62
7
  6
CONTINUOUS
 10
87.8015845297
 20
42.8808008544
  0
VERTEX
  8
0
 62
7
  6
CONTINUOUS
 10
87.796412336
 20
42.9216302302
  0
VERTEX
  8
0
 62
7
  6
CONTINUOUS
 10
87.7891979079
 20
42.9608939219
  0
VERTEX
  8
0
 62
7
  6
CONTINUOUS
 10
87.7799534654
 20
42.998469619
  0
VERTEX
  8
0
 62
7
  6
CONTINUOUS
 10
87.7687149592
 20
43.0342547436
  0
VERTEX
  8
0
 62
7
  6
CONTINUOUS
 10
87.7555066505
 20
43.0681362213
  0
VERTEX
  8
0
 62
7
  6
CONTINUOUS
 10
87.7403758273
 20
43.100023231
  0
VERTEX
  8
0
 62
7
  6
CONTINUOUS
 10
87.7233585077
 20
43.12981326
  0
VERTEX
  8
0
 62
7
  6
CONTINUOUS
 10
87.7045127627
 20
43.1574283088
  0
VERTEX
  8
0
 62
7
  6
CONTINUOUS
 10
87.6838859448
 20
43.1827776282
  0
VERTEX
  8
0
 62
7
  6
CONTINUOUS
 10
87.661546227
 20
43.2057969549
  0
VERTEX
  8
0
 62
7
  6
CONTINUOUS
 10
87.6375517413
 20
43.2264083671
  0
VERTEX
  8
0
 62
7
  6
CONTINUOUS
 10
87.6119799636
 20
43.2445620911
  0
VERTEX
  8
0
 62
7
  6
CONTINUOUS
 10
87.5986073464
 20
43.252706443
  0
SEQEND
  0
LINE
  8
0
 62
7
  6
CONTINUOUS
 10
85.8965492422
 20
44.5504138038
 11
85.8965492422
 21
44.9586650123
  0
LINE
  8
0
 62
7
  6
CONTINUOUS
 10
86.6036530794
 20
46.1834115833
 11
86.6036530794
 21
44.9586579576
  0
LINE
  8
0
 62
7
  6
CONTINUOUS
 10
82.1488900731
 20
41.570191108
 11
83.2095546608
 21
40.9578299762
  0
POLYLINE
  8
0
 62
7
  6
CONTINUOUS
 66
1
 70
0
  0
VERTEX
  8
0
 62
7
  6
CONTINUOUS
 10
99.1193909981
 20
26.9784336862
  0
VERTEX
  8
0
 62
7
  6
CONTINUOUS
 10
99.7633520348
 20
27.1069819618
  0
VERTEX
  8
0
 62
7
  6
CONTINUOUS
 10
100.4109919901
 20
27.2520257122
  0
VERTEX
  8
0
 62
7
  6
CONTINUOUS
 10
101.0624307454
 20
27.4135961003
  0
VERTEX
  8
0
 62
7
  6
CONTINUOUS
 10
101.7173086565
 20
27.5915996374
  0
VERTEX
  8
0
 62
7
  6
CONTINUOUS
 10
102.3753871352
 20
27.7859800074
  0
VERTEX
  8
0
 62
7
  6
CONTINUOUS
 10
103.0364228955
 20
27.9966568561
  0
VERTEX
  8
0
 62
7
  6
CONTINUOUS
 10
103.7001748225
 20
28.2235617937
  0
VERTEX
  8
0
 62
7
  6
CONTINUOUS
 10
104.3663978145
 20
28.4666026111
  0
VERTEX
  8
0
 62
7
  6
CONTINUOUS
 10
105.0348485841
 20
28.7256989454
  0
VERTEX
  8
0
 62
7
  6
CONTINUOUS
 10
105.7052805738
 20
29.0007468678
  0
VERTEX
  8
0
 62
7
  6
CONTINUOUS
 10
106.3774486808
 20
29.2916541604
  0
VERTEX
  8
0
 62
7
  6
CONTINUOUS
 10
107.051105254
 20
29.5983053272
  0
VERTEX
  8
0
 62
7
  6
CONTINUOUS
 10
107.726003735
 20
29.9205964307
  0
VERTEX
  8
0
 62
7
  6
CONTINUOUS
 10
108.4018957427
 20
30.2584005772
  0
VERTEX
  8
0
 62
7
  6
CONTINUOUS
 10
109.0785336252
 20
30.6116022625
  0
VERTEX
  8
0
 62
7
  6
CONTINUOUS
 10
109.755668636
 20
30.9800633815
  0
VERTEX
  8
0
 62
7
  6
CONTINUOUS
 10
110.4330523935
 20
31.3636570325
  0
VERTEX
  8
0
 62
7
  6
CONTINUOUS
 10
111.110436151
 20
31.7622341021
  0
VERTEX
  8
0
 62
7
  6
CONTINUOUS
 10
111.7875711619
 20
32.1756564774
  0
VERTEX
  8
0
 62
7
  6
CONTINUOUS
 10
112.4642090444
 20
32.6037642556
  0
VERTEX
  8
0
 62
7
  6
CONTINUOUS
 10
113.140101052
 20
33.0464083155
  0
VERTEX
  8
0
 62
7
  6
CONTINUOUS
 10
113.8149995331
 20
33.5034181996
  0
VERTEX
  8
0
 62
7
  6
CONTINUOUS
 10
114.4886561062
 20
33.9746339973
  0
VERTEX
  8
0
 62
7
  6
CONTINUOUS
 10
115.1608242132
 20
34.4598749467
  0
VERTEX
  8
0
 62
7
  6
CONTINUOUS
 10
115.8312562029
 20
34.9589705828
  0
VERTEX
  8
0
 62
7
  6
CONTINUOUS
 10
116.4997069725
 20
35.4717301046
  0
VERTEX
  8
0
 62
7
  6
CONTINUOUS
 10
117.1659299645
 20
35.9979727428
  0
VERTEX
  8
0
 62
7
  6
CONTINUOUS
 10
117.8296818915
 20
36.5374979377
  0
VERTEX
  8
0
 62
7
  6
CONTINUOUS
 10
118.4907176518
 20
37.0901148811
  0
VERTEX
  8
0
 62
7
  6
CONTINUOUS
 10
119.1487961306
 20
37.6556135489
  0
VERTEX
  8
0
 62
7
  6
CONTINUOUS
 10
119.8036740417
 20
38.2337933745
  0
VERTEX
  8
0
 62
7
  6
CONTINUOUS
 10
120.4551127969
 20
38.8244351777
  0
VERTEX
  8
0
 62
7
  6
CONTINUOUS
 10
121.1027527522
 20
39.4272171684
  0
VERTEX
  8
0
 62
7
  6
CONTINUOUS
 10
121.7467137889
 20
40.0422466101
  0
SEQEND
  0
LINE
  8
0
 62
7
  6
CONTINUOUS
 10
91.3341777504
 20
28.3986906373
 11
99.1193909981
 21
29.0775610764
  0
POLYLINE
  8
0
 62
7
  6
CONTINUOUS
 66
1
 70
0
  0
VERTEX
  8
0
 62
7
  6
CONTINUOUS
 10
86.5986441846
 20
41.5206343678
  0
VERTEX
  8
0
 62
7
  6
CONTINUOUS
 10
86.6123524074
 20
41.5131468646
  0
VERTEX
  8
0
 62
7
  6
CONTINUOUS
 10
86.6408564393
 20
41.5000715791
  0
VERTEX
  8
0
 62
7
  6
CONTINUOUS
 10
86.6707061357
 20
41.4896025504
  0
VERTEX
  8
0
 62
7
  6
CONTINUOUS
 10
86.7018082382
 20
41.4817589991
  0
VERTEX
  8
0
 62
7
  6
CONTINUOUS
 10
86.7340768303
 20
41.4765755365
  0
VERTEX
  8
0
 62
7
  6
CONTINUOUS
 10
86.7674123597
 20
41.474055678
  0
VERTEX
  8
0
 62
7
  6
CONTINUOUS
 10
86.801721528
 20
41.4742185529
  0
VERTEX
  8
0
 62
7
  6
CONTINUOUS
 10
86.8368996555
 20
41.4770519302
  0
VERTEX
  8
0
 62
7
  6
CONTINUOUS
 10
86.8728471564
 20
41.4825592331
  0
VERTEX
  8
0
 62
7
  6
CONTINUOUS
 10
86.9094554507
 20
41.4907126273
  0
VERTEX
  8
0
 62
7
  6
CONTINUOUS
 10
86.9466198325
 20
41.50149979
  0
VERTEX
  8
0
 62
7
  6
CONTINUOUS
 10
86.9842290949
 20
41.5148776102
  0
VERTEX
  8
0
 62
7
  6
CONTINUOUS
 10
87.0221746392
 20
41.5308181631
  0
VERTEX
  8
0
 62
7
  6
CONTINUOUS
 10
87.0603439355
 20
41.5492635665
  0
VERTEX
  8
0
 62
7
  6
CONTINUOUS
 10
87.0986257655
 20
41.5701706213
  0
VERTEX
  8
0
 62
7
  6
CONTINUOUS
 10
87.1369075955
 20
41.5934673523
  0
VERTEX
  8
0
 62
7
  6
CONTINUOUS
 10
87.1750768917
 20
41.6190957928
  0
VERTEX
  8
0
 62
7
  6
CONTINUOUS
 10
87.213022436
 20
41.6469707188
  0
VERTEX
  8
0
 62
7
  6
CONTINUOUS
 10
87.2506316985
 20
41.677020075
  0
VERTEX
  8
0
 62
7
  6
CONTINUOUS
 10
87.2877960802
 20
41.7091463877
  0
VERTEX
  8
0
 62
7
  6
CONTINUOUS
 10
87.3244043746
 20
41.7432643583
  0
VERTEX
  8
0
 62
7
  6
CONTINUOUS
 10
87.3603518754
 20
41.7792654063
  0
VERTEX
  8
0
 62
7
  6
CONTINUOUS
 10
87.3955300029
 20
41.8170519894
  0
VERTEX
  8
0
 62
7
  6
CONTINUOUS
 10
87.4298391713
 20
41.8565056931
  0
VERTEX
  8
0
 62
7
  6
CONTINUOUS
 10
87.4631747006
 20
41.8975178755
  0
VERTEX
  8
0
 62
7
  6
CONTINUOUS
 10
87.4954432928
 20
41.9399616764
  0
VERTEX
  8
0
 62
7
  6
CONTINUOUS
 10
87.5265453953
 20
41.9837186278
  0
VERTEX
  8
0
 62
7
  6
CONTINUOUS
 10
87.5563950916
 20
42.0286549112
  0
VERTEX
  8
0
 62
7
  6
CONTINUOUS
 10
87.5848991236
 20
42.0746436213
  0
VERTEX
  8
0
 62
7
  6
CONTINUOUS
 10
87.6119799636
 20
42.1215455503
  0
VERTEX
  8
0
 62
7
  6
CONTINUOUS
 10
87.6375517413
 20
42.1692268436
  0
VERTEX
  8
0
 62
7
  6
CONTINUOUS
 10
87.661546227
 20
42.2175445359
  0
VERTEX
  8
0
 62
7
  6
CONTINUOUS
 10
87.6838859448
 20
42.2663593928
  0
VERTEX
  8
0
 62
7
  6
CONTINUOUS
 10
87.7045127627
 20
42.3155263677
  0
VERTEX
  8
0
 62
7
  6
CONTINUOUS
 10
87.7233585077
 20
42.3649024786
  0
VERTEX
  8
0
 62
7
  6
CONTINUOUS
 10
87.7403758273
 20
42.4143422983
  0
VERTEX
  8
0
 62
7
  6
CONTINUOUS
 10
87.7555066505
 20
42.4637007734
  0
VERTEX
  8
0
 62
7
  6
CONTINUOUS
 10
87.7687149592
 20
42.5128338013
  0
VERTEX
  8
0
 62
7
  6
CONTINUOUS
 10
87.7799534654
 20
42.5615959577
  0
VERTEX
  8
0
 62
7
  6
CONTINUOUS
 10
87.7891979079
 20
42.6098461538
  0
VERTEX
  8
0
 62
7
  6
CONTINUOUS
 10
87.796412336
 20
42.6574402997
  0
VERTEX
  8
0
 62
7
  6
CONTINUOUS
 10
87.8015845297
 20
42.7042419747
  0
VERTEX
  8
0
 62
7
  6
CONTINUOUS
 10
87.8046872598
 20
42.7500436715
  0
VERTEX
  8
0
 62
7
  6
CONTINUOUS
 10
87.8057296027
 20
42.7949145593
  0
SEQEND
  0
LINE
  8
0
 62
7
  6
CONTINUOUS
 10
82.1488900731
 20
44.0196983594
 11
83.2095546608
 21
43.4073372276
  0
LINE
  8
0
 62
7
  6
CONTINUOUS
 10
91.9069318585
 20
48.0204891117
 11
91.9069318585
 21
49.2452427374
  0
LINE
  8
0
 62
7
  6
CONTINUOUS
 10
92.6140356957
 20
48.8369844741
 11
92.6140356957
 21
48.4287332656
  0
POLYLINE
  8
0
 62
7
  6
CONTINUOUS
 66
1
 70
0
  0
VERTEX
  8
0
 62
7
  6
CONTINUOUS
 10
87.5986073464
 20
43.252706443
  0
VERTEX
  8
0
 62
7
  6
CONTINUOUS
 10
87.5848991236
 20
43.2601939462
  0
VERTEX
  8
0
 62
7
  6
CONTINUOUS
 10
87.5563950916
 20
43.2732692317
  0
VERTEX
  8
0
 62
7
  6
CONTINUOUS
 10
87.5265453953
 20
43.2837382604
  0
VERTEX
  8
0
 62
7
  6
CONTINUOUS
 10
87.4954432928
 20
43.2915818117
  0
VERTEX
  8
0
 62
7
  6
CONTINUOUS
 10
87.4631747006
 20
43.2967652742
  0
VERTEX
  8
0
 62
7
  6
CONTINUOUS
 10
87.4298391713
 20
43.2992851328
  0
VERTEX
  8
0
 62
7
  6
CONTINUOUS
 10
87.3955300029
 20
43.2991222578
  0
VERTEX
  8
0
 62
7
  6
CONTINUOUS
 10
87.3603518754
 20
43.2962888806
  0
VERTEX
  8
0
 62
7
  6
CONTINUOUS
 10
87.3244043746
 20
43.2907815777
  0
VERTEX
  8
0
 62
7
  6
CONTINUOUS
 10
87.2877960802
 20
43.2826281835
  0
VERTEX
  8
0
 62
7
  6
CONTINUOUS
 10
87.2506316985
 20
43.2718410208
  0
VERTEX
  8
0
 62
7
  6
CONTINUOUS
 10
87.213022436
 20
43.2584632006
  0
VERTEX
  8
0
 62
7
  6
CONTINUOUS
 10
87.1750768917
 20
43.2425226477
  0
VERTEX
  8
0
 62
7
  6
CONTINUOUS
 10
87.1369075955
 20
43.2240772443
  0
VERTEX
  8
0
 62
7
  6
CONTINUOUS
 10
87.0986257655
 20
43.2031701895
  0
VERTEX
  8
0
 62
7
  6
CONTINUOUS
 10
87.0603439355
 20
43.1798734585
  0
VERTEX
  8
0
 62
7
  6
CONTINUOUS
 10
87.0221746392
 20
43.1542450179
  0
VERTEX
  8
0
 62
7
  6
CONTINUOUS
 10
86.9842290949
 20
43.126370092
  0
VERTEX
  8
0
 62
7
  6
CONTINUOUS
 10
86.9466198325
 20
43.0963207358
  0
VERTEX
  8
0
 62
7
  6
CONTINUOUS
 10
86.9094554507
 20
43.0641944231
  0
VERTEX
  8
0
 62
7
  6
CONTINUOUS
 10
86.8728471564
 20
43.0300764524
  0
VERTEX
  8
0
 62
7
  6
CONTINUOUS
 10
86.8368996555
 20
42.9940754045
  0
VERTEX
  8
0
 62
7
  6
CONTINUOUS
 10
86.801721528
 20
42.9562888214
  0
VERTEX
  8
0
 62
7
  6
CONTINUOUS
 10
86.7674123597
 20
42.9168351177
  0
VERTEX
  8
0
 62
7
  6
CONTINUOUS
 10
86.7340768303
 20
42.8758229353
  0
VERTEX
  8
0
 62
7
  6
CONTINUOUS
 10
86.7018082382
 20
42.8333791344
  0
VERTEX
  8
0
 62
7
  6
CONTINUOUS
 10
86.6707061357
 20
42.789622183
  0
VERTEX
  8
0
 62
7
  6
CONTINUOUS
 10
86.6408564393
 20
42.7446858996
  0
VERTEX
  8
0
 62
7
  6
CONTINUOUS
 10
86.6123524074
 20
42.6986971895
  0
VERTEX
  8
0
 62
7
  6
CONTINUOUS
 10
86.5852715673
 20
42.6517952605
  0
VERTEX
  8
0
 62
7
  6
CONTINUOUS
 10
86.5596997896
 20
42.6041139672
  0
VERTEX
  8
0
 62
7
  6
CONTINUOUS
 10
86.5357053039
 20
42.5557962749
  0
VERTEX
  8
0
 62
7
  6
CONTINUOUS
 10
86.5133655862
 20
42.506981418
  0
VERTEX
  8
0
 62
7
  6
CONTINUOUS
 10
86.4927387683
 20
42.4578144431
  0
VERTEX
  8
0
 62
7
  6
CONTINUOUS
 10
86.4738930232
 20
42.4084383322
  0
VERTEX
  8
0
 62
7
  6
CONTINUOUS
 10
86.4568757037
 20
42.3589985125
  0
VERTEX
  8
0
 62
7
  6
CONTINUOUS
 10
86.4417448805
 20
42.3096400374
  0
VERTEX
  8
0
 62
7
  6
CONTINUOUS
 10
86.4285365718
 20
42.2605070095
  0
VERTEX
  8
0
 62
7
  6
CONTINUOUS
 10
86.4172980655
 20
42.2117448531
  0
VERTEX
  8
0
 62
7
  6
CONTINUOUS
 10
86.408053623
 20
42.163494657
  0
VERTEX
  8
0
 62
7
  6
CONTINUOUS
 10
86.4008391949
 20
42.1159005111
  0
VERTEX
  8
0
 62
7
  6
CONTINUOUS
 10
86.3956670012
 20
42.0690988361
  0
VERTEX
  8
0
 62
7
  6
CONTINUOUS
 10
86.3925642712
 20
42.0232971393
  0
VERTEX
  8
0
 62
7
  6
CONTINUOUS
 10
86.3915219283
 20
41.9784262515
  0
SEQEND
  0
LINE
  8
0
 62
7
  6
CONTINUOUS
 10
100.5335986725
 20
35.1196648538
 11
99.4729340848
 21
35.7320259856
  0
LINE
  8
0
 62
7
  6
CONTINUOUS
 10
101.8770959632
 20
35.078826329
 11
100.8164313755
 21
35.6911874608
  0
LINE
  8
0
 62
7
  6
CONTINUOUS
 10
84.8358846545
 20
45.5710261441
 11
85.8965492422
 21
44.9586650123
  0
LINE
  8
0
 62
7
  6
CONTINUOUS
 10
85.5429884917
 20
45.5710190894
 11
86.6036530794
 21
44.9586579576
  0
LINE
  8
0
 62
7
  6
CONTINUOUS
 10
85.5429884917
 20
46.7957727151
 11
86.6036530794
 21
46.1834115833
  0
LINE
  8
0
 62
7
  6
CONTINUOUS
 10
106.261139754
 20
36.6301371824
 11
105.2004751662
 21
37.2424983142
  0
POLYLINE
  8
0
 62
7
  6
CONTINUOUS
 66
1
 70
0
  0
VERTEX
  8
0
 62
7
  6
CONTINUOUS
 10
109.5330555241
 20
32.5809156534
  0
VERTEX
  8
0
 62
7
  6
CONTINUOUS
 10
109.5118949577
 20
32.5937256939
  0
VERTEX
  8
0
 62
7
  6
CONTINUOUS
 10
109.4711442303
 20
32.6219568957
  0
VERTEX
  8
0
 62
7
  6
CONTINUOUS
 10
109.4325762309
 20
32.6536322498
  0
VERTEX
  8
0
 62
7
  6
CONTINUOUS
 10
109.396270787
 20
32.6886684572
  0
VERTEX
  8
0
 62
7
  6
CONTINUOUS
 10
109.3623179712
 20
32.7269974375
  0
VERTEX
  8
0
 62
7
  6
CONTINUOUS
 10
109.3307865985
 20
32.7685213573
  0
VERTEX
  8
0
 62
7
  6
CONTINUOUS
 10
109.3017564482
 20
32.8131568506
  0
VERTEX
  8
0
 62
7
  6
CONTINUOUS
 10
109.2752846997
 20
32.8607924358
  0
VERTEX
  8
0
 62
7
  6
CONTINUOUS
 10
109.2514401165
 20
32.9113302161
  0
VERTEX
  8
0
 62
7
  6
CONTINUOUS
 10
109.2302677244
 20
32.9646460714
  0
VERTEX
  8
0
 62
7
  6
CONTINUOUS
 10
109.2118246486
 20
33.0206284609
  0
VERTEX
  8
0
 62
7
  6
CONTINUOUS
 10
109.1961433533
 20
33.0791417497
  0
VERTEX
  8
0
 62
7
  6
CONTINUOUS
 10
109.1832688082
 20
33.140061763
  0
VERTEX
  8
0
 62
7
  6
CONTINUOUS
 10
109.173220622
 20
33.2032425799
  0
VERTEX
  8
0
 62
7
  6
CONTINUOUS
 10
109.1660312015
 20
33.2685485161
  0
VERTEX
  8
0
 62
7
  6
CONTINUOUS
 10
109.1617071224
 20
33.3358246857
  0
VERTEX
  8
0
 62
7
  6
CONTINUOUS
 10
109.1602679349
 20
33.4049251241
  0
VERTEX
  8
0
 62
7
  6
CONTINUOUS
 10
109.1617071224
 20
33.4756873831
  0
VERTEX
  8
0
 62
7
  6
CONTINUOUS
 10
109.1660312015
 20
33.5479565394
  0
VERTEX
  8
0
 62
7
  6
CONTINUOUS
 10
109.173220622
 20
33.6215640539
  0
VERTEX
  8
0
 62
7
  6
CONTINUOUS
 10
109.1832688082
 20
33.6963474474
  0
VERTEX
  8
0
 62
7
  6
CONTINUOUS
 10
109.1961433533
 20
33.7721336162
  0
VERTEX
  8
0
 62
7
  6
CONTINUOUS
 10
109.2118246486
 20
33.848753997
  0
VERTEX
  8
0
 62
7
  6
CONTINUOUS
 10
109.2302677244
 20
33.9260324889
  0
VERTEX
  8
0
 62
7
  6
CONTINUOUS
 10
109.2514401165
 20
34.0037959709
  0
VERTEX
  8
0
 62
7
  6
CONTINUOUS
 10
109.2752846997
 20
34.0818669398
  0
VERTEX
  8
0
 62
7
  6
CONTINUOUS
 10
109.3017564482
 20
34.1600692849
  0
VERTEX
  8
0
 62
7
  6
CONTINUOUS
 10
109.3307865985
 20
34.2382257082
  0
VERTEX
  8
0
 62
7
  6
CONTINUOUS
 10
109.3623179712
 20
34.3161587038
  0
VERTEX
  8
0
 62
7
  6
CONTINUOUS
 10
109.396270787
 20
34.3936927847
  0
VERTEX
  8
0
 62
7
  6
CONTINUOUS
 10
109.4325762309
 20
34.4706506575
  0
VERTEX
  8
0
 62
7
  6
CONTINUOUS
 10
109.4711442303
 20
34.5468602354
  0
VERTEX
  8
0
 62
7
  6
CONTINUOUS
 10
109.5118949577
 20
34.6221460431
  0
VERTEX
  8
0
 62
7
  6
CONTINUOUS
 10
109.5547288629
 20
34.6963409523
  0
VERTEX
  8
0
 62
7
  6
CONTINUOUS
 10
109.5995558288
 20
34.7692728949
  0
VERTEX
  8
0
 62
7
  6
CONTINUOUS
 10
109.6462677294
 20
34.8407812147
  0
VERTEX
  8
0
 62
7
  6
CONTINUOUS
 10
109.6947649739
 20
34.9106988093
  0
VERTEX
  8
0
 62
7
  6
CONTINUOUS
 10
109.7449318397
 20
34.9788729493
  0
VERTEX
  8
0
 62
7
  6
CONTINUOUS
 10
109.7966601642
 20
35.0451430113
  0
VERTEX
  8
0
 62
7
  6
CONTINUOUS
 10
109.8498276762
 20
35.109365576
  0
VERTEX
  8
0
 62
7
  6
CONTINUOUS
 10
109.9043186211
 20
35.1713879534
  0
VERTEX
  8
0
 62
7
  6
CONTINUOUS
 10
109.9600052861
 20
35.2310773333
  0
VERTEX
  8
0
 62
7
  6
CONTINUOUS
 10
110.0167653729
 20
35.2882903418
  0
VERTEX
  8
0
 62
7
  6
CONTINUOUS
 10
110.0744668839
 20
35.3429059807
  0
VERTEX
  8
0
 62
7
  6
CONTINUOUS
 10
110.1329820844
 20
35.3947914906
  0
VERTEX
  8
0
 62
7
  6
CONTINUOUS
 10
110.1921758876
 20
35.4438387807
  0
VERTEX
  8
0
 62
7
  6
CONTINUOUS
 10
110.2519162791
 20
35.4899269086
  0
VERTEX
  8
0
 62
7
  6
CONTINUOUS
 10
110.3120663062
 20
35.5329616701
  0
VERTEX
  8
0
 62
7
  6
CONTINUOUS
 10
110.3724223913
 20
35.5727917319
  0
VERTEX
  8
0
 62
7
  6
CONTINUOUS
 10
110.4330523935
 20
35.6094675383
  0
SEQEND
  0
LINE
  8
0
 62
7
  6
CONTINUOUS
 10
106.261139754
 20
37.609940083
 11
105.2004751662
 21
38.2223012148
  0
LINE
  8
0
 62
7
  6
CONTINUOUS
 10
107.6046370447
 20
38.3856039754
 11
106.543972457
 21
38.9979651071
  0
POLYLINE
  8
0
 62
7
  6
CONTINUOUS
 66
1
 70
0
  0
VERTEX
  8
0
 62
7
  6
CONTINUOUS
 10
111.333049263
 20
35.6986107216
  0
VERTEX
  8
0
 62
7
  6
CONTINUOUS
 10
111.3542098294
 20
35.6858006811
  0
VERTEX
  8
0
 62
7
  6
CONTINUOUS
 10
111.3949605567
 20
35.6575694793
  0
VERTEX
  8
0
 62
7
  6
CONTINUOUS
 10
111.4335285561
 20
35.6258941253
  0
VERTEX
  8
0
 62
7
  6
CONTINUOUS
 10
111.469834
 20
35.5908579178
  0
VERTEX
  8
0
 62
7
  6
CONTINUOUS
 10
111.5037868158
 20
35.5525289376
  0
VERTEX
  8
0
 62
7
  6
CONTINUOUS
 10
111.5353181886
 20
35.5110050177
  0
VERTEX
  8
0
 62
7
  6
CONTINUOUS
 10
111.5643483388
 20
35.4663695244
  0
VERTEX
  8
0
 62
7
  6
CONTINUOUS
 10
111.5908200874
 20
35.4187339392
  0
VERTEX
  8
0
 62
7
  6
CONTINUOUS
 10
111.6146646705
 20
35.3681961589
  0
VERTEX
  8
0
 62
7
  6
CONTINUOUS
 10
111.6358370627
 20
35.3148803036
  0
VERTEX
  8
0
 62
7
  6
CONTINUOUS
 10
111.6542801385
 20
35.2588979141
  0
VERTEX
  8
0
 62
7
  6
CONTINUOUS
 10
111.6699614337
 20
35.2003846254
  0
VERTEX
  8
0
 62
7
  6
CONTINUOUS
 10
111.6828359788
 20
35.139464612
  0
VERTEX
  8
0
 62
7
  6
CONTINUOUS
 10
111.692884165
 20
35.0762837952
  0
VERTEX
  8
0
 62
7
  6
CONTINUOUS
 10
111.7000735855
 20
35.0109778589
  0
VERTEX
  8
0
 62
7
  6
CONTINUOUS
 10
111.7043976647
 20
34.9437016893
  0
VERTEX
  8
0
 62
7
  6
CONTINUOUS
 10
111.7058368521
 20
34.8746012509
  0
VERTEX
  8
0
 62
7
  6
CONTINUOUS
 10
111.7043976647
 20
34.8038389919
  0
VERTEX
  8
0
 62
7
  6
CONTINUOUS
 10
111.7000735855
 20
34.7315698356
  0
VERTEX
  8
0
 62
7
  6
CONTINUOUS
 10
111.692884165
 20
34.6579623212
  0
VERTEX
  8
0
 62
7
  6
CONTINUOUS
 10
111.6828359788
 20
34.5831789276
  0
VERTEX
  8
0
 62
7
  6
CONTINUOUS
 10
111.6699614337
 20
34.5073927588
  0
VERTEX
  8
0
 62
7
  6
CONTINUOUS
 10
111.6542801385
 20
34.430772378
  0
VERTEX
  8
0
 62
7
  6
CONTINUOUS
 10
111.6358370627
 20
34.3534938862
  0
VERTEX
  8
0
 62
7
  6
CONTINUOUS
 10
111.6146646705
 20
34.2757304042
  0
VERTEX
  8
0
 62
7
  6
CONTINUOUS
 10
111.5908200874
 20
34.1976594352
  0
VERTEX
  8
0
 62
7
  6
CONTINUOUS
 10
111.5643483388
 20
34.1194570901
  0
VERTEX
  8
0
 62
7
  6
CONTINUOUS
 10
111.5353181886
 20
34.0413006669
  0
VERTEX
  8
0
 62
7
  6
CONTINUOUS
 10
111.5037868158
 20
33.9633676712
  0
VERTEX
  8
0
 62
7
  6
CONTINUOUS
 10
111.469834
 20
33.8858335903
  0
VERTEX
  8
0
 62
7
  6
CONTINUOUS
 10
111.4335285561
 20
33.8088757175
  0
VERTEX
  8
0
 62
7
  6
CONTINUOUS
 10
111.3949605567
 20
33.7326661396
  0
VERTEX
  8
0
 62
7
  6
CONTINUOUS
 10
111.3542098294
 20
33.6573803319
  0
VERTEX
  8
0
 62
7
  6
CONTINUOUS
 10
111.3113759241
 20
33.5831854227
  0
VERTEX
  8
0
 62
7
  6
CONTINUOUS
 10
111.2665489582
 20
33.5102534801
  0
VERTEX
  8
0
 62
7
  6
CONTINUOUS
 10
111.2198370576
 20
33.4387451603
  0
VERTEX
  8
0
 62
7
  6
CONTINUOUS
 10
111.1713398131
 20
33.3688275658
  0
VERTEX
  8
0
 62
7
  6
CONTINUOUS
 10
111.1211729474
 20
33.3006534257
  0
VERTEX
  8
0
 62
7
  6
CONTINUOUS
 10
111.0694446228
 20
33.2343833638
  0
VERTEX
  8
0
 62
7
  6
CONTINUOUS
 10
111.0162771108
 20
33.170160799
  0
VERTEX
  8
0
 62
7
  6
CONTINUOUS
 10
110.9617861659
 20
33.1081384217
  0
VERTEX
  8
0
 62
7
  6
CONTINUOUS
 10
110.9060995009
 20
33.0484490417
  0
VERTEX
  8
0
 62
7
  6
CONTINUOUS
 10
110.8493394141
 20
32.9912360332
  0
VERTEX
  8
0
 62
7
  6
CONTINUOUS
 10
110.7916379031
 20
32.9366203943
  0
VERTEX
  8
0
 62
7
  6
CONTINUOUS
 10
110.7331227026
 20
32.8847348845
  0
VERTEX
  8
0
 62
7
  6
CONTINUOUS
 10
110.6739288995
 20
32.8356875944
  0
VERTEX
  8
0
 62
7
  6
CONTINUOUS
 10
110.6141885079
 20
32.7895994664
  0
VERTEX
  8
0
 62
7
  6
CONTINUOUS
 10
110.5540384809
 20
32.7465647049
  0
VERTEX
  8
0
 62
7
  6
CONTINUOUS
 10
110.4936823958
 20
32.7067346431
  0
VERTEX
  8
0
 62
7
  6
CONTINUOUS
 10
110.4330523935
 20
32.6700588367
  0
SEQEND
  0
LINE
  8
0
 62
7
  6
CONTINUOUS
 10
98.0587264104
 20
28.9850711456
 11
98.0587264104
 21
27.590794818
  0
LINE
  8
0
 62
7
  6
CONTINUOUS
 10
98.8011942714
 20
49.9596135691
 11
98.8011942714
 21
34.1194666768
  0
LINE
  8
0
 62
7
  6
CONTINUOUS
 10
99.1193909981
 20
29.0775610764
 11
99.1193909981
 21
26.9784336862
  0
LINE
  8
0
 62
7
  6
CONTINUOUS
 10
107.6046370447
 20
39.2021063925
 11
106.543972457
 21
39.8144675243
  0
LINE
  8
0
 62
7
  6
CONTINUOUS
 10
91.9069318585
 20
48.8369706207
 11
92.6140356957
 21
48.4287332656
  0
LINE
  8
0
 62
7
  6
CONTINUOUS
 10
90.8462672708
 20
49.8576038692
 11
92.6140356957
 21
48.8369844741
  0
LINE
  8
0
 62
7
  6
CONTINUOUS
 10
109.3370414458
 20
40.2023045695
 11
108.2763768581
 21
40.8146657013
  0
LINE
  8
0
 62
7
  6
CONTINUOUS
 10
100.5335986725
 20
35.1196648538
 11
100.5335986725
 21
34.3031624366
  0
LINE
  8
0
 62
7
  6
CONTINUOUS
 10
101.8770959632
 20
35.078826329
 11
101.8770959632
 21
34.0990234284
  0
LINE
  8
0
 62
7
  6
CONTINUOUS
 10
133.2017871199
 20
74.3114286861
 11
127.8985083408
 21
71.249597532
  0
LINE
  8
0
 62
7
  6
CONTINUOUS
 10
90.8462672708
 20
49.8576038692
 11
85.5429884917
 21
46.7957727151
  0
LINE
  8
0
 62
7
  6
CONTINUOUS
 10
136.5958855385
 20
75.4544982075
 11
133.9088909571
 21
73.9031704228
  0
LINE
  8
0
 62
7
  6
CONTINUOUS
 10
127.1914045036
 20
70.024850961
 11
91.553371108
 21
49.4493456059
  0
LINE
  8
0
 62
7
  6
CONTINUOUS
 10
84.8358846545
 20
45.5710261441
 11
82.1488900731
 21
44.0196983594
  0
LINE
  8
0
 62
7
  6
CONTINUOUS
 10
134.2624517076
 20
73.6990675543
 11
128.9591729285
 21
70.6372364002
  0
LINE
  8
0
 62
7
  6
CONTINUOUS
 10
91.9069318585
 20
49.2452427374
 11
86.6036530794
 21
46.1834115833
  0
LINE
  8
0
 62
7
  6
CONTINUOUS
 10
127.8985083408
 20
70.0248439063
 11
127.5449654758
 21
69.8207270564
  0
LINE
  8
0
 62
7
  6
CONTINUOUS
 10
85.5429884917
 20
45.5710190894
 11
85.1894456267
 21
45.3669022395
  0
LINE
  8
0
 62
7
  6
CONTINUOUS
 10
105.2004751662
 20
37.2424983142
 11
105.2004751662
 21
38.2223012148
  0
LINE
  8
0
 62
7
  6
CONTINUOUS
 10
137.6565501263
 20
74.8421370757
 11
134.9695555448
 21
73.290809291
  0
LINE
  8
0
 62
7
  6
CONTINUOUS
 10
128.2520690913
 20
69.4124898292
 11
92.6140356957
 21
48.8369844741
  0
LINE
  8
0
 62
7
  6
CONTINUOUS
 10
85.8965492422
 20
44.9586650123
 11
83.2095546608
 21
43.4073372276
  0
LINE
  8
0
 62
7
  6
CONTINUOUS
 10
134.9695555448
 20
72.8825580825
 11
134.2624517076
 21
72.4743139286
  0
LINE
  8
0
 62
7
  6
CONTINUOUS
 10
128.9591729285
 20
69.4124827745
 11
128.2520690913
 21
69.0042386207
  0
LINE
  8
0
 62
7
  6
CONTINUOUS
 10
92.6140356957
 20
48.4287332656
 11
91.9069318585
 21
48.0204891117
  0
LINE
  8
0
 62
7
  6
CONTINUOUS
 10
86.6036530794
 20
44.9586579576
 11
85.8965492422
 21
44.5504138038
  0
LINE
  8
0
 62
7
  6
CONTINUOUS
 10
113.2614677424
 20
42.4680596235
 11
112.2008031547
 21
43.0804207552
  0
LINE
  8
0
 62
7
  6
CONTINUOUS
 10
114.6049650331
 20
42.4272210987
 11
113.5443004454
 21
43.0395822305
  0
LINE
  8
0
 62
7
  6
CONTINUOUS
 10
106.261139754
 20
36.6301371824
 11
106.261139754
 21
37.609940083
  0
LINE
  8
0
 62
7
  6
CONTINUOUS
 10
106.543972457
 20
38.9979651071
 11
106.543972457
 21
39.8144675243
  0
LINE
  8
0
 62
7
  6
CONTINUOUS
 10
107.6046370447
 20
38.3856039754
 11
107.6046370447
 21
39.2021063925
  0
LINE
  8
0
 62
7
  6
CONTINUOUS
 10
122.0649105157
 20
63.3908462315
 11
111.5290633412
 21
57.3080083388
  0
LINE
  8
0
 62
7
  6
CONTINUOUS
 10
109.3370414458
 20
56.0424514618
 11
98.8011942714
 21
49.9596135691
  0
LINE
  8
0
 62
7
  6
CONTINUOUS
 10
108.2763768581
 20
40.8146657013
 11
108.2763768581
 21
55.4300801319
  0
LINE
  8
0
 62
7
  6
CONTINUOUS
 10
109.3370414458
 20
40.2023045695
 11
109.3370414458
 21
56.0424514618
  0
LINE
  8
0
 62
7
  6
CONTINUOUS
 10
118.9890088238
 20
43.9785319521
 11
117.9283442361
 21
44.5908930839
  0
LINE
  8
0
 62
7
  6
CONTINUOUS
 10
118.9890088238
 20
44.9583348527
 11
117.9283442361
 21
45.5706959845
  0
POLYLINE
  8
0
 62
7
  6
CONTINUOUS
 66
1
 70
0
  0
VERTEX
  8
0
 62
7
  6
CONTINUOUS
 10
110.6296189833
 20
35.7049968982
  0
VERTEX
  8
0
 62
7
  6
CONTINUOUS
 10
110.6322195773
 20
35.6886449269
  0
VERTEX
  8
0
 62
7
  6
CONTINUOUS
 10
110.6394089978
 20
35.6233389907
  0
VERTEX
  8
0
 62
7
  6
CONTINUOUS
 10
110.6437330769
 20
35.5560628211
  0
VERTEX
  8
0
 62
7
  6
CONTINUOUS
 10
110.6451722644
 20
35.4869623827
  0
VERTEX
  8
0
 62
7
  6
CONTINUOUS
 10
110.6437330769
 20
35.4162001237
  0
VERTEX
  8
0
 62
7
  6
CONTINUOUS
 10
110.6394089978
 20
35.3439309674
  0
VERTEX
  8
0
 62
7
  6
CONTINUOUS
 10
110.6322195773
 20
35.2703234529
  0
VERTEX
  8
0
 62
7
  6
CONTINUOUS
 10
110.6221713911
 20
35.1955400594
  0
VERTEX
  8
0
 62
7
  6
CONTINUOUS
 10
110.609296846
 20
35.1197538906
  0
VERTEX
  8
0
 62
7
  6
CONTINUOUS
 10
110.5936155507
 20
35.0431335098
  0
VERTEX
  8
0
 62
7
  6
CONTINUOUS
 10
110.575172475
 20
34.9658550179
  0
VERTEX
  8
0
 62
7
  6
CONTINUOUS
 10
110.5540000828
 20
34.8880915359
  0
VERTEX
  8
0
 62
7
  6
CONTINUOUS
 10
110.5301554997
 20
34.810020567
  0
VERTEX
  8
0
 62
7
  6
CONTINUOUS
 10
110.5036837511
 20
34.7318182219
  0
VERTEX
  8
0
 62
7
  6
CONTINUOUS
 10
110.4746536009
 20
34.6536617986
  0
VERTEX
  8
0
 62
7
  6
CONTINUOUS
 10
110.4431222281
 20
34.575728803
  0
VERTEX
  8
0
 62
7
  6
CONTINUOUS
 10
110.4091694123
 20
34.4981947221
  0
VERTEX
  8
0
 62
7
  6
CONTINUOUS
 10
110.3728639684
 20
34.4212368493
  0
VERTEX
  8
0
 62
7
  6
CONTINUOUS
 10
110.334295969
 20
34.3450272714
  0
VERTEX
  8
0
 62
7
  6
CONTINUOUS
 10
110.2935452417
 20
34.2697414637
  0
VERTEX
  8
0
 62
7
  6
CONTINUOUS
 10
110.2507113364
 20
34.1955465545
  0
VERTEX
  8
0
 62
7
  6
CONTINUOUS
 10
110.2058843705
 20
34.1226146119
  0
VERTEX
  8
0
 62
7
  6
CONTINUOUS
 10
110.1591724699
 20
34.0511062921
  0
VERTEX
  8
0
 62
7
  6
CONTINUOUS
 10
110.1106752254
 20
33.9811886975
  0
VERTEX
  8
0
 62
7
  6
CONTINUOUS
 10
110.0605083596
 20
33.9130145575
  0
VERTEX
  8
0
 62
7
  6
CONTINUOUS
 10
110.0087800351
 20
33.8467444955
  0
VERTEX
  8
0
 62
7
  6
CONTINUOUS
 10
109.9556125231
 20
33.7825219308
  0
VERTEX
  8
0
 62
7
  6
CONTINUOUS
 10
109.9011215782
 20
33.7204995534
  0
VERTEX
  8
0
 62
7
  6
CONTINUOUS
 10
109.8454349132
 20
33.6608101735
  0
VERTEX
  8
0
 62
7
  6
CONTINUOUS
 10
109.7886748264
 20
33.603597165
  0
VERTEX
  8
0
 62
7
  6
CONTINUOUS
 10
109.7309733154
 20
33.5489815261
  0
VERTEX
  8
0
 62
7
  6
CONTINUOUS
 10
109.6724581149
 20
33.4970960162
  0
VERTEX
  8
0
 62
7
  6
CONTINUOUS
 10
109.6132643118
 20
33.4480487261
  0
VERTEX
  8
0
 62
7
  6
CONTINUOUS
 10
109.5535239202
 20
33.4019605982
  0
VERTEX
  8
0
 62
7
  6
CONTINUOUS
 10
109.4933738932
 20
33.3589258367
  0
VERTEX
  8
0
 62
7
  6
CONTINUOUS
 10
109.4330178081
 20
33.3190957749
  0
VERTEX
  8
0
 62
7
  6
CONTINUOUS
 10
109.3723878058
 20
33.2824199685
  0
SEQEND
  0
LINE
  8
0
 62
7
  6
CONTINUOUS
 10
111.5290633412
 20
57.3080083388
 11
111.5290633412
 21
41.4678614465
  0
LINE
  8
0
 62
7
  6
CONTINUOUS
 10
120.3325061145
 20
45.733998745
 11
119.2718415268
 21
46.3463598768
  0
LINE
  8
0
 62
7
  6
CONTINUOUS
 10
120.3325061145
 20
46.5505011622
 11
119.2718415268
 21
47.162862294
  0
LINE
  8
0
 62
7
  6
CONTINUOUS
 10
113.2614677424
 20
42.4680596235
 11
113.2614677424
 21
41.6515572063
  0
LINE
  8
0
 62
7
  6
CONTINUOUS
 10
114.6049650331
 20
42.4272210987
 11
114.6049650331
 21
41.4474181981
  0
LINE
  8
0
 62
7
  6
CONTINUOUS
 10
122.0649105157
 20
47.5506993392
 11
121.004245928
 21
48.1630604709
  0
LINE
  8
0
 62
7
  6
CONTINUOUS
 10
117.9283442361
 20
44.5908930839
 11
117.9283442361
 21
45.5706959845
  0
LINE
  8
0
 62
7
  6
CONTINUOUS
 10
118.9890088238
 20
43.9785319521
 11
118.9890088238
 21
44.9583348527
  0
LINE
  8
0
 62
7
  6
CONTINUOUS
 10
119.2718415268
 20
46.3463598768
 11
119.2718415268
 21
47.162862294
  0
LINE
  8
0
 62
7
  6
CONTINUOUS
 10
98.8011942714
 20
35.3441991384
 11
99.4729340848
 21
35.7320259856
  0
LINE
  8
0
 62
7
  6
CONTINUOUS
 10
106.543972457
 20
39.8144675243
 11
108.2763768581
 21
40.8146657013
  0
LINE
  8
0
 62
7
  6
CONTINUOUS
 10
111.5290633412
 20
42.6925939081
 11
112.2008031547
 21
43.0804207552
  0
LINE
  8
0
 62
7
  6
CONTINUOUS
 10
119.2718415268
 20
47.162862294
 11
121.004245928
 21
48.1630604709
  0
LINE
  8
0
 62
7
  6
CONTINUOUS
 10
100.1800560292
 20
35.3237781764
 11
100.8164313755
 21
35.6911874608
  0
LINE
  8
0
 62
7
  6
CONTINUOUS
 10
105.2004751662
 20
38.2223012148
 11
106.543972457
 21
38.9979651071
  0
LINE
  8
0
 62
7
  6
CONTINUOUS
 10
112.907925099
 20
42.6721729461
 11
113.5443004454
 21
43.0395822305
  0
LINE
  8
0
 62
7
  6
CONTINUOUS
 10
117.9283442361
 20
45.5706959845
 11
119.2718415268
 21
46.3463598768
  0
LINE
  8
0
 62
7
  6
CONTINUOUS
 10
98.8011942714
 20
34.1194666768
 11
100.5335986725
 21
35.1196648538
  0
LINE
  8
0
 62
7
  6
CONTINUOUS
 10
107.6046370447
 20
39.2021063925
 11
109.3370414458
 21
40.2023045695
  0
LINE
  8
0
 62
7
  6
CONTINUOUS
 10
111.5290633412
 20
41.4678614465
 11
113.2614677424
 21
42.4680596235
  0
LINE
  8
0
 62
7
  6
CONTINUOUS
 10
120.3325061145
 20
46.5505011622
 11
122.0649105157
 21
47.5506993392
  0
LINE
  8
0
 62
7
  6
CONTINUOUS
 10
101.6649777088
 20
35.2012900898
 11
105.2004751662
 21
37.2424983142
  0
LINE
  8
0
 62
7
  6
CONTINUOUS
 10
114.3928467786
 20
42.5496848595
 11
117.9283442361
 21
44.5908930839
  0
LINE
  8
0
 62
7
  6
CONTINUOUS
 10
100.5335986725
 20
34.3031624366
 11
101.8770959632
 21
35.078826329
  0
LINE
  8
0
 62
7
  6
CONTINUOUS
 10
106.261139754
 20
37.609940083
 11
107.6046370447
 21
38.3856039754
  0
LINE
  8
0
 62
7
  6
CONTINUOUS
 10
113.2614677424
 20
41.6515572063
 11
114.6049650331
 21
42.4272210987
  0
LINE
  8
0
 62
7
  6
CONTINUOUS
 10
118.9890088238
 20
44.9583348527
 11
120.3325061145
 21
45.733998745
  0
LINE
  8
0
 62
7
  6
CONTINUOUS
 10
120.3325061145
 20
45.733998745
 11
120.3325061145
 21
46.5505011622
  0
LINE
  8
0
 62
7
  6
CONTINUOUS
 10
121.004245928
 20
48.1630604709
 11
121.004245928
 21
62.7784749016
  0
LINE
  8
0
 62
7
  6
CONTINUOUS
 10
121.7467137889
 20
40.0422466101
 11
121.7467137889
 21
42.1413740003
  0
LINE
  8
0
 62
7
  6
CONTINUOUS
 10
122.0649105157
 20
47.5506993392
 11
122.0649105157
 21
63.3908462315
  0
LINE
  8
0
 62
7
  6
CONTINUOUS
 10
101.8770959632
 20
34.0990234284
 11
106.261139754
 21
36.6301371824
  0
LINE
  8
0
 62
7
  6
CONTINUOUS
 10
114.6049650331
 20
41.4474181981
 11
118.9890088238
 21
43.9785319521
  0
LINE
  8
0
 62
7
  6
CONTINUOUS
 10
121.7467137889
 20
42.1413740003
 11
129.5319270367
 21
50.4520398295
  0
POLYLINE
  8
0
 62
7
  6
CONTINUOUS
 66
1
 70
0
  0
VERTEX
  8
0
 62
7
  6
CONTINUOUS
 10
110.4330523935
 20
35.6094675383
  0
VERTEX
  8
0
 62
7
  6
CONTINUOUS
 10
110.4936823958
 20
35.6428008102
  0
VERTEX
  8
0
 62
7
  6
CONTINUOUS
 10
110.5540384809
 20
35.6726635364
  0
VERTEX
  8
0
 62
7
  6
CONTINUOUS
 10
110.6141885079
 20
35.6990836289
  0
VERTEX
  8
0
 62
7
  6
CONTINUOUS
 10
110.6739288995
 20
35.7219773515
  0
VERTEX
  8
0
 62
7
  6
CONTINUOUS
 10
110.7331227026
 20
35.7412807698
  0
VERTEX
  8
0
 62
7
  6
CONTINUOUS
 10
110.7916379031
 20
35.7569623901
  0
VERTEX
  8
0
 62
7
  6
CONTINUOUS
 10
110.8493394141
 20
35.7689743194
  0
VERTEX
  8
0
 62
7
  6
CONTINUOUS
 10
110.9060995009
 20
35.7773018224
  0
VERTEX
  8
0
 62
7
  6
CONTINUOUS
 10
110.9617861659
 20
35.7819134807
  0
VERTEX
  8
0
 62
7
  6
CONTINUOUS
 10
111.0162771108
 20
35.7828114511
  0
VERTEX
  8
0
 62
7
  6
CONTINUOUS
 10
111.0694446228
 20
35.7799810747
  0
VERTEX
  8
0
 62
7
  6
CONTINUOUS
 10
111.1211729474
 20
35.7734413804
  0
VERTEX
  8
0
 62
7
  6
CONTINUOUS
 10
111.1713398131
 20
35.7631946014
  0
VERTEX
  8
0
 62
7
  6
CONTINUOUS
 10
111.2198370576
 20
35.749276467
  0
VERTEX
  8
0
 62
7
  6
CONTINUOUS
 10
111.2665489582
 20
35.7317060819
  0
VERTEX
  8
0
 62
7
  6
CONTINUOUS
 10
111.3113759241
 20
35.710535552
  0
VERTEX
  8
0
 62
7
  6
CONTINUOUS
 10
111.333049263
 20
35.6986107216
  0
SEQEND
  0
POLYLINE
  8
0
 62
7
  6
CONTINUOUS
 66
1
 70
0
  0
VERTEX
  8
0
 62
7
  6
CONTINUOUS
 10
109.3723878058
 20
33.2824199685
  0
VERTEX
  8
0
 62
7
  6
CONTINUOUS
 10
109.3117578035
 20
33.2490866966
  0
VERTEX
  8
0
 62
7
  6
CONTINUOUS
 10
109.2514017185
 20
33.2192239704
  0
VERTEX
  8
0
 62
7
  6
CONTINUOUS
 10
109.1912516914
 20
33.1928038779
  0
VERTEX
  8
0
 62
7
  6
CONTINUOUS
 10
109.175821216
 20
33.1868906086
  0
SEQEND
  0
POLYLINE
  8
0
 62
7
  6
CONTINUOUS
 66
1
 70
0
  0
VERTEX
  8
0
 62
7
  6
CONTINUOUS
 10
110.4330523935
 20
32.6700588367
  0
VERTEX
  8
0
 62
7
  6
CONTINUOUS
 10
110.3724223913
 20
32.6367255648
  0
VERTEX
  8
0
 62
7
  6
CONTINUOUS
 10
110.3120663062
 20
32.6068628386
  0
VERTEX
  8
0
 62
7
  6
CONTINUOUS
 10
110.2519162791
 20
32.5804427461
  0
VERTEX
  8
0
 62
7
  6
CONTINUOUS
 10
110.1921758876
 20
32.5575490235
  0
VERTEX
  8
0
 62
7
  6
CONTINUOUS
 10
110.1329820844
 20
32.5382456053
  0
VERTEX
  8
0
 62
7
  6
CONTINUOUS
 10
110.0744668839
 20
32.5225639849
  0
VERTEX
  8
0
 62
7
  6
CONTINUOUS
 10
110.0167653729
 20
32.5105520557
  0
VERTEX
  8
0
 62
7
  6
CONTINUOUS
 10
109.9600052861
 20
32.5022245527
  0
VERTEX
  8
0
 62
7
  6
CONTINUOUS
 10
109.9043186211
 20
32.4976128943
  0
VERTEX
  8
0
 62
7
  6
CONTINUOUS
 10
109.8498276762
 20
32.4967149239
  0
VERTEX
  8
0
 62
7
  6
CONTINUOUS
 10
109.7966601642
 20
32.4995453004
  0
VERTEX
  8
0
 62
7
  6
CONTINUOUS
 10
109.7449318397
 20
32.5060849946
  0
VERTEX
  8
0
 62
7
  6
CONTINUOUS
 10
109.6947649739
 20
32.5163317736
  0
VERTEX
  8
0
 62
7
  6
CONTINUOUS
 10
109.6462677294
 20
32.5302499081
  0
VERTEX
  8
0
 62
7
  6
CONTINUOUS
 10
109.5995558288
 20
32.5478202931
  0
VERTEX
  8
0
 62
7
  6
CONTINUOUS
 10
109.5547288629
 20
32.568990823
  0
VERTEX
  8
0
 62
7
  6
CONTINUOUS
 10
109.5330555241
 20
32.5809156534
  0
SEQEND
  0
LINE
  8
0
 62
7
  6
CONTINUOUS
 10
127.8985083408
 20
71.249597532
 11
127.8985083408
 21
70.0248439063
  0
LINE
  8
0
 62
7
  6
CONTINUOUS
 10
128.2520690913
 20
69.0042386207
 11
128.2520690913
 21
69.4124898292
  0
LINE
  8
0
 62
7
  6
CONTINUOUS
 10
128.9591729285
 20
70.6372364002
 11
128.9591729285
 21
69.4124827745
  0
LINE
  8
0
 62
7
  6
CONTINUOUS
 10
129.5319270367
 20
50.4520398295
 11
137.6565501263
 21
72.3926298243
  0
LINE
  8
0
 62
7
  6
CONTINUOUS
 10
134.2624517076
 20
72.4743139286
 11
134.2624517076
 21
73.6990675543
  0
LINE
  8
0
 62
7
  6
CONTINUOUS
 10
134.9695555448
 20
73.290809291
 11
134.9695555448
 21
72.8825580825
  0
LINE
  8
0
 62
7
  6
CONTINUOUS
 10
127.1914045036
 20
70.024850961
 11
128.2520690913
 21
69.4124898292
  0
LINE
  8
0
 62
7
  6
CONTINUOUS
 10
127.8985083408
 20
70.0248439063
 11
128.9591729285
 21
69.4124827745
  0
LINE
  8
0
 62
7
  6
CONTINUOUS
 10
127.8985083408
 20
71.249597532
 11
128.9591729285
 21
70.6372364002
  0
LINE
  8
0
 62
7
  6
CONTINUOUS
 10
137.6565501263
 20
72.3926298243
 11
137.6565501263
 21
74.8421370757
  0
LINE
  8
0
 62
7
  6
CONTINUOUS
 10
134.2624517076
 20
73.2907954377
 11
134.9695555448
 21
72.8825580825
  0
LINE
  8
0
 62
7
  6
CONTINUOUS
 10
133.2017871199
 20
74.3114286861
 11
134.9695555448
 21
73.290809291
  0
LINE
  8
0
 62
7
  6
CONTINUOUS
 10
136.5958855385
 20
75.4544982075
 11
137.6565501263
 21
74.8421370757
  0
LINE
  8
0
 62
7
  6
CONTINUOUS
 10
71.2245147036
 20
241.3887808861
 11
71.2245147036
 21
244.3887808861
  0
LINE
  8
0
 62
7
  6
CONTINUOUS
 10
75.0245147036
 20
244.3887808861
 11
75.0245147036
 21
243.8887808861
  0
LINE
  8
0
 62
7
  6
CONTINUOUS
 10
76.0245147036
 20
243.8887808861
 11
76.0245147036
 21
245.3887808861
  0
LINE
  8
0
 62
7
  6
CONTINUOUS
 10
83.5245147036
 20
245.3887808861
 11
83.5245147036
 21
243.8887808861
  0
LINE
  8
0
 62
7
  6
CONTINUOUS
 10
84.5245147036
 20
243.8887808861
 11
84.5245147036
 21
244.3887808861
  0
LINE
  8
0
 62
7
  6
CONTINUOUS
 10
82.7145147036
 20
220.2622486125
 11
71.2245147036
 21
241.3887808861
  0
LINE
  8
0
 62
7
  6
CONTINUOUS
 10
93.7245147036
 20
215.5887808861
 11
82.7145147036
 21
220.2622486125
  0
LINE
  8
0
 62
7
  6
CONTINUOUS
 10
93.2745147036
 20
221.9887808861
 11
93.2745147036
 21
241.3887808861
  0
LINE
  8
0
 62
7
  6
CONTINUOUS
 10
93.7245147036
 20
213.0179037568
 11
93.7245147036
 21
215.5887808861
  0
LINE
  8
0
 62
7
  6
CONTINUOUS
 10
95.7245147036
 20
220.9887808861
 11
95.7245147036
 21
221.9887808861
  0
LINE
  8
0
 62
7
  6
CONTINUOUS
 10
97.6245147036
 20
219.7887808861
 11
97.6245147036
 21
220.9887808861
  0
LINE
  8
0
 62
7
  6
CONTINUOUS
 10
121.8245147036
 20
219.7887808861
 11
115.6245147036
 21
219.7887808861
  0
LINE
  8
0
 62
7
  6
CONTINUOUS
 10
103.8245147036
 20
219.7887808861
 11
97.6245147036
 21
219.7887808861
  0
LINE
  8
0
 62
7
  6
CONTINUOUS
 10
103.8245147036
 20
220.9887808861
 11
103.8245147036
 21
219.7887808861
  0
LINE
  8
0
 62
7
  6
CONTINUOUS
 10
123.7245147036
 20
220.9887808861
 11
121.8245147036
 21
220.9887808861
  0
LINE
  8
0
 62
7
  6
CONTINUOUS
 10
115.6245147036
 20
220.9887808861
 11
113.7245147036
 21
220.9887808861
  0
LINE
  8
0
 62
7
  6
CONTINUOUS
 10
105.7245147036
 20
220.9887808861
 11
103.8245147036
 21
220.9887808861
  0
LINE
  8
0
 62
7
  6
CONTINUOUS
 10
97.6245147036
 20
220.9887808861
 11
95.7245147036
 21
220.9887808861
  0
LINE
  8
0
 62
7
  6
CONTINUOUS
 10
126.1745147036
 20
221.9887808861
 11
123.7245147036
 21
221.9887808861
  0
LINE
  8
0
 62
7
  6
CONTINUOUS
 10
113.7245147036
 20
221.9887808861
 11
111.2745147036
 21
221.9887808861
  0
LINE
  8
0
 62
7
  6
CONTINUOUS
 10
108.1745147036
 20
221.9887808861
 11
105.7245147036
 21
221.9887808861
  0
LINE
  8
0
 62
7
  6
CONTINUOUS
 10
95.7245147036
 20
221.9887808861
 11
93.2745147036
 21
221.9887808861
  0
LINE
  8
0
 62
7
  6
CONTINUOUS
 10
105.7245147036
 20
221.9887808861
 11
105.7245147036
 21
220.9887808861
  0
LINE
  8
0
 62
7
  6
CONTINUOUS
 10
108.1745147036
 20
241.3887808861
 11
108.1745147036
 21
221.9887808861
  0
LINE
  8
0
 62
7
  6
CONTINUOUS
 10
111.2745147036
 20
221.9887808861
 11
111.2745147036
 21
241.3887808861
  0
LINE
  8
0
 62
7
  6
CONTINUOUS
 10
113.7245147036
 20
220.9887808861
 11
113.7245147036
 21
221.9887808861
  0
LINE
  8
0
 62
7
  6
CONTINUOUS
 10
115.6245147036
 20
219.7887808861
 11
115.6245147036
 21
220.9887808861
  0
LINE
  8
0
 62
7
  6
CONTINUOUS
 10
121.8245147036
 20
220.9887808861
 11
121.8245147036
 21
219.7887808861
  0
LINE
  8
0
 62
7
  6
CONTINUOUS
 10
123.7245147036
 20
221.9887808861
 11
123.7245147036
 21
220.9887808861
  0
LINE
  8
0
 62
7
  6
CONTINUOUS
 10
93.2745147036
 20
241.3887808861
 11
108.1745147036
 21
241.3887808861
  0
LINE
  8
0
 62
7
  6
CONTINUOUS
 10
111.2745147036
 20
241.3887808861
 11
126.1745147036
 21
241.3887808861
  0
LINE
  8
0
 62
7
  6
CONTINUOUS
 10
125.7245147036
 20
215.5887808861
 11
125.7245147036
 21
213.0179037568
  0
LINE
  8
0
 62
7
  6
CONTINUOUS
 10
126.1745147036
 20
241.3887808861
 11
126.1745147036
 21
221.9887808861
  0
LINE
  8
0
 62
7
  6
CONTINUOUS
 10
75.0245147036
 20
243.8887808861
 11
76.0245147036
 21
243.8887808861
  0
LINE
  8
0
 62
7
  6
CONTINUOUS
 10
83.5245147036
 20
243.8887808861
 11
84.5245147036
 21
243.8887808861
  0
LINE
  8
0
 62
7
  6
CONTINUOUS
 10
134.9245147036
 20
243.8887808861
 11
135.9245147036
 21
243.8887808861
  0
LINE
  8
0
 62
7
  6
CONTINUOUS
 10
143.4245147036
 20
243.8887808861
 11
144.4245147036
 21
243.8887808861
  0
LINE
  8
0
 62
7
  6
CONTINUOUS
 10
71.2245147036
 20
244.3887808861
 11
75.0245147036
 21
244.3887808861
  0
LINE
  8
0
 62
7
  6
CONTINUOUS
 10
84.5245147036
 20
244.3887808861
 11
134.9245147036
 21
244.3887808861
  0
LINE
  8
0
 62
7
  6
CONTINUOUS
 10
144.4245147036
 20
244.3887808861
 11
148.2245147036
 21
244.3887808861
  0
LINE
  8
0
 62
7
  6
CONTINUOUS
 10
136.7345147036
 20
220.2622486125
 11
125.7245147036
 21
215.5887808861
  0
LINE
  8
0
 62
7
  6
CONTINUOUS
 10
76.0245147036
 20
245.3887808861
 11
83.5245147036
 21
245.3887808861
  0
LINE
  8
0
 62
7
  6
CONTINUOUS
 10
135.9245147036
 20
245.3887808861
 11
143.4245147036
 21
245.3887808861
  0
LINE
  8
0
 62
7
  6
CONTINUOUS
 10
134.9245147036
 20
244.3887808861
 11
134.9245147036
 21
243.8887808861
  0
LINE
  8
0
 62
7
  6
CONTINUOUS
 10
135.9245147036
 20
243.8887808861
 11
135.9245147036
 21
245.3887808861
  0
LINE
  8
0
 62
7
  6
CONTINUOUS
 10
148.2245147036
 20
241.3887808861
 11
136.7345147036
 21
220.2622486125
  0
LINE
  8
0
 62
7
  6
CONTINUOUS
 10
143.4245147036
 20
245.3887808861
 11
143.4245147036
 21
243.8887808861
  0
LINE
  8
0
 62
7
  6
CONTINUOUS
 10
144.4245147036
 20
243.8887808861
 11
144.4245147036
 21
244.3887808861
  0
LINE
  8
0
 62
7
  6
CONTINUOUS
 10
148.2245147036
 20
244.3887808861
 11
148.2245147036
 21
241.3887808861
  0
LINE
  8
0
 62
7
  6
CONTINUOUS
 10
72.4741310645
 20
132.8491948476
 11
72.4741310645
 21
134.3491948476
  0
LINE
  8
0
 62
7
  6
CONTINUOUS
 10
76.2741310645
 20
132.8491948476
 11
76.2741310645
 21
134.3491948476
  0
LINE
  8
0
 62
7
  6
CONTINUOUS
 10
77.2741310645
 20
132.8491948476
 11
77.2741310645
 21
134.3491948476
  0
LINE
  8
0
 62
7
  6
CONTINUOUS
 10
84.7741310645
 20
132.8491948476
 11
84.7741310645
 21
134.3491948476
  0
LINE
  8
0
 62
7
  6
CONTINUOUS
 10
85.7741310645
 20
132.8491948476
 11
85.7741310645
 21
134.3491948476
  0
LINE
  8
0
 62
7
  6
CONTINUOUS
 10
72.4741310645
 20
132.8491948476
 11
149.4741310645
 21
132.8491948476
  0
LINE
  8
0
 62
7
  6
CONTINUOUS
 10
72.4741310645
 20
134.3491948476
 11
149.4741310645
 21
134.3491948476
  0
LINE
  8
0
 62
7
  6
CONTINUOUS
 10
136.1741310645
 20
132.8491948476
 11
136.1741310645
 21
134.3491948476
  0
LINE
  8
0
 62
7
  6
CONTINUOUS
 10
137.1741310645
 20
132.8491948476
 11
137.1741310645
 21
134.3491948476
  0
LINE
  8
0
 62
7
  6
CONTINUOUS
 10
144.6741310645
 20
132.8491948476
 11
144.6741310645
 21
134.3491948476
  0
LINE
  8
0
 62
7
  6
CONTINUOUS
 10
145.6741310645
 20
132.8491948476
 11
145.6741310645
 21
134.3491948476
  0
LINE
  8
0
 62
7
  6
CONTINUOUS
 10
149.4741310645
 20
132.8491948476
 11
149.4741310645
 21
134.3491948476
  0
ARC
  8
0
 62
7
  6
CONTINUOUS
 10
109.7245147036
 20
260.3887808861
 40
50.0
 50
251.3370751151
 51
288.6629248849
  0
CIRCLE
  8
0
 62
7
  6
CONTINUOUS
 10
109.7245147036
 20
213.7887808861
 40
1.8
  0
CIRCLE
  8
0
 62
7
  6
CONTINUOUS
 10
142.7245147036
 20
240.3887808861
 40
1.0
  0
ENDSEC
  0
EOF
