999
DXF file: bsm052.dxf
999
Pro/ENGINEER 2022281 by Parametric Technology Corporation
  0
SECTION
  2
HEADER
  9
$EXTMAX
 10
210.0
 20
297.0
 30
0.0
  9
$EXTMIN
 10
0.0
 20
0.0
 30
0.0
  9
$LIMMIN
 10
0.0
 20
0.0
  9
$LIMMAX
 10
210.0
 20
297.0
  9
$VIEWCTR
 10
105.0
 20
148.5
  9
$VIEWSIZE
 40
297.0
  9
$CLAYER
  8
0
  9
$LTSCALE
 40
19.36
  9
$CELTYPE
  6
BYLAYER
  9
$DIMSCALE
 40
1.0
  9
$DIMASZ
 40
2.0
  9
$DIMEXO
 40
0.05
  9
$DIMDLI
 40
13.376
  9
$DIMEXE
 40
1.0
  9
$DIMCEN
 40
3.168
  9
$DIMLFAC
 40
1.0
  9
$DIMBLK
  1
_FILLED
  9
$DIMALT
 70
0
  9
$DIMALTF
 40
0.0393700787
  9
$DIMTXT
 40
2.5
  9
$AUNITS
 70
0
  9
$PDMODE
 70
3
  9
$PDSIZE
 40
0.3125
  9
$TILEMODE
 70
1
  0
ENDSEC
  0
SECTION
  2
TABLES
  0
TABLE
  2
LTYPE
 70
6
  0
LTYPE
  2
BYBLOCK
 70
0
  3

 72
65
 73
0
 40
0.0
  0
LTYPE
  2
BYLAYER
 70
0
  3

 72
65
 73
0
 40
0.0
  0
LTYPE
  2
CONTINUOUS
 70
64
  3
Solid line
 72
65
 73
0
 40
0.0
  0
LTYPE
  2
CENTER
 70
64
  3
____ _ ____ _ ____ _ ____ _ ____ _ ____ _ ____
 72
65
 73
4
 40
0.6
 49
0.375
 49
-0.075
 49
0.075
 49
-0.075
  0
LTYPE
  2
HIDDEN
 70
64
  3
- - - - - - - - - - - - - - - - - - - -
 72
65
 73
2
 40
0.2
 49
0.1
 49
-0.1
  0
LTYPE
  2
PHANTOM
 70
64
  3
_____ _ _ _____ _ _ _____ _ _ _____
 72
65
 73
6
 40
0.8
 49
0.45
 49
-0.05
 49
0.1
 49
-0.05
 49
0.1
 49
-0.05
  0
LTYPE
  2
DOT
 70
64
  3
. . . . . . . . . . . . . . . . . . . .
 72
65
 73
2
 40
0.2
 49
0.1
 49
-0.1
  0
LTYPE
  2
DASHED
 70
64
  3
- - - - - - - - - - - - - - - - - - - -
 72
65
 73
2
 40
0.2
 49
0.1
 49
-0.1
  0
ENDTAB
  0
TABLE
  2
LAYER
 70
36
  0
LAYER
  2
0
 70
0
 62
7
  6
CONTINUOUS
  0
LAYER
  2
DEFAULT_1
 70
0
 62
7
  6
CENTER
  0
LAYER
  2
DEFAULT_2
 70
0
 62
8
  6
HIDDEN
  0
LAYER
  2
DEFAULT_3
 70
0
 62
7
  6
PHANTOM
  0
LAYER
  2
AUSFORMSCHRAEGEN
 70
0
 62
7
  6
CONTINUOUS
  0
LAYER
  2
BEZUGSACHSEN
 70
0
 62
7
  6
CONTINUOUS
  0
LAYER
  2
BEZUGSEBENEN
 70
0
 62
7
  6
CONTINUOUS
  0
LAYER
  2
BEZUGSPUNKTE
 70
0
 62
7
  6
CONTINUOUS
  0
LAYER
  2
FASEN
 70
0
 62
7
  6
CONTINUOUS
  0
LAYER
  2
FLAECHEN
 70
0
 62
7
  6
CONTINUOUS
  0
LAYER
  2
KONSTRUKTIONSELEMENTE
 70
0
 62
7
  6
CONTINUOUS
  0
LAYER
  2
KOORDINATENSYSTEME
 70
0
 62
7
  6
CONTINUOUS
  0
LAYER
  2
KOPIEGEOMETRIE
 70
0
 62
7
  6
CONTINUOUS
  0
LAYER
  2
RUNDUNGEN
 70
0
 62
7
  6
CONTINUOUS
  0
LAYER
  2
SURFACES
 70
0
 62
7
  6
CONTINUOUS
  0
LAYER
  2
VOLUMEN
 70
0
 62
7
  6
CONTINUOUS
  0
ENDTAB
  0
TABLE
  2
STYLE
 70
1
  0
STYLE
  2
STANDARD
 70
0
 40
0.0
 41
0.8
 50
0.0
 71
0
 42
0.2
  3
txt
  4

  0
STYLE
  2
TEXTSTYLE_1
 70
0
 40
0.0
 41
0.8
 50
0.0
 71
0
 42
0.2
  3
gdt
  4

  0
ENDTAB
  0
ENDSEC
  0
SECTION
  2
BLOCKS
  0
BLOCK
  8
0
  2
_FILLED
 70
64
 10
0.0
 20
0.0
  0
SOLID
  8
0
  6
BYBLOCK
 62
0
 10
0.0
 20
0.0
 11
-1.0
 21
0.2
 12
-1.0
 22
-0.2
 13
-1.0
 23
-0.2
  0
ENDBLK
  8
0
  6
BYBLOCK
 62
0
  0
BLOCK
  8
0
 62
2
  6
CONTINUOUS
  2
*D0
 70
65
 10
0.0
 20
0.0
  0
TEXT
  8
0
 62
2
  6
CONTINUOUS
 10
142.5401050841
 20
149.4750679328
  7
STANDARD
 40
2.5
  1
1.5
 50
90.0
 41
0.619047619
 72
0
  0
LINE
  8
0
 62
2
  6
CONTINUOUS
 10
138.8225231603
 20
141.3169807946
 11
144.1651050841
 21
141.3169807946
  0
LINE
  8
0
 62
2
  6
CONTINUOUS
 10
138.8225231603
 20
142.8169807946
 11
144.1651050841
 21
142.8169807946
  0
LINE
  8
0
 62
2
  6
CONTINUOUS
 10
143.1651050841
 20
141.3169807946
 11
143.1651050841
 21
139.3169807946
  0
LINE
  8
0
 62
2
  6
CONTINUOUS
 10
143.1651050841
 20
139.3169807946
 11
143.1651050841
 21
142.0669807946
  0
LINE
  8
0
 62
2
  6
CONTINUOUS
 10
143.1651050841
 20
142.8169807946
 11
143.1651050841
 21
154.1179250756
  0
LINE
  8
0
 62
2
  6
CONTINUOUS
 10
143.1651050841
 20
154.1179250756
 11
143.1651050841
 21
142.0669807946
  0
INSERT
  8
0
 62
2
  6
CONTINUOUS
  2
_FILLED
 10
143.1651050841
 20
141.3169807946
 41
2.0
 42
2.0
 43
2.0
 50
90.0
  0
INSERT
  8
0
 62
2
  6
CONTINUOUS
  2
_FILLED
 10
143.1651050841
 20
142.8169807946
 41
2.0
 42
2.0
 43
2.0
 50
270.0
  0
ENDBLK
  8
0
  6
BYBLOCK
 62
0
  0
BLOCK
  8
0
 62
2
  6
CONTINUOUS
  2
*D1
 70
65
 10
0.0
 20
0.0
  0
TEXT
  8
0
 62
2
  6
CONTINUOUS
 10
99.9157601173
 20
259.9951457021
  7
STANDARD
 40
2.5
  1
77
 41
0.7857142857
 72
1
 11
101.8800458315
 21
259.9951457021
  0
LINE
  8
0
 62
2
  6
CONTINUOUS
 10
63.3800458315
 20
249.9211073015
 11
63.3800458315
 21
260.3701457021
  0
LINE
  8
0
 62
2
  6
CONTINUOUS
 10
140.3800458315
 20
249.9211073015
 11
140.3800458315
 21
260.3701457021
  0
LINE
  8
0
 62
2
  6
CONTINUOUS
 10
63.3800458315
 20
259.3701457021
 11
101.8800458315
 21
259.3701457021
  0
LINE
  8
0
 62
2
  6
CONTINUOUS
 10
140.3800458315
 20
259.3701457021
 11
101.8800458315
 21
259.3701457021
  0
INSERT
  8
0
 62
2
  6
CONTINUOUS
  2
_FILLED
 10
63.3800458315
 20
259.3701457021
 41
2.0
 42
2.0
 43
2.0
 50
180.0
  0
INSERT
  8
0
 62
2
  6
CONTINUOUS
  2
_FILLED
 10
140.3800458315
 20
259.3701457021
 41
2.0
 42
2.0
 43
2.0
  0
ENDBLK
  8
0
  6
BYBLOCK
 62
0
  0
BLOCK
  8
0
 62
2
  6
CONTINUOUS
  2
*D2
 70
65
 10
0.0
 20
0.0
  0
TEXT
  8
0
 62
2
  6
CONTINUOUS
 10
84.6871886887
 20
200.1667105898
  7
STANDARD
 40
2.5
  1
20.1
 41
0.6785714286
 72
1
 11
88.0800458315
 21
200.1667105898
  0
LINE
  8
0
 62
2
  6
CONTINUOUS
 10
98.1300458315
 20
232.0211073015
 11
98.1300458315
 21
198.5417105898
  0
LINE
  8
0
 62
2
  6
CONTINUOUS
 10
78.0300458315
 20
232.0211073015
 11
78.0300458315
 21
198.5417105898
  0
LINE
  8
0
 62
2
  6
CONTINUOUS
 10
98.1300458315
 20
199.5417105898
 11
88.0800458315
 21
199.5417105898
  0
LINE
  8
0
 62
2
  6
CONTINUOUS
 10
78.0300458315
 20
199.5417105898
 11
88.0800458315
 21
199.5417105898
  0
INSERT
  8
0
 62
2
  6
CONTINUOUS
  2
_FILLED
 10
98.1300458315
 20
199.5417105898
 41
2.0
 42
2.0
 43
2.0
  0
INSERT
  8
0
 62
2
  6
CONTINUOUS
  2
_FILLED
 10
78.0300458315
 20
199.5417105898
 41
2.0
 42
2.0
 43
2.0
 50
180.0
  0
ENDBLK
  8
0
  6
BYBLOCK
 62
0
  0
BLOCK
  8
0
 62
2
  6
CONTINUOUS
  2
*D3
 70
65
 10
0.0
 20
0.0
  0
TEXT
  8
0
 62
2
  6
CONTINUOUS
 10
50.9549835199
 20
236.0782501586
  7
STANDARD
 40
2.5
  1
14.8
 50
90.0
 41
0.6785714286
 72
1
 11
50.9549835199
 21
239.4711073015
  0
LINE
  8
0
 62
2
  6
CONTINUOUS
 10
77.9800458315
 20
232.0711073015
 11
50.5799835199
 21
232.0711073015
  0
LINE
  8
0
 62
2
  6
CONTINUOUS
 10
77.9800458315
 20
246.8711073015
 11
50.5799835199
 21
246.8711073015
  0
LINE
  8
0
 62
2
  6
CONTINUOUS
 10
51.5799835199
 20
232.0711073015
 11
51.5799835199
 21
230.0711073015
  0
LINE
  8
0
 62
2
  6
CONTINUOUS
 10
51.5799835199
 20
230.0711073015
 11
51.5799835199
 21
239.4711073015
  0
LINE
  8
0
 62
2
  6
CONTINUOUS
 10
51.5799835199
 20
246.8711073015
 11
51.5799835199
 21
248.8711073015
  0
LINE
  8
0
 62
2
  6
CONTINUOUS
 10
51.5799835199
 20
248.8711073015
 11
51.5799835199
 21
239.4711073015
  0
INSERT
  8
0
 62
2
  6
CONTINUOUS
  2
_FILLED
 10
51.5799835199
 20
232.0711073015
 41
2.0
 42
2.0
 43
2.0
 50
90.0
  0
INSERT
  8
0
 62
2
  6
CONTINUOUS
  2
_FILLED
 10
51.5799835199
 20
246.8711073015
 41
2.0
 42
2.0
 43
2.0
 50
270.0
  0
ENDBLK
  8
0
  6
BYBLOCK
 62
0
  0
BLOCK
  8
0
 62
2
  6
CONTINUOUS
  2
*D4
 70
65
 10
0.0
 20
0.0
  0
TEXT
  8
0
 62
2
  6
CONTINUOUS
 10
148.7920237391
 20
231.5853930158
  7
STANDARD
 40
2.5
  1
35
 50
90.0
 41
0.7142857143
 72
1
 11
148.7920237391
 21
233.3711073015
  0
LINE
  8
0
 62
2
  6
CONTINUOUS
 10
135.6300458315
 20
250.8711073015
 11
150.4170237391
 21
250.8711073015
  0
LINE
  8
0
 62
2
  6
CONTINUOUS
 10
101.9300458315
 20
215.8711073015
 11
150.4170237391
 21
215.8711073015
  0
LINE
  8
0
 62
2
  6
CONTINUOUS
 10
149.4170237391
 20
250.8711073015
 11
149.4170237391
 21
233.3711073015
  0
LINE
  8
0
 62
2
  6
CONTINUOUS
 10
149.4170237391
 20
215.8711073015
 11
149.4170237391
 21
233.3711073015
  0
INSERT
  8
0
 62
2
  6
CONTINUOUS
  2
_FILLED
 10
149.4170237391
 20
250.8711073015
 41
2.0
 42
2.0
 43
2.0
 50
90.0
  0
INSERT
  8
0
 62
2
  6
CONTINUOUS
  2
_FILLED
 10
149.4170237391
 20
215.8711073015
 41
2.0
 42
2.0
 43
2.0
 50
270.0
  0
ENDBLK
  8
0
  6
BYBLOCK
 62
0
  0
ENDSEC
  0
SECTION
  2
ENTITIES
  0
DIMENSION
  8
0
 62
2
  6
CONTINUOUS
  2
*D0
 10
143.1651050841
 20
142.8169807946
 11
143.1651050841
 21
151.4393466377
 70
128
 13
138.7725231603
 23
141.3169807946
 14
138.7725231603
 24
142.8169807946
 50
90.0
  0
DIMENSION
  8
0
 62
2
  6
CONTINUOUS
  2
*D1
 10
140.3800458315
 20
259.3701457021
 11
101.5228989258
 21
259.3701457021
 70
128
 13
63.3800458315
 23
249.8711073015
 14
140.3800458315
 24
249.8711073015
  0
DIMENSION
  8
0
 62
2
  6
CONTINUOUS
  2
*D2
 10
78.0300458315
 20
199.5417105898
 11
87.7229047852
 21
199.5417105898
 70
128
 13
98.1300458315
 23
232.0711073015
 14
78.0300458315
 24
232.0711073015
 50
180.0
  0
DIMENSION
  8
0
 62
2
  6
CONTINUOUS
  2
*D3
 10
51.5799835199
 20
246.8711073015
 11
51.5799835199
 21
239.1139624395
 70
128
 13
78.0300458315
 23
232.0711073015
 14
78.0300458315
 24
246.8711073015
 50
90.0
  0
DIMENSION
  8
0
 62
2
  6
CONTINUOUS
  2
*D4
 10
149.4170237391
 20
215.8711073015
 11
149.4170237391
 21
233.0139718157
 70
128
 13
135.5800458315
 23
250.8711073015
 14
101.8800458315
 24
215.8711073015
 50
270.0
  0
TEXT
  8
0
 62
2
  6
CONTINUOUS
 10
99.7501404645
 20
21.099689205
  7
STANDARD
 40
2.5
  1
1:1
 41
0.5
 72
2
 11
103.5001404645
 21
21.099689205
  0
TEXT
  8
0
 62
2
  6
CONTINUOUS
 10
98.1300458315
 20
210.3611073015
  7
STANDARD
 40
2.5
  1
1:1
 41
0.5
 72
2
 11
101.8800458315
 21
210.3611073015
  0
TEXT
  8
0
 62
2
  6
CONTINUOUS
 10
96.5225231603
 20
135.8069807946
  7
STANDARD
 40
2.5
  1
1:1
 41
0.5
 72
2
 11
100.2725231603
 21
135.8069807946
  0
LINE
  8
0
 62
7
  6
CONTINUOUS
 10
0.0
 20
0.0
 11
210.0
 21
0.0
  0
LINE
  8
0
 62
7
  6
CONTINUOUS
 10
0.0
 20
0.0
 11
0.0
 21
297.0
  0
LINE
  8
0
 62
7
  6
CONTINUOUS
 10
210.0
 20
0.0
 11
210.0
 21
297.0
  0
LINE
  8
0
 62
7
  6
CONTINUOUS
 10
0.0
 20
297.0
 11
210.0
 21
297.0
  0
LINE
  8
0
 62
7
  6
CONTINUOUS
 10
75.7463104379
 20
43.6509538782
 11
75.7463104379
 21
41.2014466268
  0
LINE
  8
0
 62
7
  6
CONTINUOUS
 10
76.8069750256
 20
43.0385927464
 11
76.8069750256
 21
40.589085495
  0
LINE
  8
0
 62
7
  6
CONTINUOUS
 10
83.8709335275
 20
28.6423072879
 11
84.9315981152
 21
28.0299461561
  0
LINE
  8
0
 62
7
  6
CONTINUOUS
 10
75.7463104379
 20
41.2014466268
 11
83.8709335275
 21
28.6423072879
  0
LINE
  8
0
 62
7
  6
CONTINUOUS
 10
76.8069750256
 20
40.589085495
 11
84.9315981152
 21
28.0299461561
  0
LINE
  8
0
 62
7
  6
CONTINUOUS
 10
79.1404088565
 20
46.4270282339
 11
79.1404088565
 21
45.2022746082
  0
LINE
  8
0
 62
7
  6
CONTINUOUS
 10
91.6561467752
 20
27.2220503368
 11
92.7168113629
 21
26.609689205
  0
POLYLINE
  8
0
 62
7
  6
CONTINUOUS
 66
1
 70
0
  0
VERTEX
  8
0
 62
7
  6
CONTINUOUS
 10
79.9889422931
 20
41.6096817703
  0
VERTEX
  8
0
 62
7
  6
CONTINUOUS
 10
79.989984636
 20
41.5660144693
  0
VERTEX
  8
0
 62
7
  6
CONTINUOUS
 10
79.993087366
 20
41.5237954752
  0
VERTEX
  8
0
 62
7
  6
CONTINUOUS
 10
79.9982595597
 20
41.4829660994
  0
VERTEX
  8
0
 62
7
  6
CONTINUOUS
 10
80.0054739878
 20
41.4437024077
  0
VERTEX
  8
0
 62
7
  6
CONTINUOUS
 10
80.0147184303
 20
41.4061267106
  0
VERTEX
  8
0
 62
7
  6
CONTINUOUS
 10
80.0259569366
 20
41.370341586
  0
VERTEX
  8
0
 62
7
  6
CONTINUOUS
 10
80.0391652453
 20
41.3364601083
  0
VERTEX
  8
0
 62
7
  6
CONTINUOUS
 10
80.0542960685
 20
41.3045730986
  0
VERTEX
  8
0
 62
7
  6
CONTINUOUS
 10
80.071313388
 20
41.2747830696
  0
VERTEX
  8
0
 62
7
  6
CONTINUOUS
 10
80.0901591331
 20
41.2471680208
  0
VERTEX
  8
0
 62
7
  6
CONTINUOUS
 10
80.110785951
 20
41.2218187014
  0
VERTEX
  8
0
 62
7
  6
CONTINUOUS
 10
80.1331256687
 20
41.1987993747
  0
VERTEX
  8
0
 62
7
  6
CONTINUOUS
 10
80.1571201544
 20
41.1781879625
  0
VERTEX
  8
0
 62
7
  6
CONTINUOUS
 10
80.1826919321
 20
41.1600342385
  0
VERTEX
  8
0
 62
7
  6
CONTINUOUS
 10
80.1960645494
 20
41.1518898866
  0
SEQEND
  0
POLYLINE
  8
0
 62
7
  6
CONTINUOUS
 66
1
 70
0
  0
VERTEX
  8
0
 62
7
  6
CONTINUOUS
 10
81.4031499675
 20
42.4261700781
  0
VERTEX
  8
0
 62
7
  6
CONTINUOUS
 10
81.4021076246
 20
42.4698373791
  0
VERTEX
  8
0
 62
7
  6
CONTINUOUS
 10
81.3990048945
 20
42.5120563732
  0
VERTEX
  8
0
 62
7
  6
CONTINUOUS
 10
81.3938327008
 20
42.552885749
  0
VERTEX
  8
0
 62
7
  6
CONTINUOUS
 10
81.3866182727
 20
42.5921494407
  0
VERTEX
  8
0
 62
7
  6
CONTINUOUS
 10
81.3773738302
 20
42.6297251378
  0
VERTEX
  8
0
 62
7
  6
CONTINUOUS
 10
81.366135324
 20
42.6655102624
  0
VERTEX
  8
0
 62
7
  6
CONTINUOUS
 10
81.3529270153
 20
42.6993917401
  0
VERTEX
  8
0
 62
7
  6
CONTINUOUS
 10
81.3377961921
 20
42.7312787498
  0
VERTEX
  8
0
 62
7
  6
CONTINUOUS
 10
81.3207788725
 20
42.7610687788
  0
VERTEX
  8
0
 62
7
  6
CONTINUOUS
 10
81.3019331275
 20
42.7886838276
  0
VERTEX
  8
0
 62
7
  6
CONTINUOUS
 10
81.2813063096
 20
42.814033147
  0
VERTEX
  8
0
 62
7
  6
CONTINUOUS
 10
81.2589665918
 20
42.8370524737
  0
VERTEX
  8
0
 62
7
  6
CONTINUOUS
 10
81.2349721061
 20
42.8576638859
  0
VERTEX
  8
0
 62
7
  6
CONTINUOUS
 10
81.2094003284
 20
42.8758176099
  0
VERTEX
  8
0
 62
7
  6
CONTINUOUS
 10
81.1960277112
 20
42.8839619619
  0
SEQEND
  0
LINE
  8
0
 62
7
  6
CONTINUOUS
 10
79.493969607
 20
44.1816693226
 11
79.493969607
 21
44.5899205311
  0
LINE
  8
0
 62
7
  6
CONTINUOUS
 10
80.2010734442
 20
45.8146671021
 11
80.2010734442
 21
44.5899134764
  0
LINE
  8
0
 62
7
  6
CONTINUOUS
 10
75.7463104379
 20
41.2014466268
 11
76.8069750256
 21
40.589085495
  0
POLYLINE
  8
0
 62
7
  6
CONTINUOUS
 66
1
 70
0
  0
VERTEX
  8
0
 62
7
  6
CONTINUOUS
 10
92.7168113629
 20
26.609689205
  0
VERTEX
  8
0
 62
7
  6
CONTINUOUS
 10
93.3607723996
 20
26.7382374806
  0
VERTEX
  8
0
 62
7
  6
CONTINUOUS
 10
94.0084123549
 20
26.883281231
  0
VERTEX
  8
0
 62
7
  6
CONTINUOUS
 10
94.6598511102
 20
27.0448516191
  0
VERTEX
  8
0
 62
7
  6
CONTINUOUS
 10
95.3147290213
 20
27.2228551563
  0
VERTEX
  8
0
 62
7
  6
CONTINUOUS
 10
95.9728075
 20
27.4172355262
  0
VERTEX
  8
0
 62
7
  6
CONTINUOUS
 10
96.6338432603
 20
27.6279123749
  0
VERTEX
  8
0
 62
7
  6
CONTINUOUS
 10
97.2975951873
 20
27.8548173125
  0
VERTEX
  8
0
 62
7
  6
CONTINUOUS
 10
97.9638181793
 20
28.0978581299
  0
VERTEX
  8
0
 62
7
  6
CONTINUOUS
 10
98.6322689489
 20
28.3569544642
  0
VERTEX
  8
0
 62
7
  6
CONTINUOUS
 10
99.3027009386
 20
28.6320023866
  0
VERTEX
  8
0
 62
7
  6
CONTINUOUS
 10
99.9748690456
 20
28.9229096792
  0
VERTEX
  8
0
 62
7
  6
CONTINUOUS
 10
100.6485256188
 20
29.229560846
  0
VERTEX
  8
0
 62
7
  6
CONTINUOUS
 10
101.3234240998
 20
29.5518519495
  0
VERTEX
  8
0
 62
7
  6
CONTINUOUS
 10
101.9993161075
 20
29.889656096
  0
VERTEX
  8
0
 62
7
  6
CONTINUOUS
 10
102.67595399
 20
30.2428577813
  0
VERTEX
  8
0
 62
7
  6
CONTINUOUS
 10
103.3530890008
 20
30.6113189003
  0
VERTEX
  8
0
 62
7
  6
CONTINUOUS
 10
104.0304727583
 20
30.9949125513
  0
VERTEX
  8
0
 62
7
  6
CONTINUOUS
 10
104.7078565159
 20
31.3934896209
  0
VERTEX
  8
0
 62
7
  6
CONTINUOUS
 10
105.3849915267
 20
31.8069119962
  0
VERTEX
  8
0
 62
7
  6
CONTINUOUS
 10
106.0616294092
 20
32.2350197744
  0
VERTEX
  8
0
 62
7
  6
CONTINUOUS
 10
106.7375214169
 20
32.6776638343
  0
VERTEX
  8
0
 62
7
  6
CONTINUOUS
 10
107.4124198979
 20
33.1346737184
  0
VERTEX
  8
0
 62
7
  6
CONTINUOUS
 10
108.086076471
 20
33.6058895161
  0
VERTEX
  8
0
 62
7
  6
CONTINUOUS
 10
108.758244578
 20
34.0911304655
  0
VERTEX
  8
0
 62
7
  6
CONTINUOUS
 10
109.4286765677
 20
34.5902261016
  0
VERTEX
  8
0
 62
7
  6
CONTINUOUS
 10
110.0971273373
 20
35.1029856234
  0
VERTEX
  8
0
 62
7
  6
CONTINUOUS
 10
110.7633503293
 20
35.6292282616
  0
VERTEX
  8
0
 62
7
  6
CONTINUOUS
 10
111.4271022563
 20
36.1687534565
  0
VERTEX
  8
0
 62
7
  6
CONTINUOUS
 10
112.0881380166
 20
36.7213703999
  0
VERTEX
  8
0
 62
7
  6
CONTINUOUS
 10
112.7462164954
 20
37.2868690677
  0
VERTEX
  8
0
 62
7
  6
CONTINUOUS
 10
113.4010944065
 20
37.8650488933
  0
VERTEX
  8
0
 62
7
  6
CONTINUOUS
 10
114.0525331617
 20
38.4556906965
  0
VERTEX
  8
0
 62
7
  6
CONTINUOUS
 10
114.700173117
 20
39.0584726872
  0
VERTEX
  8
0
 62
7
  6
CONTINUOUS
 10
115.3441341538
 20
39.6735021289
  0
SEQEND
  0
LINE
  8
0
 62
7
  6
CONTINUOUS
 10
84.9315981152
 20
28.0299461561
 11
92.7168113629
 21
28.7088165952
  0
POLYLINE
  8
0
 62
7
  6
CONTINUOUS
 66
1
 70
0
  0
VERTEX
  8
0
 62
7
  6
CONTINUOUS
 10
80.1960645494
 20
41.1518898866
  0
VERTEX
  8
0
 62
7
  6
CONTINUOUS
 10
80.2097727722
 20
41.1444023834
  0
VERTEX
  8
0
 62
7
  6
CONTINUOUS
 10
80.2382768041
 20
41.1313270979
  0
VERTEX
  8
0
 62
7
  6
CONTINUOUS
 10
80.2681265005
 20
41.1208580692
  0
VERTEX
  8
0
 62
7
  6
CONTINUOUS
 10
80.299228603
 20
41.1130145179
  0
VERTEX
  8
0
 62
7
  6
CONTINUOUS
 10
80.3314971951
 20
41.1078310554
  0
VERTEX
  8
0
 62
7
  6
CONTINUOUS
 10
80.3648327245
 20
41.1053111968
  0
VERTEX
  8
0
 62
7
  6
CONTINUOUS
 10
80.3991418928
 20
41.1054740718
  0
VERTEX
  8
0
 62
7
  6
CONTINUOUS
 10
80.4343200203
 20
41.108307449
  0
VERTEX
  8
0
 62
7
  6
CONTINUOUS
 10
80.4702675212
 20
41.1138147519
  0
VERTEX
  8
0
 62
7
  6
CONTINUOUS
 10
80.5068758155
 20
41.1219681461
  0
VERTEX
  8
0
 62
7
  6
CONTINUOUS
 10
80.5440401973
 20
41.1327553088
  0
VERTEX
  8
0
 62
7
  6
CONTINUOUS
 10
80.5816494597
 20
41.146133129
  0
VERTEX
  8
0
 62
7
  6
CONTINUOUS
 10
80.619595004
 20
41.1620736819
  0
VERTEX
  8
0
 62
7
  6
CONTINUOUS
 10
80.6577643003
 20
41.1805190853
  0
VERTEX
  8
0
 62
7
  6
CONTINUOUS
 10
80.6960461303
 20
41.2014261401
  0
VERTEX
  8
0
 62
7
  6
CONTINUOUS
 10
80.7343279603
 20
41.2247228711
  0
VERTEX
  8
0
 62
7
  6
CONTINUOUS
 10
80.7724972565
 20
41.2503513117
  0
VERTEX
  8
0
 62
7
  6
CONTINUOUS
 10
80.8104428008
 20
41.2782262376
  0
VERTEX
  8
0
 62
7
  6
CONTINUOUS
 10
80.8480520633
 20
41.3082755938
  0
VERTEX
  8
0
 62
7
  6
CONTINUOUS
 10
80.885216445
 20
41.3404019065
  0
VERTEX
  8
0
 62
7
  6
CONTINUOUS
 10
80.9218247394
 20
41.3745198772
  0
VERTEX
  8
0
 62
7
  6
CONTINUOUS
 10
80.9577722402
 20
41.4105209251
  0
VERTEX
  8
0
 62
7
  6
CONTINUOUS
 10
80.9929503677
 20
41.4483075082
  0
VERTEX
  8
0
 62
7
  6
CONTINUOUS
 10
81.0272595361
 20
41.4877612119
  0
VERTEX
  8
0
 62
7
  6
CONTINUOUS
 10
81.0605950654
 20
41.5287733943
  0
VERTEX
  8
0
 62
7
  6
CONTINUOUS
 10
81.0928636576
 20
41.5712171952
  0
VERTEX
  8
0
 62
7
  6
CONTINUOUS
 10
81.1239657601
 20
41.6149741466
  0
VERTEX
  8
0
 62
7
  6
CONTINUOUS
 10
81.1538154564
 20
41.65991043
  0
VERTEX
  8
0
 62
7
  6
CONTINUOUS
 10
81.1823194884
 20
41.7058991401
  0
VERTEX
  8
0
 62
7
  6
CONTINUOUS
 10
81.2094003284
 20
41.7528010691
  0
VERTEX
  8
0
 62
7
  6
CONTINUOUS
 10
81.2349721061
 20
41.8004823624
  0
VERTEX
  8
0
 62
7
  6
CONTINUOUS
 10
81.2589665918
 20
41.8488000547
  0
VERTEX
  8
0
 62
7
  6
CONTINUOUS
 10
81.2813063096
 20
41.8976149116
  0
VERTEX
  8
0
 62
7
  6
CONTINUOUS
 10
81.3019331275
 20
41.9467818865
  0
VERTEX
  8
0
 62
7
  6
CONTINUOUS
 10
81.3207788725
 20
41.9961579974
  0
VERTEX
  8
0
 62
7
  6
CONTINUOUS
 10
81.3377961921
 20
42.0455978171
  0
VERTEX
  8
0
 62
7
  6
CONTINUOUS
 10
81.3529270153
 20
42.0949562922
  0
VERTEX
  8
0
 62
7
  6
CONTINUOUS
 10
81.366135324
 20
42.1440893201
  0
VERTEX
  8
0
 62
7
  6
CONTINUOUS
 10
81.3773738302
 20
42.1928514765
  0
VERTEX
  8
0
 62
7
  6
CONTINUOUS
 10
81.3866182727
 20
42.2411016726
  0
VERTEX
  8
0
 62
7
  6
CONTINUOUS
 10
81.3938327008
 20
42.2886958185
  0
VERTEX
  8
0
 62
7
  6
CONTINUOUS
 10
81.3990048945
 20
42.3354974935
  0
VERTEX
  8
0
 62
7
  6
CONTINUOUS
 10
81.4021076246
 20
42.3812991903
  0
VERTEX
  8
0
 62
7
  6
CONTINUOUS
 10
81.4031499675
 20
42.4261700781
  0
SEQEND
  0
LINE
  8
0
 62
7
  6
CONTINUOUS
 10
75.7463104379
 20
43.6509538782
 11
76.8069750256
 21
43.0385927464
  0
LINE
  8
0
 62
7
  6
CONTINUOUS
 10
85.5043522233
 20
47.6517446305
 11
85.5043522233
 21
48.8764982562
  0
LINE
  8
0
 62
7
  6
CONTINUOUS
 10
86.2114560605
 20
48.4682399929
 11
86.2114560605
 21
48.0599887844
  0
POLYLINE
  8
0
 62
7
  6
CONTINUOUS
 66
1
 70
0
  0
VERTEX
  8
0
 62
7
  6
CONTINUOUS
 10
81.1960277112
 20
42.8839619619
  0
VERTEX
  8
0
 62
7
  6
CONTINUOUS
 10
81.1823194884
 20
42.891449465
  0
VERTEX
  8
0
 62
7
  6
CONTINUOUS
 10
81.1538154564
 20
42.9045247505
  0
VERTEX
  8
0
 62
7
  6
CONTINUOUS
 10
81.1239657601
 20
42.9149937792
  0
VERTEX
  8
0
 62
7
  6
CONTINUOUS
 10
81.0928636576
 20
42.9228373305
  0
VERTEX
  8
0
 62
7
  6
CONTINUOUS
 10
81.0605950654
 20
42.9280207931
  0
VERTEX
  8
0
 62
7
  6
CONTINUOUS
 10
81.0272595361
 20
42.9305406516
  0
VERTEX
  8
0
 62
7
  6
CONTINUOUS
 10
80.9929503677
 20
42.9303777767
  0
VERTEX
  8
0
 62
7
  6
CONTINUOUS
 10
80.9577722402
 20
42.9275443994
  0
VERTEX
  8
0
 62
7
  6
CONTINUOUS
 10
80.9218247394
 20
42.9220370965
  0
VERTEX
  8
0
 62
7
  6
CONTINUOUS
 10
80.885216445
 20
42.9138837023
  0
VERTEX
  8
0
 62
7
  6
CONTINUOUS
 10
80.8480520633
 20
42.9030965396
  0
VERTEX
  8
0
 62
7
  6
CONTINUOUS
 10
80.8104428008
 20
42.8897187194
  0
VERTEX
  8
0
 62
7
  6
CONTINUOUS
 10
80.7724972565
 20
42.8737781665
  0
VERTEX
  8
0
 62
7
  6
CONTINUOUS
 10
80.7343279603
 20
42.8553327631
  0
VERTEX
  8
0
 62
7
  6
CONTINUOUS
 10
80.6960461303
 20
42.8344257083
  0
VERTEX
  8
0
 62
7
  6
CONTINUOUS
 10
80.6577643003
 20
42.8111289773
  0
VERTEX
  8
0
 62
7
  6
CONTINUOUS
 10
80.619595004
 20
42.7855005368
  0
VERTEX
  8
0
 62
7
  6
CONTINUOUS
 10
80.5816494597
 20
42.7576256109
  0
VERTEX
  8
0
 62
7
  6
CONTINUOUS
 10
80.5440401973
 20
42.7275762546
  0
VERTEX
  8
0
 62
7
  6
CONTINUOUS
 10
80.5068758155
 20
42.6954499419
  0
VERTEX
  8
0
 62
7
  6
CONTINUOUS
 10
80.4702675212
 20
42.6613319713
  0
VERTEX
  8
0
 62
7
  6
CONTINUOUS
 10
80.4343200203
 20
42.6253309233
  0
VERTEX
  8
0
 62
7
  6
CONTINUOUS
 10
80.3991418928
 20
42.5875443402
  0
VERTEX
  8
0
 62
7
  6
CONTINUOUS
 10
80.3648327245
 20
42.5480906365
  0
VERTEX
  8
0
 62
7
  6
CONTINUOUS
 10
80.3314971951
 20
42.5070784541
  0
VERTEX
  8
0
 62
7
  6
CONTINUOUS
 10
80.299228603
 20
42.4646346532
  0
VERTEX
  8
0
 62
7
  6
CONTINUOUS
 10
80.2681265005
 20
42.4208777018
  0
VERTEX
  8
0
 62
7
  6
CONTINUOUS
 10
80.2382768041
 20
42.3759414184
  0
VERTEX
  8
0
 62
7
  6
CONTINUOUS
 10
80.2097727722
 20
42.3299527083
  0
VERTEX
  8
0
 62
7
  6
CONTINUOUS
 10
80.1826919321
 20
42.2830507793
  0
VERTEX
  8
0
 62
7
  6
CONTINUOUS
 10
80.1571201544
 20
42.235369486
  0
VERTEX
  8
0
 62
7
  6
CONTINUOUS
 10
80.1331256687
 20
42.1870517937
  0
VERTEX
  8
0
 62
7
  6
CONTINUOUS
 10
80.110785951
 20
42.1382369368
  0
VERTEX
  8
0
 62
7
  6
CONTINUOUS
 10
80.0901591331
 20
42.0890699619
  0
VERTEX
  8
0
 62
7
  6
CONTINUOUS
 10
80.071313388
 20
42.039693851
  0
VERTEX
  8
0
 62
7
  6
CONTINUOUS
 10
80.0542960685
 20
41.9902540313
  0
VERTEX
  8
0
 62
7
  6
CONTINUOUS
 10
80.0391652453
 20
41.9408955562
  0
VERTEX
  8
0
 62
7
  6
CONTINUOUS
 10
80.0259569366
 20
41.8917625283
  0
VERTEX
  8
0
 62
7
  6
CONTINUOUS
 10
80.0147184303
 20
41.8430003719
  0
VERTEX
  8
0
 62
7
  6
CONTINUOUS
 10
80.0054739878
 20
41.7947501758
  0
VERTEX
  8
0
 62
7
  6
CONTINUOUS
 10
79.9982595597
 20
41.7471560299
  0
VERTEX
  8
0
 62
7
  6
CONTINUOUS
 10
79.993087366
 20
41.7003543549
  0
VERTEX
  8
0
 62
7
  6
CONTINUOUS
 10
79.989984636
 20
41.6545526581
  0
VERTEX
  8
0
 62
7
  6
CONTINUOUS
 10
79.9889422931
 20
41.6096817703
  0
SEQEND
  0
LINE
  8
0
 62
7
  6
CONTINUOUS
 10
78.4333050193
 20
45.2022816629
 11
79.493969607
 21
44.5899205311
  0
LINE
  8
0
 62
7
  6
CONTINUOUS
 10
79.1404088565
 20
45.2022746082
 11
80.2010734442
 21
44.5899134764
  0
LINE
  8
0
 62
7
  6
CONTINUOUS
 10
87.1660462408
 20
46.5698623493
 11
87.1660462408
 21
34.4856265757
  0
LINE
  8
0
 62
7
  6
CONTINUOUS
 10
79.1404088565
 20
46.4270282339
 11
80.2010734442
 21
45.8146671021
  0
POLYLINE
  8
0
 62
7
  6
CONTINUOUS
 66
1
 70
0
  0
VERTEX
  8
0
 62
7
  6
CONTINUOUS
 10
103.1304758889
 20
32.2121711722
  0
VERTEX
  8
0
 62
7
  6
CONTINUOUS
 10
103.1093153225
 20
32.2249812127
  0
VERTEX
  8
0
 62
7
  6
CONTINUOUS
 10
103.0685645951
 20
32.2532124145
  0
VERTEX
  8
0
 62
7
  6
CONTINUOUS
 10
103.0299965957
 20
32.2848877686
  0
VERTEX
  8
0
 62
7
  6
CONTINUOUS
 10
102.9936911518
 20
32.319923976
  0
VERTEX
  8
0
 62
7
  6
CONTINUOUS
 10
102.959738336
 20
32.3582529563
  0
VERTEX
  8
0
 62
7
  6
CONTINUOUS
 10
102.9282069633
 20
32.3997768761
  0
VERTEX
  8
0
 62
7
  6
CONTINUOUS
 10
102.899176813
 20
32.4444123694
  0
VERTEX
  8
0
 62
7
  6
CONTINUOUS
 10
102.8727050645
 20
32.4920479546
  0
VERTEX
  8
0
 62
7
  6
CONTINUOUS
 10
102.8488604813
 20
32.5425857349
  0
VERTEX
  8
0
 62
7
  6
CONTINUOUS
 10
102.8276880892
 20
32.5959015902
  0
VERTEX
  8
0
 62
7
  6
CONTINUOUS
 10
102.8092450134
 20
32.6518839797
  0
VERTEX
  8
0
 62
7
  6
CONTINUOUS
 10
102.7935637181
 20
32.7103972685
  0
VERTEX
  8
0
 62
7
  6
CONTINUOUS
 10
102.780689173
 20
32.7713172818
  0
VERTEX
  8
0
 62
7
  6
CONTINUOUS
 10
102.7706409869
 20
32.8344980987
  0
VERTEX
  8
0
 62
7
  6
CONTINUOUS
 10
102.7634515663
 20
32.8998040349
  0
VERTEX
  8
0
 62
7
  6
CONTINUOUS
 10
102.7591274872
 20
32.9670802045
  0
VERTEX
  8
0
 62
7
  6
CONTINUOUS
 10
102.7576882997
 20
33.0361806429
  0
VERTEX
  8
0
 62
7
  6
CONTINUOUS
 10
102.7591274872
 20
33.1069429019
  0
VERTEX
  8
0
 62
7
  6
CONTINUOUS
 10
102.7634515663
 20
33.1792120582
  0
VERTEX
  8
0
 62
7
  6
CONTINUOUS
 10
102.7706409869
 20
33.2528195727
  0
VERTEX
  8
0
 62
7
  6
CONTINUOUS
 10
102.780689173
 20
33.3276029662
  0
VERTEX
  8
0
 62
7
  6
CONTINUOUS
 10
102.7935637181
 20
33.403389135
  0
VERTEX
  8
0
 62
7
  6
CONTINUOUS
 10
102.8092450134
 20
33.4800095158
  0
VERTEX
  8
0
 62
7
  6
CONTINUOUS
 10
102.8276880892
 20
33.5572880077
  0
VERTEX
  8
0
 62
7
  6
CONTINUOUS
 10
102.8488604813
 20
33.6350514897
  0
VERTEX
  8
0
 62
7
  6
CONTINUOUS
 10
102.8727050645
 20
33.7131224586
  0
VERTEX
  8
0
 62
7
  6
CONTINUOUS
 10
102.899176813
 20
33.7913248037
  0
VERTEX
  8
0
 62
7
  6
CONTINUOUS
 10
102.9282069633
 20
33.869481227
  0
VERTEX
  8
0
 62
7
  6
CONTINUOUS
 10
102.959738336
 20
33.9474142226
  0
VERTEX
  8
0
 62
7
  6
CONTINUOUS
 10
102.9936911518
 20
34.0249483035
  0
VERTEX
  8
0
 62
7
  6
CONTINUOUS
 10
103.0299965957
 20
34.1019061763
  0
VERTEX
  8
0
 62
7
  6
CONTINUOUS
 10
103.0685645951
 20
34.1781157542
  0
VERTEX
  8
0
 62
7
  6
CONTINUOUS
 10
103.1093153225
 20
34.2534015619
  0
VERTEX
  8
0
 62
7
  6
CONTINUOUS
 10
103.1521492277
 20
34.3275964711
  0
VERTEX
  8
0
 62
7
  6
CONTINUOUS
 10
103.1969761936
 20
34.4005284137
  0
VERTEX
  8
0
 62
7
  6
CONTINUOUS
 10
103.2436880942
 20
34.4720367335
  0
VERTEX
  8
0
 62
7
  6
CONTINUOUS
 10
103.2921853387
 20
34.5419543281
  0
VERTEX
  8
0
 62
7
  6
CONTINUOUS
 10
103.3423522045
 20
34.6101284681
  0
VERTEX
  8
0
 62
7
  6
CONTINUOUS
 10
103.394080529
 20
34.6763985301
  0
VERTEX
  8
0
 62
7
  6
CONTINUOUS
 10
103.447248041
 20
34.7406210948
  0
VERTEX
  8
0
 62
7
  6
CONTINUOUS
 10
103.5017389859
 20
34.8026434722
  0
VERTEX
  8
0
 62
7
  6
CONTINUOUS
 10
103.5574256509
 20
34.8623328521
  0
VERTEX
  8
0
 62
7
  6
CONTINUOUS
 10
103.6141857377
 20
34.9195458606
  0
VERTEX
  8
0
 62
7
  6
CONTINUOUS
 10
103.6718872487
 20
34.9741614995
  0
VERTEX
  8
0
 62
7
  6
CONTINUOUS
 10
103.7304024492
 20
35.0260470094
  0
VERTEX
  8
0
 62
7
  6
CONTINUOUS
 10
103.7895962524
 20
35.0750942995
  0
VERTEX
  8
0
 62
7
  6
CONTINUOUS
 10
103.8493366439
 20
35.1211824274
  0
VERTEX
  8
0
 62
7
  6
CONTINUOUS
 10
103.909486671
 20
35.1642171889
  0
VERTEX
  8
0
 62
7
  6
CONTINUOUS
 10
103.9698427561
 20
35.2040472507
  0
VERTEX
  8
0
 62
7
  6
CONTINUOUS
 10
104.0304727583
 20
35.2407230571
  0
SEQEND
  0
POLYLINE
  8
0
 62
7
  6
CONTINUOUS
 66
1
 70
0
  0
VERTEX
  8
0
 62
7
  6
CONTINUOUS
 10
104.9304696278
 20
35.3298662404
  0
VERTEX
  8
0
 62
7
  6
CONTINUOUS
 10
104.9516301942
 20
35.3170561999
  0
VERTEX
  8
0
 62
7
  6
CONTINUOUS
 10
104.9923809215
 20
35.2888249981
  0
VERTEX
  8
0
 62
7
  6
CONTINUOUS
 10
105.0309489209
 20
35.2571496441
  0
VERTEX
  8
0
 62
7
  6
CONTINUOUS
 10
105.0672543648
 20
35.2221134366
  0
VERTEX
  8
0
 62
7
  6
CONTINUOUS
 10
105.1012071806
 20
35.1837844564
  0
VERTEX
  8
0
 62
7
  6
CONTINUOUS
 10
105.1327385534
 20
35.1422605365
  0
VERTEX
  8
0
 62
7
  6
CONTINUOUS
 10
105.1617687036
 20
35.0976250432
  0
VERTEX
  8
0
 62
7
  6
CONTINUOUS
 10
105.1882404522
 20
35.049989458
  0
VERTEX
  8
0
 62
7
  6
CONTINUOUS
 10
105.2120850353
 20
34.9994516777
  0
VERTEX
  8
0
 62
7
  6
CONTINUOUS
 10
105.2332574275
 20
34.9461358224
  0
VERTEX
  8
0
 62
7
  6
CONTINUOUS
 10
105.2517005033
 20
34.8901534329
  0
VERTEX
  8
0
 62
7
  6
CONTINUOUS
 10
105.2673817985
 20
34.8316401442
  0
VERTEX
  8
0
 62
7
  6
CONTINUOUS
 10
105.2802563436
 20
34.7707201308
  0
VERTEX
  8
0
 62
7
  6
CONTINUOUS
 10
105.2903045298
 20
34.707539314
  0
VERTEX
  8
0
 62
7
  6
CONTINUOUS
 10
105.2974939503
 20
34.6422333777
  0
VERTEX
  8
0
 62
7
  6
CONTINUOUS
 10
105.3018180295
 20
34.5749572081
  0
VERTEX
  8
0
 62
7
  6
CONTINUOUS
 10
105.3032572169
 20
34.5058567697
  0
VERTEX
  8
0
 62
7
  6
CONTINUOUS
 10
105.3018180295
 20
34.4350945107
  0
VERTEX
  8
0
 62
7
  6
CONTINUOUS
 10
105.2974939503
 20
34.3628253544
  0
VERTEX
  8
0
 62
7
  6
CONTINUOUS
 10
105.2903045298
 20
34.28921784
  0
VERTEX
  8
0
 62
7
  6
CONTINUOUS
 10
105.2802563436
 20
34.2144344464
  0
VERTEX
  8
0
 62
7
  6
CONTINUOUS
 10
105.2673817985
 20
34.1386482776
  0
VERTEX
  8
0
 62
7
  6
CONTINUOUS
 10
105.2517005033
 20
34.0620278968
  0
VERTEX
  8
0
 62
7
  6
CONTINUOUS
 10
105.2332574275
 20
33.984749405
  0
VERTEX
  8
0
 62
7
  6
CONTINUOUS
 10
105.2120850353
 20
33.906985923
  0
VERTEX
  8
0
 62
7
  6
CONTINUOUS
 10
105.1882404522
 20
33.828914954
  0
VERTEX
  8
0
 62
7
  6
CONTINUOUS
 10
105.1617687036
 20
33.7507126089
  0
VERTEX
  8
0
 62
7
  6
CONTINUOUS
 10
105.1327385534
 20
33.6725561857
  0
VERTEX
  8
0
 62
7
  6
CONTINUOUS
 10
105.1012071806
 20
33.5946231901
  0
VERTEX
  8
0
 62
7
  6
CONTINUOUS
 10
105.0672543648
 20
33.5170891091
  0
VERTEX
  8
0
 62
7
  6
CONTINUOUS
 10
105.0309489209
 20
33.4401312363
  0
VERTEX
  8
0
 62
7
  6
CONTINUOUS
 10
104.9923809215
 20
33.3639216584
  0
VERTEX
  8
0
 62
7
  6
CONTINUOUS
 10
104.9516301942
 20
33.2886358507
  0
VERTEX
  8
0
 62
7
  6
CONTINUOUS
 10
104.9087962889
 20
33.2144409415
  0
VERTEX
  8
0
 62
7
  6
CONTINUOUS
 10
104.863969323
 20
33.1415089989
  0
VERTEX
  8
0
 62
7
  6
CONTINUOUS
 10
104.8172574224
 20
33.0700006791
  0
VERTEX
  8
0
 62
7
  6
CONTINUOUS
 10
104.7687601779
 20
33.0000830846
  0
VERTEX
  8
0
 62
7
  6
CONTINUOUS
 10
104.7185933122
 20
32.9319089445
  0
VERTEX
  8
0
 62
7
  6
CONTINUOUS
 10
104.6668649876
 20
32.8656388826
  0
VERTEX
  8
0
 62
7
  6
CONTINUOUS
 10
104.6136974756
 20
32.8014163178
  0
VERTEX
  8
0
 62
7
  6
CONTINUOUS
 10
104.5592065307
 20
32.7393939405
  0
VERTEX
  8
0
 62
7
  6
CONTINUOUS
 10
104.5035198657
 20
32.6797045605
  0
VERTEX
  8
0
 62
7
  6
CONTINUOUS
 10
104.4467597789
 20
32.622491552
  0
VERTEX
  8
0
 62
7
  6
CONTINUOUS
 10
104.3890582679
 20
32.5678759131
  0
VERTEX
  8
0
 62
7
  6
CONTINUOUS
 10
104.3305430674
 20
32.5159904033
  0
VERTEX
  8
0
 62
7
  6
CONTINUOUS
 10
104.2713492643
 20
32.4669431132
  0
VERTEX
  8
0
 62
7
  6
CONTINUOUS
 10
104.2116088727
 20
32.4208549852
  0
VERTEX
  8
0
 62
7
  6
CONTINUOUS
 10
104.1514588457
 20
32.3778202237
  0
VERTEX
  8
0
 62
7
  6
CONTINUOUS
 10
104.0911027606
 20
32.337990162
  0
VERTEX
  8
0
 62
7
  6
CONTINUOUS
 10
104.0304727583
 20
32.3013143555
  0
SEQEND
  0
LINE
  8
0
 62
7
  6
CONTINUOUS
 10
91.6561467752
 20
28.6163266644
 11
91.6561467752
 21
27.2220503368
  0
LINE
  8
0
 62
7
  6
CONTINUOUS
 10
92.7168113629
 20
28.7088165952
 11
92.7168113629
 21
26.609689205
  0
LINE
  8
0
 62
7
  6
CONTINUOUS
 10
85.5043522233
 20
48.4682261396
 11
86.2114560605
 21
48.0599887844
  0
LINE
  8
0
 62
7
  6
CONTINUOUS
 10
84.4436876356
 20
49.488859388
 11
86.2114560605
 21
48.4682399929
  0
LINE
  8
0
 62
7
  6
CONTINUOUS
 10
126.7992074847
 20
73.9426842049
 11
121.4959287056
 21
70.8808530508
  0
LINE
  8
0
 62
7
  6
CONTINUOUS
 10
84.4436876356
 20
49.488859388
 11
79.1404088565
 21
46.4270282339
  0
LINE
  8
0
 62
7
  6
CONTINUOUS
 10
130.1933059033
 20
75.0857537263
 11
127.5063113219
 21
73.5344259416
  0
LINE
  8
0
 62
7
  6
CONTINUOUS
 10
120.7888248684
 20
69.6561064798
 11
85.1507914728
 21
49.0806011247
  0
LINE
  8
0
 62
7
  6
CONTINUOUS
 10
78.4333050193
 20
45.2022816629
 11
75.7463104379
 21
43.6509538782
  0
LINE
  8
0
 62
7
  6
CONTINUOUS
 10
127.8598720724
 20
73.3303230731
 11
122.5565932933
 21
70.268491919
  0
LINE
  8
0
 62
7
  6
CONTINUOUS
 10
85.5043522233
 20
48.8764982562
 11
80.2010734442
 21
45.8146671021
  0
LINE
  8
0
 62
7
  6
CONTINUOUS
 10
121.4959287056
 20
69.6560994251
 11
121.1423858406
 21
69.4519825753
  0
LINE
  8
0
 62
7
  6
CONTINUOUS
 10
79.1404088565
 20
45.2022746082
 11
78.7868659915
 21
44.9981577583
  0
LINE
  8
0
 62
7
  6
CONTINUOUS
 10
101.3788333688
 20
42.6913340686
 11
100.3181687811
 21
43.3036952003
  0
LINE
  8
0
 62
7
  6
CONTINUOUS
 10
131.2539704911
 20
74.4733925945
 11
128.5669759097
 21
72.9220648098
  0
LINE
  8
0
 62
7
  6
CONTINUOUS
 10
121.8494894561
 20
69.043745348
 11
86.2114560605
 21
48.4682399929
  0
LINE
  8
0
 62
7
  6
CONTINUOUS
 10
79.493969607
 20
44.5899205311
 11
76.8069750256
 21
43.0385927464
  0
LINE
  8
0
 62
7
  6
CONTINUOUS
 10
128.5669759097
 20
72.5138136013
 11
127.8598720724
 21
72.1055694474
  0
LINE
  8
0
 62
7
  6
CONTINUOUS
 10
122.5565932933
 20
69.0437382933
 11
121.8494894561
 21
68.6354941395
  0
LINE
  8
0
 62
7
  6
CONTINUOUS
 10
86.2114560605
 20
48.0599887844
 11
85.5043522233
 21
47.6517446305
  0
LINE
  8
0
 62
7
  6
CONTINUOUS
 10
80.2010734442
 20
44.5899134764
 11
79.493969607
 21
44.1816693226
  0
LINE
  8
0
 62
7
  6
CONTINUOUS
 10
100.3181687811
 20
43.3036952003
 11
100.3181687811
 21
54.1631985122
  0
LINE
  8
0
 62
7
  6
CONTINUOUS
 10
120.8948992759
 20
66.0431084889
 11
106.6821121479
 21
57.8374009961
  0
LINE
  8
0
 62
7
  6
CONTINUOUS
 10
101.3788333688
 20
54.7755698421
 11
87.1660462408
 21
46.5698623493
  0
LINE
  8
0
 62
7
  6
CONTINUOUS
 10
101.3788333688
 20
42.6913340686
 11
101.3788333688
 21
54.7755698421
  0
POLYLINE
  8
0
 62
7
  6
CONTINUOUS
 66
1
 70
0
  0
VERTEX
  8
0
 62
7
  6
CONTINUOUS
 10
104.2270393481
 20
35.336252417
  0
VERTEX
  8
0
 62
7
  6
CONTINUOUS
 10
104.2296399421
 20
35.3199004457
  0
VERTEX
  8
0
 62
7
  6
CONTINUOUS
 10
104.2368293626
 20
35.2545945095
  0
VERTEX
  8
0
 62
7
  6
CONTINUOUS
 10
104.2411534417
 20
35.1873183399
  0
VERTEX
  8
0
 62
7
  6
CONTINUOUS
 10
104.2425926292
 20
35.1182179015
  0
VERTEX
  8
0
 62
7
  6
CONTINUOUS
 10
104.2411534417
 20
35.0474556425
  0
VERTEX
  8
0
 62
7
  6
CONTINUOUS
 10
104.2368293626
 20
34.9751864862
  0
VERTEX
  8
0
 62
7
  6
CONTINUOUS
 10
104.2296399421
 20
34.9015789717
  0
VERTEX
  8
0
 62
7
  6
CONTINUOUS
 10
104.2195917559
 20
34.8267955782
  0
VERTEX
  8
0
 62
7
  6
CONTINUOUS
 10
104.2067172108
 20
34.7510094094
  0
VERTEX
  8
0
 62
7
  6
CONTINUOUS
 10
104.1910359155
 20
34.6743890286
  0
VERTEX
  8
0
 62
7
  6
CONTINUOUS
 10
104.1725928398
 20
34.5971105367
  0
VERTEX
  8
0
 62
7
  6
CONTINUOUS
 10
104.1514204476
 20
34.5193470547
  0
VERTEX
  8
0
 62
7
  6
CONTINUOUS
 10
104.1275758645
 20
34.4412760858
  0
VERTEX
  8
0
 62
7
  6
CONTINUOUS
 10
104.1011041159
 20
34.3630737407
  0
VERTEX
  8
0
 62
7
  6
CONTINUOUS
 10
104.0720739657
 20
34.2849173174
  0
VERTEX
  8
0
 62
7
  6
CONTINUOUS
 10
104.0405425929
 20
34.2069843218
  0
VERTEX
  8
0
 62
7
  6
CONTINUOUS
 10
104.0065897771
 20
34.1294502409
  0
VERTEX
  8
0
 62
7
  6
CONTINUOUS
 10
103.9702843332
 20
34.0524923681
  0
VERTEX
  8
0
 62
7
  6
CONTINUOUS
 10
103.9317163338
 20
33.9762827902
  0
VERTEX
  8
0
 62
7
  6
CONTINUOUS
 10
103.8909656065
 20
33.9009969825
  0
VERTEX
  8
0
 62
7
  6
CONTINUOUS
 10
103.8481317012
 20
33.8268020733
  0
VERTEX
  8
0
 62
7
  6
CONTINUOUS
 10
103.8033047353
 20
33.7538701307
  0
VERTEX
  8
0
 62
7
  6
CONTINUOUS
 10
103.7565928347
 20
33.6823618109
  0
VERTEX
  8
0
 62
7
  6
CONTINUOUS
 10
103.7080955902
 20
33.6124442163
  0
VERTEX
  8
0
 62
7
  6
CONTINUOUS
 10
103.6579287244
 20
33.5442700763
  0
VERTEX
  8
0
 62
7
  6
CONTINUOUS
 10
103.6062003999
 20
33.4780000143
  0
VERTEX
  8
0
 62
7
  6
CONTINUOUS
 10
103.5530328879
 20
33.4137774496
  0
VERTEX
  8
0
 62
7
  6
CONTINUOUS
 10
103.498541943
 20
33.3517550722
  0
VERTEX
  8
0
 62
7
  6
CONTINUOUS
 10
103.442855278
 20
33.2920656923
  0
VERTEX
  8
0
 62
7
  6
CONTINUOUS
 10
103.3860951912
 20
33.2348526838
  0
VERTEX
  8
0
 62
7
  6
CONTINUOUS
 10
103.3283936802
 20
33.1802370449
  0
VERTEX
  8
0
 62
7
  6
CONTINUOUS
 10
103.2698784797
 20
33.128351535
  0
VERTEX
  8
0
 62
7
  6
CONTINUOUS
 10
103.2106846766
 20
33.0793042449
  0
VERTEX
  8
0
 62
7
  6
CONTINUOUS
 10
103.150944285
 20
33.033216117
  0
VERTEX
  8
0
 62
7
  6
CONTINUOUS
 10
103.090794258
 20
32.9901813555
  0
VERTEX
  8
0
 62
7
  6
CONTINUOUS
 10
103.0304381729
 20
32.9503512937
  0
VERTEX
  8
0
 62
7
  6
CONTINUOUS
 10
102.9698081706
 20
32.9136754873
  0
SEQEND
  0
LINE
  8
0
 62
7
  6
CONTINUOUS
 10
106.6821121479
 20
57.8374009961
 11
106.6821121479
 21
45.7531652226
  0
LINE
  8
0
 62
7
  6
CONTINUOUS
 10
87.1660462408
 20
35.7103590374
 11
100.3181687811
 21
43.3036952003
  0
LINE
  8
0
 62
7
  6
CONTINUOUS
 10
106.6821121479
 20
46.9778976842
 11
119.8342346882
 21
54.5712338472
  0
LINE
  8
0
 62
7
  6
CONTINUOUS
 10
87.1660462408
 20
34.4856265757
 11
101.3788333688
 21
42.6913340686
  0
LINE
  8
0
 62
7
  6
CONTINUOUS
 10
106.6821121479
 20
45.7531652226
 11
120.8948992759
 21
53.9588727154
  0
LINE
  8
0
 62
7
  6
CONTINUOUS
 10
115.3441341538
 20
39.6735021289
 11
115.3441341538
 21
41.7726295191
  0
LINE
  8
0
 62
7
  6
CONTINUOUS
 10
120.8948992759
 20
53.9588727154
 11
119.8342346882
 21
54.5712338472
  0
LINE
  8
0
 62
7
  6
CONTINUOUS
 10
115.3441341538
 20
41.7726295191
 11
123.1293474015
 21
50.0832953483
  0
POLYLINE
  8
0
 62
7
  6
CONTINUOUS
 66
1
 70
0
  0
VERTEX
  8
0
 62
7
  6
CONTINUOUS
 10
104.0304727583
 20
35.2407230571
  0
VERTEX
  8
0
 62
7
  6
CONTINUOUS
 10
104.0911027606
 20
35.274056329
  0
VERTEX
  8
0
 62
7
  6
CONTINUOUS
 10
104.1514588457
 20
35.3039190552
  0
VERTEX
  8
0
 62
7
  6
CONTINUOUS
 10
104.2116088727
 20
35.3303391477
  0
VERTEX
  8
0
 62
7
  6
CONTINUOUS
 10
104.2713492643
 20
35.3532328703
  0
VERTEX
  8
0
 62
7
  6
CONTINUOUS
 10
104.3305430674
 20
35.3725362886
  0
VERTEX
  8
0
 62
7
  6
CONTINUOUS
 10
104.3890582679
 20
35.3882179089
  0
VERTEX
  8
0
 62
7
  6
CONTINUOUS
 10
104.4467597789
 20
35.4002298382
  0
VERTEX
  8
0
 62
7
  6
CONTINUOUS
 10
104.5035198657
 20
35.4085573412
  0
VERTEX
  8
0
 62
7
  6
CONTINUOUS
 10
104.5592065307
 20
35.4131689995
  0
VERTEX
  8
0
 62
7
  6
CONTINUOUS
 10
104.6136974756
 20
35.4140669699
  0
VERTEX
  8
0
 62
7
  6
CONTINUOUS
 10
104.6668649876
 20
35.4112365935
  0
VERTEX
  8
0
 62
7
  6
CONTINUOUS
 10
104.7185933122
 20
35.4046968992
  0
VERTEX
  8
0
 62
7
  6
CONTINUOUS
 10
104.7687601779
 20
35.3944501202
  0
VERTEX
  8
0
 62
7
  6
CONTINUOUS
 10
104.8172574224
 20
35.3805319858
  0
VERTEX
  8
0
 62
7
  6
CONTINUOUS
 10
104.863969323
 20
35.3629616007
  0
VERTEX
  8
0
 62
7
  6
CONTINUOUS
 10
104.9087962889
 20
35.3417910708
  0
VERTEX
  8
0
 62
7
  6
CONTINUOUS
 10
104.9304696278
 20
35.3298662404
  0
SEQEND
  0
LINE
  8
0
 62
7
  6
CONTINUOUS
 10
119.8342346882
 20
54.5712338472
 11
119.8342346882
 21
65.430737159
  0
LINE
  8
0
 62
7
  6
CONTINUOUS
 10
120.8948992759
 20
53.9588727154
 11
120.8948992759
 21
66.0431084889
  0
POLYLINE
  8
0
 62
7
  6
CONTINUOUS
 66
1
 70
0
  0
VERTEX
  8
0
 62
7
  6
CONTINUOUS
 10
102.9698081706
 20
32.9136754873
  0
VERTEX
  8
0
 62
7
  6
CONTINUOUS
 10
102.9091781683
 20
32.8803422154
  0
VERTEX
  8
0
 62
7
  6
CONTINUOUS
 10
102.8488220833
 20
32.8504794892
  0
VERTEX
  8
0
 62
7
  6
CONTINUOUS
 10
102.7886720562
 20
32.8240593967
  0
VERTEX
  8
0
 62
7
  6
CONTINUOUS
 10
102.7732415808
 20
32.8181461274
  0
SEQEND
  0
POLYLINE
  8
0
 62
7
  6
CONTINUOUS
 66
1
 70
0
  0
VERTEX
  8
0
 62
7
  6
CONTINUOUS
 10
104.0304727583
 20
32.3013143555
  0
VERTEX
  8
0
 62
7
  6
CONTINUOUS
 10
103.9698427561
 20
32.2679810836
  0
VERTEX
  8
0
 62
7
  6
CONTINUOUS
 10
103.909486671
 20
32.2381183574
  0
VERTEX
  8
0
 62
7
  6
CONTINUOUS
 10
103.8493366439
 20
32.2116982649
  0
VERTEX
  8
0
 62
7
  6
CONTINUOUS
 10
103.7895962524
 20
32.1888045423
  0
VERTEX
  8
0
 62
7
  6
CONTINUOUS
 10
103.7304024492
 20
32.1695011241
  0
VERTEX
  8
0
 62
7
  6
CONTINUOUS
 10
103.6718872487
 20
32.1538195037
  0
VERTEX
  8
0
 62
7
  6
CONTINUOUS
 10
103.6141857377
 20
32.1418075745
  0
VERTEX
  8
0
 62
7
  6
CONTINUOUS
 10
103.5574256509
 20
32.1334800715
  0
VERTEX
  8
0
 62
7
  6
CONTINUOUS
 10
103.5017389859
 20
32.1288684131
  0
VERTEX
  8
0
 62
7
  6
CONTINUOUS
 10
103.447248041
 20
32.1279704427
  0
VERTEX
  8
0
 62
7
  6
CONTINUOUS
 10
103.394080529
 20
32.1308008192
  0
VERTEX
  8
0
 62
7
  6
CONTINUOUS
 10
103.3423522045
 20
32.1373405134
  0
VERTEX
  8
0
 62
7
  6
CONTINUOUS
 10
103.2921853387
 20
32.1475872924
  0
VERTEX
  8
0
 62
7
  6
CONTINUOUS
 10
103.2436880942
 20
32.1615054269
  0
VERTEX
  8
0
 62
7
  6
CONTINUOUS
 10
103.1969761936
 20
32.1790758119
  0
VERTEX
  8
0
 62
7
  6
CONTINUOUS
 10
103.1521492277
 20
32.2002463418
  0
VERTEX
  8
0
 62
7
  6
CONTINUOUS
 10
103.1304758889
 20
32.2121711722
  0
SEQEND
  0
LINE
  8
0
 62
7
  6
CONTINUOUS
 10
121.4959287056
 20
70.8808530508
 11
121.4959287056
 21
69.6560994251
  0
LINE
  8
0
 62
7
  6
CONTINUOUS
 10
121.8494894561
 20
68.6354941395
 11
121.8494894561
 21
69.043745348
  0
LINE
  8
0
 62
7
  6
CONTINUOUS
 10
122.5565932933
 20
70.268491919
 11
122.5565932933
 21
69.0437382933
  0
LINE
  8
0
 62
7
  6
CONTINUOUS
 10
123.1293474015
 20
50.0832953483
 11
131.2539704911
 21
72.0238853431
  0
LINE
  8
0
 62
7
  6
CONTINUOUS
 10
127.8598720724
 20
72.1055694474
 11
127.8598720724
 21
73.3303230731
  0
LINE
  8
0
 62
7
  6
CONTINUOUS
 10
128.5669759097
 20
72.9220648098
 11
128.5669759097
 21
72.5138136013
  0
LINE
  8
0
 62
7
  6
CONTINUOUS
 10
120.7888248684
 20
69.6561064798
 11
121.8494894561
 21
69.043745348
  0
LINE
  8
0
 62
7
  6
CONTINUOUS
 10
121.4959287056
 20
69.6560994251
 11
122.5565932933
 21
69.0437382933
  0
LINE
  8
0
 62
7
  6
CONTINUOUS
 10
121.4959287056
 20
70.8808530508
 11
122.5565932933
 21
70.268491919
  0
LINE
  8
0
 62
7
  6
CONTINUOUS
 10
131.2539704911
 20
72.0238853431
 11
131.2539704911
 21
74.4733925945
  0
LINE
  8
0
 62
7
  6
CONTINUOUS
 10
127.8598720724
 20
72.9220509565
 11
128.5669759097
 21
72.5138136013
  0
LINE
  8
0
 62
7
  6
CONTINUOUS
 10
126.7992074847
 20
73.9426842049
 11
128.5669759097
 21
72.9220648098
  0
LINE
  8
0
 62
7
  6
CONTINUOUS
 10
130.1933059033
 20
75.0857537263
 11
131.2539704911
 21
74.4733925945
  0
LINE
  8
0
 62
7
  6
CONTINUOUS
 10
63.3800458315
 20
246.8711073015
 11
63.3800458315
 21
249.8711073015
  0
LINE
  8
0
 62
7
  6
CONTINUOUS
 10
67.1800458315
 20
249.8711073015
 11
67.1800458315
 21
249.3711073015
  0
LINE
  8
0
 62
7
  6
CONTINUOUS
 10
68.1800458315
 20
249.3711073015
 11
68.1800458315
 21
250.8711073015
  0
LINE
  8
0
 62
7
  6
CONTINUOUS
 10
75.6800458315
 20
250.8711073015
 11
75.6800458315
 21
249.3711073015
  0
LINE
  8
0
 62
7
  6
CONTINUOUS
 10
76.6800458315
 20
249.3711073015
 11
76.6800458315
 21
249.8711073015
  0
LINE
  8
0
 62
7
  6
CONTINUOUS
 10
74.8700458315
 20
225.7445750279
 11
63.3800458315
 21
246.8711073015
  0
LINE
  8
0
 62
7
  6
CONTINUOUS
 10
78.0300458315
 20
232.0711073015
 11
78.0300458315
 21
246.8711073015
  0
LINE
  8
0
 62
7
  6
CONTINUOUS
 10
85.8800458315
 20
221.0711073015
 11
74.8700458315
 21
225.7445750279
  0
LINE
  8
0
 62
7
  6
CONTINUOUS
 10
85.8800458315
 20
218.5002301722
 11
85.8800458315
 21
221.0711073015
  0
LINE
  8
0
 62
7
  6
CONTINUOUS
 10
98.1300458315
 20
246.8711073015
 11
98.1300458315
 21
232.0711073015
  0
LINE
  8
0
 62
7
  6
CONTINUOUS
 10
125.7300458315
 20
232.0711073015
 11
105.6300458315
 21
232.0711073015
  0
LINE
  8
0
 62
7
  6
CONTINUOUS
 10
98.1300458315
 20
232.0711073015
 11
78.0300458315
 21
232.0711073015
  0
LINE
  8
0
 62
7
  6
CONTINUOUS
 10
105.6300458315
 20
232.0711073015
 11
105.6300458315
 21
246.8711073015
  0
LINE
  8
0
 62
7
  6
CONTINUOUS
 10
78.0300458315
 20
246.8711073015
 11
98.1300458315
 21
246.8711073015
  0
LINE
  8
0
 62
7
  6
CONTINUOUS
 10
105.6300458315
 20
246.8711073015
 11
125.7300458315
 21
246.8711073015
  0
LINE
  8
0
 62
7
  6
CONTINUOUS
 10
117.8800458315
 20
221.0711073015
 11
117.8800458315
 21
218.5002301722
  0
LINE
  8
0
 62
7
  6
CONTINUOUS
 10
67.1800458315
 20
249.3711073015
 11
68.1800458315
 21
249.3711073015
  0
LINE
  8
0
 62
7
  6
CONTINUOUS
 10
75.6800458315
 20
249.3711073015
 11
76.6800458315
 21
249.3711073015
  0
LINE
  8
0
 62
7
  6
CONTINUOUS
 10
127.0800458315
 20
249.3711073015
 11
128.0800458315
 21
249.3711073015
  0
LINE
  8
0
 62
7
  6
CONTINUOUS
 10
135.5800458315
 20
249.3711073015
 11
136.5800458315
 21
249.3711073015
  0
LINE
  8
0
 62
7
  6
CONTINUOUS
 10
63.3800458315
 20
249.8711073015
 11
67.1800458315
 21
249.8711073015
  0
LINE
  8
0
 62
7
  6
CONTINUOUS
 10
76.6800458315
 20
249.8711073015
 11
127.0800458315
 21
249.8711073015
  0
LINE
  8
0
 62
7
  6
CONTINUOUS
 10
136.5800458315
 20
249.8711073015
 11
140.3800458315
 21
249.8711073015
  0
LINE
  8
0
 62
7
  6
CONTINUOUS
 10
128.8900458315
 20
225.7445750279
 11
117.8800458315
 21
221.0711073015
  0
LINE
  8
0
 62
7
  6
CONTINUOUS
 10
68.1800458315
 20
250.8711073015
 11
75.6800458315
 21
250.8711073015
  0
LINE
  8
0
 62
7
  6
CONTINUOUS
 10
128.0800458315
 20
250.8711073015
 11
135.5800458315
 21
250.8711073015
  0
LINE
  8
0
 62
7
  6
CONTINUOUS
 10
125.7300458315
 20
246.8711073015
 11
125.7300458315
 21
232.0711073015
  0
LINE
  8
0
 62
7
  6
CONTINUOUS
 10
127.0800458315
 20
249.8711073015
 11
127.0800458315
 21
249.3711073015
  0
LINE
  8
0
 62
7
  6
CONTINUOUS
 10
128.0800458315
 20
249.3711073015
 11
128.0800458315
 21
250.8711073015
  0
LINE
  8
0
 62
7
  6
CONTINUOUS
 10
140.3800458315
 20
246.8711073015
 11
128.8900458315
 21
225.7445750279
  0
LINE
  8
0
 62
7
  6
CONTINUOUS
 10
135.5800458315
 20
250.8711073015
 11
135.5800458315
 21
249.3711073015
  0
LINE
  8
0
 62
7
  6
CONTINUOUS
 10
136.5800458315
 20
249.3711073015
 11
136.5800458315
 21
249.8711073015
  0
LINE
  8
0
 62
7
  6
CONTINUOUS
 10
140.3800458315
 20
249.8711073015
 11
140.3800458315
 21
246.8711073015
  0
LINE
  8
0
 62
7
  6
CONTINUOUS
 10
61.7725231603
 20
141.3169807946
 11
61.7725231603
 21
142.8169807946
  0
LINE
  8
0
 62
7
  6
CONTINUOUS
 10
65.5725231603
 20
141.3169807946
 11
65.5725231603
 21
142.8169807946
  0
LINE
  8
0
 62
7
  6
CONTINUOUS
 10
66.5725231603
 20
141.3169807946
 11
66.5725231603
 21
142.8169807946
  0
LINE
  8
0
 62
7
  6
CONTINUOUS
 10
74.0725231603
 20
141.3169807946
 11
74.0725231603
 21
142.8169807946
  0
LINE
  8
0
 62
7
  6
CONTINUOUS
 10
75.0725231603
 20
141.3169807946
 11
75.0725231603
 21
142.8169807946
  0
LINE
  8
0
 62
7
  6
CONTINUOUS
 10
61.7725231603
 20
141.3169807946
 11
138.7725231603
 21
141.3169807946
  0
LINE
  8
0
 62
7
  6
CONTINUOUS
 10
61.7725231603
 20
142.8169807946
 11
138.7725231603
 21
142.8169807946
  0
LINE
  8
0
 62
7
  6
CONTINUOUS
 10
125.4725231603
 20
141.3169807946
 11
125.4725231603
 21
142.8169807946
  0
LINE
  8
0
 62
7
  6
CONTINUOUS
 10
126.4725231603
 20
141.3169807946
 11
126.4725231603
 21
142.8169807946
  0
LINE
  8
0
 62
7
  6
CONTINUOUS
 10
133.9725231603
 20
141.3169807946
 11
133.9725231603
 21
142.8169807946
  0
LINE
  8
0
 62
7
  6
CONTINUOUS
 10
134.9725231603
 20
141.3169807946
 11
134.9725231603
 21
142.8169807946
  0
LINE
  8
0
 62
7
  6
CONTINUOUS
 10
138.7725231603
 20
141.3169807946
 11
138.7725231603
 21
142.8169807946
  0
ARC
  8
0
 62
7
  6
CONTINUOUS
 10
101.8800458315
 20
265.8711073015
 40
50.0
 50
251.3370751151
 51
288.6629248849
  0
CIRCLE
  8
0
 62
7
  6
CONTINUOUS
 10
101.8800458315
 20
219.2711073015
 40
1.8
  0
CIRCLE
  8
0
 62
7
  6
CONTINUOUS
 10
134.8800458315
 20
245.8711073015
 40
1.0
  0
ENDSEC
  0
EOF
