999
DXF file: bsm301.dxf
999
Pro/ENGINEER 2022281 by Parametric Technology Corporation
  0
SECTION
  2
HEADER
  9
$EXTMAX
 10
210.0
 20
297.0
 30
0.0
  9
$EXTMIN
 10
0.0
 20
0.0
 30
0.0
  9
$LIMMIN
 10
0.0
 20
0.0
  9
$LIMMAX
 10
210.0
 20
297.0
  9
$VIEWCTR
 10
105.0
 20
148.5
  9
$VIEWSIZE
 40
297.0
  9
$CLAYER
  8
0
  9
$LTSCALE
 40
19.36
  9
$CELTYPE
  6
BYLAYER
  9
$DIMSCALE
 40
1.0
  9
$DIMASZ
 40
2.0
  9
$DIMEXO
 40
0.05
  9
$DIMDLI
 40
13.376
  9
$DIMEXE
 40
1.0
  9
$DIMCEN
 40
3.168
  9
$DIMLFAC
 40
1.0
  9
$DIMBLK
  1
_FILLED
  9
$DIMALT
 70
0
  9
$DIMALTF
 40
0.0393700787
  9
$DIMTXT
 40
2.5
  9
$AUNITS
 70
0
  9
$PDMODE
 70
3
  9
$PDSIZE
 40
0.3125
  9
$TILEMODE
 70
1
  0
ENDSEC
  0
SECTION
  2
TABLES
  0
TABLE
  2
LTYPE
 70
6
  0
LTYPE
  2
BYBLOCK
 70
0
  3

 72
65
 73
0
 40
0.0
  0
LTYPE
  2
BYLAYER
 70
0
  3

 72
65
 73
0
 40
0.0
  0
LTYPE
  2
CONTINUOUS
 70
64
  3
Solid line
 72
65
 73
0
 40
0.0
  0
LTYPE
  2
CENTER
 70
64
  3
____ _ ____ _ ____ _ ____ _ ____ _ ____ _ ____
 72
65
 73
4
 40
0.6
 49
0.375
 49
-0.075
 49
0.075
 49
-0.075
  0
LTYPE
  2
HIDDEN
 70
64
  3
- - - - - - - - - - - - - - - - - - - -
 72
65
 73
2
 40
0.2
 49
0.1
 49
-0.1
  0
LTYPE
  2
PHANTOM
 70
64
  3
_____ _ _ _____ _ _ _____ _ _ _____
 72
65
 73
6
 40
0.8
 49
0.45
 49
-0.05
 49
0.1
 49
-0.05
 49
0.1
 49
-0.05
  0
LTYPE
  2
DOT
 70
64
  3
. . . . . . . . . . . . . . . . . . . .
 72
65
 73
2
 40
0.2
 49
0.1
 49
-0.1
  0
LTYPE
  2
DASHED
 70
64
  3
- - - - - - - - - - - - - - - - - - - -
 72
65
 73
2
 40
0.2
 49
0.1
 49
-0.1
  0
ENDTAB
  0
TABLE
  2
LAYER
 70
36
  0
LAYER
  2
0
 70
0
 62
7
  6
CONTINUOUS
  0
LAYER
  2
DEFAULT_1
 70
0
 62
7
  6
CENTER
  0
LAYER
  2
DEFAULT_2
 70
0
 62
8
  6
HIDDEN
  0
LAYER
  2
DEFAULT_3
 70
0
 62
7
  6
PHANTOM
  0
LAYER
  2
AUSFORMSCHRAEGEN
 70
0
 62
7
  6
CONTINUOUS
  0
LAYER
  2
BEZUGSACHSEN
 70
0
 62
7
  6
CONTINUOUS
  0
LAYER
  2
BEZUGSEBENEN
 70
0
 62
7
  6
CONTINUOUS
  0
LAYER
  2
BEZUGSPUNKTE
 70
0
 62
7
  6
CONTINUOUS
  0
LAYER
  2
FASEN
 70
0
 62
7
  6
CONTINUOUS
  0
LAYER
  2
FLAECHEN
 70
0
 62
7
  6
CONTINUOUS
  0
LAYER
  2
KONSTRUKTIONSELEMENTE
 70
0
 62
7
  6
CONTINUOUS
  0
LAYER
  2
KOORDINATENSYSTEME
 70
0
 62
7
  6
CONTINUOUS
  0
LAYER
  2
KOPIEGEOMETRIE
 70
0
 62
7
  6
CONTINUOUS
  0
LAYER
  2
RUNDUNGEN
 70
0
 62
7
  6
CONTINUOUS
  0
LAYER
  2
SURFACES
 70
0
 62
7
  6
CONTINUOUS
  0
LAYER
  2
VOLUMEN
 70
0
 62
7
  6
CONTINUOUS
  0
ENDTAB
  0
TABLE
  2
STYLE
 70
1
  0
STYLE
  2
STANDARD
 70
0
 40
0.0
 41
0.8
 50
0.0
 71
0
 42
0.2
  3
txt
  4

  0
STYLE
  2
TEXTSTYLE_1
 70
0
 40
0.0
 41
0.8
 50
0.0
 71
0
 42
0.2
  3
gdt
  4

  0
ENDTAB
  0
ENDSEC
  0
SECTION
  2
BLOCKS
  0
BLOCK
  8
0
  2
_FILLED
 70
64
 10
0.0
 20
0.0
  0
SOLID
  8
0
  6
BYBLOCK
 62
0
 10
0.0
 20
0.0
 11
-1.0
 21
0.2
 12
-1.0
 22
-0.2
 13
-1.0
 23
-0.2
  0
ENDBLK
  8
0
  6
BYBLOCK
 62
0
  0
BLOCK
  8
0
 62
2
  6
CONTINUOUS
  2
*D0
 70
65
 10
0.0
 20
0.0
  0
TEXT
  8
0
 62
2
  6
CONTINUOUS
 10
146.7263179241
 20
151.6609828481
  7
STANDARD
 40
2.5
  1
1.5
 50
90.0
 41
0.619047619
 72
0
  0
LINE
  8
0
 62
2
  6
CONTINUOUS
 10
143.1616848639
 20
138.4017398269
 11
148.3513179241
 21
138.4017398269
  0
LINE
  8
0
 62
2
  6
CONTINUOUS
 10
143.1616848639
 20
139.9017398269
 11
148.3513179241
 21
139.9017398269
  0
LINE
  8
0
 62
2
  6
CONTINUOUS
 10
147.3513179241
 20
138.4017398269
 11
147.3513179241
 21
136.4017398269
  0
LINE
  8
0
 62
2
  6
CONTINUOUS
 10
147.3513179241
 20
136.4017398269
 11
147.3513179241
 21
139.1517398269
  0
LINE
  8
0
 62
2
  6
CONTINUOUS
 10
147.3513179241
 20
139.9017398269
 11
147.3513179241
 21
156.303839991
  0
LINE
  8
0
 62
2
  6
CONTINUOUS
 10
147.3513179241
 20
156.303839991
 11
147.3513179241
 21
139.1517398269
  0
INSERT
  8
0
 62
2
  6
CONTINUOUS
  2
_FILLED
 10
147.3513179241
 20
138.4017398269
 41
2.0
 42
2.0
 43
2.0
 50
90.0
  0
INSERT
  8
0
 62
2
  6
CONTINUOUS
  2
_FILLED
 10
147.3513179241
 20
139.9017398269
 41
2.0
 42
2.0
 43
2.0
 50
270.0
  0
ENDBLK
  8
0
  6
BYBLOCK
 62
0
  0
BLOCK
  8
0
 62
2
  6
CONTINUOUS
  2
*D1
 70
65
 10
0.0
 20
0.0
  0
TEXT
  8
0
 62
2
  6
CONTINUOUS
 10
103.7157093282
 20
260.5650795846
  7
STANDARD
 40
2.5
  1
77
 41
0.7857142857
 72
1
 11
105.6799950424
 21
260.5650795846
  0
LINE
  8
0
 62
2
  6
CONTINUOUS
 10
67.1799950424
 20
252.8038588334
 11
67.1799950424
 21
260.9400795846
  0
LINE
  8
0
 62
2
  6
CONTINUOUS
 10
144.1799950424
 20
252.8038588334
 11
144.1799950424
 21
260.9400795846
  0
LINE
  8
0
 62
2
  6
CONTINUOUS
 10
67.1799950424
 20
259.9400795846
 11
105.6799950424
 21
259.9400795846
  0
LINE
  8
0
 62
2
  6
CONTINUOUS
 10
144.1799950424
 20
259.9400795846
 11
105.6799950424
 21
259.9400795846
  0
INSERT
  8
0
 62
2
  6
CONTINUOUS
  2
_FILLED
 10
67.1799950424
 20
259.9400795846
 41
2.0
 42
2.0
 43
2.0
 50
180.0
  0
INSERT
  8
0
 62
2
  6
CONTINUOUS
  2
_FILLED
 10
144.1799950424
 20
259.9400795846
 41
2.0
 42
2.0
 43
2.0
  0
ENDBLK
  8
0
  6
BYBLOCK
 62
0
  0
BLOCK
  8
0
 62
2
  6
CONTINUOUS
  2
*D2
 70
65
 10
0.0
 20
0.0
  0
TEXT
  8
0
 62
2
  6
CONTINUOUS
 10
103.983566471
 20
211.7537593873
  7
STANDARD
 40
2.5
  1
21
 41
0.6785714286
 72
1
 11
105.6799950424
 21
211.7537593873
  0
LINE
  8
0
 62
2
  6
CONTINUOUS
 10
116.1799950424
 20
234.3038588334
 11
116.1799950424
 21
210.1287593873
  0
LINE
  8
0
 62
2
  6
CONTINUOUS
 10
95.1799950424
 20
234.3038588334
 11
95.1799950424
 21
210.1287593873
  0
LINE
  8
0
 62
2
  6
CONTINUOUS
 10
116.1799950424
 20
211.1287593873
 11
105.6799950424
 21
211.1287593873
  0
LINE
  8
0
 62
2
  6
CONTINUOUS
 10
95.1799950424
 20
211.1287593873
 11
105.6799950424
 21
211.1287593873
  0
INSERT
  8
0
 62
2
  6
CONTINUOUS
  2
_FILLED
 10
116.1799950424
 20
211.1287593873
 41
2.0
 42
2.0
 43
2.0
  0
INSERT
  8
0
 62
2
  6
CONTINUOUS
  2
_FILLED
 10
95.1799950424
 20
211.1287593873
 41
2.0
 42
2.0
 43
2.0
 50
180.0
  0
ENDBLK
  8
0
  6
BYBLOCK
 62
0
  0
BLOCK
  8
0
 62
2
  6
CONTINUOUS
  2
*D3
 70
65
 10
0.0
 20
0.0
  0
TEXT
  8
0
 62
2
  6
CONTINUOUS
 10
56.5577115986
 20
237.3610016905
  7
STANDARD
 40
2.5
  1
12.8
 50
90.0
 41
0.6785714286
 72
1
 11
56.5577115986
 21
240.7538588334
  0
LINE
  8
0
 62
2
  6
CONTINUOUS
 10
95.1299950424
 20
234.3538588334
 11
56.1827115986
 21
234.3538588334
  0
LINE
  8
0
 62
2
  6
CONTINUOUS
 10
95.1299950424
 20
247.1538588334
 11
56.1827115986
 21
247.1538588334
  0
LINE
  8
0
 62
2
  6
CONTINUOUS
 10
57.1827115986
 20
234.3538588334
 11
57.1827115986
 21
232.3538588334
  0
LINE
  8
0
 62
2
  6
CONTINUOUS
 10
57.1827115986
 20
232.3538588334
 11
57.1827115986
 21
240.7538588334
  0
LINE
  8
0
 62
2
  6
CONTINUOUS
 10
57.1827115986
 20
247.1538588334
 11
57.1827115986
 21
249.1538588334
  0
LINE
  8
0
 62
2
  6
CONTINUOUS
 10
57.1827115986
 20
249.1538588334
 11
57.1827115986
 21
240.7538588334
  0
INSERT
  8
0
 62
2
  6
CONTINUOUS
  2
_FILLED
 10
57.1827115986
 20
234.3538588334
 41
2.0
 42
2.0
 43
2.0
 50
90.0
  0
INSERT
  8
0
 62
2
  6
CONTINUOUS
  2
_FILLED
 10
57.1827115986
 20
247.1538588334
 41
2.0
 42
2.0
 43
2.0
 50
270.0
  0
ENDBLK
  8
0
  6
BYBLOCK
 62
0
  0
BLOCK
  8
0
 62
2
  6
CONTINUOUS
  2
*D4
 70
65
 10
0.0
 20
0.0
  0
TEXT
  8
0
 62
2
  6
CONTINUOUS
 10
148.0827897339
 20
234.4681445477
  7
STANDARD
 40
2.5
  1
35
 50
90.0
 41
0.7142857143
 72
1
 11
148.0827897339
 21
236.2538588334
  0
LINE
  8
0
 62
2
  6
CONTINUOUS
 10
139.4299950424
 20
253.7538588334
 11
149.7077897339
 21
253.7538588334
  0
LINE
  8
0
 62
2
  6
CONTINUOUS
 10
105.7299950424
 20
218.7538588334
 11
149.7077897339
 21
218.7538588334
  0
LINE
  8
0
 62
2
  6
CONTINUOUS
 10
148.7077897339
 20
253.7538588334
 11
148.7077897339
 21
236.2538588334
  0
LINE
  8
0
 62
2
  6
CONTINUOUS
 10
148.7077897339
 20
218.7538588334
 11
148.7077897339
 21
236.2538588334
  0
INSERT
  8
0
 62
2
  6
CONTINUOUS
  2
_FILLED
 10
148.7077897339
 20
253.7538588334
 41
2.0
 42
2.0
 43
2.0
 50
90.0
  0
INSERT
  8
0
 62
2
  6
CONTINUOUS
  2
_FILLED
 10
148.7077897339
 20
218.7538588334
 41
2.0
 42
2.0
 43
2.0
 50
270.0
  0
ENDBLK
  8
0
  6
BYBLOCK
 62
0
  0
ENDSEC
  0
SECTION
  2
ENTITIES
  0
DIMENSION
  8
0
 62
2
  6
CONTINUOUS
  2
*D0
 10
147.3513179241
 20
139.9017398269
 11
147.3513179241
 21
153.6252684396
 70
128
 13
143.1116848639
 23
138.4017398269
 14
143.1116848639
 24
139.9017398269
 50
90.0
  0
DIMENSION
  8
0
 62
2
  6
CONTINUOUS
  2
*D1
 10
144.1799950424
 20
259.9400795846
 11
105.3228510742
 21
259.9400795846
 70
128
 13
67.1799950424
 23
252.7538588334
 14
144.1799950424
 24
252.7538588334
  0
DIMENSION
  8
0
 62
2
  6
CONTINUOUS
  2
*D2
 10
95.1799950424
 20
211.1287593873
 11
105.3228510742
 21
211.1287593873
 70
128
 13
116.1799950424
 23
234.3538588334
 14
95.1799950424
 24
234.3538588334
 50
180.0
  0
DIMENSION
  8
0
 62
2
  6
CONTINUOUS
  2
*D3
 10
57.1827115986
 20
247.1538588334
 11
57.1827115986
 21
240.3967134317
 70
128
 13
95.1799950424
 23
234.3538588334
 14
95.1799950424
 24
247.1538588334
 50
90.0
  0
DIMENSION
  8
0
 62
2
  6
CONTINUOUS
  2
*D4
 10
148.7077897339
 20
218.7538588334
 11
148.7077897339
 21
235.8967151654
 70
128
 13
139.3799950424
 23
253.7538588334
 14
105.6799950424
 24
218.7538588334
 50
270.0
  0
TEXT
  8
0
 62
2
  6
CONTINUOUS
 10
100.5889753995
 20
21.0469768403
  7
STANDARD
 40
2.5
  1
1:1
 41
0.5
 72
2
 11
104.3389753995
 21
21.0469768403
  0
TEXT
  8
0
 62
2
  6
CONTINUOUS
 10
103.596449837
 20
201.9119662306
  7
STANDARD
 40
2.5
  1
1:1
 41
0.5
 72
2
 11
107.346449837
 21
201.9119662306
  0
TEXT
  8
0
 62
2
  6
CONTINUOUS
 10
100.8616848639
 20
132.8917398269
  7
STANDARD
 40
2.5
  1
1:1
 41
0.5
 72
2
 11
104.6116848639
 21
132.8917398269
  0
LINE
  8
0
 62
7
  6
CONTINUOUS
 10
0.0
 20
0.0
 11
210.0
 21
0.0
  0
LINE
  8
0
 62
7
  6
CONTINUOUS
 10
0.0
 20
0.0
 11
0.0
 21
297.0
  0
LINE
  8
0
 62
7
  6
CONTINUOUS
 10
210.0
 20
0.0
 11
210.0
 21
297.0
  0
LINE
  8
0
 62
7
  6
CONTINUOUS
 10
0.0
 20
297.0
 11
210.0
 21
297.0
  0
LINE
  8
0
 62
7
  6
CONTINUOUS
 10
76.5851453729
 20
43.5982415135
 11
76.5851453729
 21
41.1487342621
  0
LINE
  8
0
 62
7
  6
CONTINUOUS
 10
77.6458099606
 20
42.9858803817
 11
77.6458099606
 21
40.5363731303
  0
LINE
  8
0
 62
7
  6
CONTINUOUS
 10
84.7097684625
 20
28.5895949232
 11
85.7704330502
 21
27.9772337914
  0
LINE
  8
0
 62
7
  6
CONTINUOUS
 10
76.5851453729
 20
41.1487342621
 11
84.7097684625
 21
28.5895949232
  0
LINE
  8
0
 62
7
  6
CONTINUOUS
 10
77.6458099606
 20
40.5363731303
 11
85.7704330502
 21
27.9772337914
  0
LINE
  8
0
 62
7
  6
CONTINUOUS
 10
79.9792437915
 20
46.3743158692
 11
79.9792437915
 21
45.1495622435
  0
LINE
  8
0
 62
7
  6
CONTINUOUS
 10
92.4949817102
 20
27.169337972
 11
93.5556462979
 21
26.5569768403
  0
POLYLINE
  8
0
 62
7
  6
CONTINUOUS
 66
1
 70
0
  0
VERTEX
  8
0
 62
7
  6
CONTINUOUS
 10
80.8277772281
 20
41.5569694056
  0
VERTEX
  8
0
 62
7
  6
CONTINUOUS
 10
80.828819571
 20
41.5133021046
  0
VERTEX
  8
0
 62
7
  6
CONTINUOUS
 10
80.8319223011
 20
41.4710831105
  0
VERTEX
  8
0
 62
7
  6
CONTINUOUS
 10
80.8370944947
 20
41.4302537346
  0
VERTEX
  8
0
 62
7
  6
CONTINUOUS
 10
80.8443089228
 20
41.390990043
  0
VERTEX
  8
0
 62
7
  6
CONTINUOUS
 10
80.8535533653
 20
41.3534143459
  0
VERTEX
  8
0
 62
7
  6
CONTINUOUS
 10
80.8647918716
 20
41.3176292213
  0
VERTEX
  8
0
 62
7
  6
CONTINUOUS
 10
80.8780001803
 20
41.2837477436
  0
VERTEX
  8
0
 62
7
  6
CONTINUOUS
 10
80.8931310035
 20
41.2518607339
  0
VERTEX
  8
0
 62
7
  6
CONTINUOUS
 10
80.910148323
 20
41.2220707049
  0
VERTEX
  8
0
 62
7
  6
CONTINUOUS
 10
80.9289940681
 20
41.1944556561
  0
VERTEX
  8
0
 62
7
  6
CONTINUOUS
 10
80.949620886
 20
41.1691063367
  0
VERTEX
  8
0
 62
7
  6
CONTINUOUS
 10
80.9719606038
 20
41.14608701
  0
VERTEX
  8
0
 62
7
  6
CONTINUOUS
 10
80.9959550894
 20
41.1254755978
  0
VERTEX
  8
0
 62
7
  6
CONTINUOUS
 10
81.0215268672
 20
41.1073218738
  0
VERTEX
  8
0
 62
7
  6
CONTINUOUS
 10
81.0348994844
 20
41.0991775218
  0
SEQEND
  0
POLYLINE
  8
0
 62
7
  6
CONTINUOUS
 66
1
 70
0
  0
VERTEX
  8
0
 62
7
  6
CONTINUOUS
 10
82.2419849025
 20
42.3734577134
  0
VERTEX
  8
0
 62
7
  6
CONTINUOUS
 10
82.2409425596
 20
42.4171250144
  0
VERTEX
  8
0
 62
7
  6
CONTINUOUS
 10
82.2378398295
 20
42.4593440085
  0
VERTEX
  8
0
 62
7
  6
CONTINUOUS
 10
82.2326676359
 20
42.5001733843
  0
VERTEX
  8
0
 62
7
  6
CONTINUOUS
 10
82.2254532077
 20
42.5394370759
  0
VERTEX
  8
0
 62
7
  6
CONTINUOUS
 10
82.2162087652
 20
42.5770127731
  0
VERTEX
  8
0
 62
7
  6
CONTINUOUS
 10
82.204970259
 20
42.6127978977
  0
VERTEX
  8
0
 62
7
  6
CONTINUOUS
 10
82.1917619503
 20
42.6466793754
  0
VERTEX
  8
0
 62
7
  6
CONTINUOUS
 10
82.1766311271
 20
42.6785663851
  0
VERTEX
  8
0
 62
7
  6
CONTINUOUS
 10
82.1596138075
 20
42.7083564141
  0
VERTEX
  8
0
 62
7
  6
CONTINUOUS
 10
82.1407680625
 20
42.7359714629
  0
VERTEX
  8
0
 62
7
  6
CONTINUOUS
 10
82.1201412446
 20
42.7613207823
  0
VERTEX
  8
0
 62
7
  6
CONTINUOUS
 10
82.0978015268
 20
42.784340109
  0
VERTEX
  8
0
 62
7
  6
CONTINUOUS
 10
82.0738070412
 20
42.8049515212
  0
VERTEX
  8
0
 62
7
  6
CONTINUOUS
 10
82.0482352634
 20
42.8231052452
  0
VERTEX
  8
0
 62
7
  6
CONTINUOUS
 10
82.0348626462
 20
42.8312495971
  0
SEQEND
  0
LINE
  8
0
 62
7
  6
CONTINUOUS
 10
80.332804542
 20
44.1289569579
 11
80.332804542
 21
44.5372081664
  0
LINE
  8
0
 62
7
  6
CONTINUOUS
 10
81.0399083792
 20
45.7619547374
 11
81.0399083792
 21
44.5372011117
  0
LINE
  8
0
 62
7
  6
CONTINUOUS
 10
76.5851453729
 20
41.1487342621
 11
77.6458099606
 21
40.5363731303
  0
POLYLINE
  8
0
 62
7
  6
CONTINUOUS
 66
1
 70
0
  0
VERTEX
  8
0
 62
7
  6
CONTINUOUS
 10
93.5556462979
 20
26.5569768403
  0
VERTEX
  8
0
 62
7
  6
CONTINUOUS
 10
94.1996073346
 20
26.6855251158
  0
VERTEX
  8
0
 62
7
  6
CONTINUOUS
 10
94.8472472899
 20
26.8305688662
  0
VERTEX
  8
0
 62
7
  6
CONTINUOUS
 10
95.4986860452
 20
26.9921392543
  0
VERTEX
  8
0
 62
7
  6
CONTINUOUS
 10
96.1535639563
 20
27.1701427915
  0
VERTEX
  8
0
 62
7
  6
CONTINUOUS
 10
96.811642435
 20
27.3645231615
  0
VERTEX
  8
0
 62
7
  6
CONTINUOUS
 10
97.4726781953
 20
27.5752000101
  0
VERTEX
  8
0
 62
7
  6
CONTINUOUS
 10
98.1364301223
 20
27.8021049478
  0
VERTEX
  8
0
 62
7
  6
CONTINUOUS
 10
98.8026531144
 20
28.0451457651
  0
VERTEX
  8
0
 62
7
  6
CONTINUOUS
 10
99.4711038839
 20
28.3042420995
  0
VERTEX
  8
0
 62
7
  6
CONTINUOUS
 10
100.1415358736
 20
28.5792900219
  0
VERTEX
  8
0
 62
7
  6
CONTINUOUS
 10
100.8137039806
 20
28.8701973145
  0
VERTEX
  8
0
 62
7
  6
CONTINUOUS
 10
101.4873605538
 20
29.1768484813
  0
VERTEX
  8
0
 62
7
  6
CONTINUOUS
 10
102.1622590348
 20
29.4991395847
  0
VERTEX
  8
0
 62
7
  6
CONTINUOUS
 10
102.8381510425
 20
29.8369437313
  0
VERTEX
  8
0
 62
7
  6
CONTINUOUS
 10
103.514788925
 20
30.1901454165
  0
VERTEX
  8
0
 62
7
  6
CONTINUOUS
 10
104.1919239358
 20
30.5586065356
  0
VERTEX
  8
0
 62
7
  6
CONTINUOUS
 10
104.8693076933
 20
30.9422001865
  0
VERTEX
  8
0
 62
7
  6
CONTINUOUS
 10
105.5466914509
 20
31.3407772562
  0
VERTEX
  8
0
 62
7
  6
CONTINUOUS
 10
106.2238264617
 20
31.7541996315
  0
VERTEX
  8
0
 62
7
  6
CONTINUOUS
 10
106.9004643442
 20
32.1823074097
  0
VERTEX
  8
0
 62
7
  6
CONTINUOUS
 10
107.5763563519
 20
32.6249514696
  0
VERTEX
  8
0
 62
7
  6
CONTINUOUS
 10
108.2512548329
 20
33.0819613537
  0
VERTEX
  8
0
 62
7
  6
CONTINUOUS
 10
108.9249114061
 20
33.5531771514
  0
VERTEX
  8
0
 62
7
  6
CONTINUOUS
 10
109.597079513
 20
34.0384181008
  0
VERTEX
  8
0
 62
7
  6
CONTINUOUS
 10
110.2675115028
 20
34.5375137369
  0
VERTEX
  8
0
 62
7
  6
CONTINUOUS
 10
110.9359622723
 20
35.0502732587
  0
VERTEX
  8
0
 62
7
  6
CONTINUOUS
 10
111.6021852644
 20
35.5765158969
  0
VERTEX
  8
0
 62
7
  6
CONTINUOUS
 10
112.2659371914
 20
36.1160410917
  0
VERTEX
  8
0
 62
7
  6
CONTINUOUS
 10
112.9269729517
 20
36.6686580352
  0
VERTEX
  8
0
 62
7
  6
CONTINUOUS
 10
113.5850514304
 20
37.234156703
  0
VERTEX
  8
0
 62
7
  6
CONTINUOUS
 10
114.2399293415
 20
37.8123365286
  0
VERTEX
  8
0
 62
7
  6
CONTINUOUS
 10
114.8913680968
 20
38.4029783318
  0
VERTEX
  8
0
 62
7
  6
CONTINUOUS
 10
115.5390080521
 20
39.0057603225
  0
VERTEX
  8
0
 62
7
  6
CONTINUOUS
 10
116.1829690888
 20
39.6207897641
  0
SEQEND
  0
LINE
  8
0
 62
7
  6
CONTINUOUS
 10
85.7704330502
 20
27.9772337914
 11
93.5556462979
 21
28.6561042305
  0
POLYLINE
  8
0
 62
7
  6
CONTINUOUS
 66
1
 70
0
  0
VERTEX
  8
0
 62
7
  6
CONTINUOUS
 10
81.0348994844
 20
41.0991775218
  0
VERTEX
  8
0
 62
7
  6
CONTINUOUS
 10
81.0486077072
 20
41.0916900187
  0
VERTEX
  8
0
 62
7
  6
CONTINUOUS
 10
81.0771117392
 20
41.0786147332
  0
VERTEX
  8
0
 62
7
  6
CONTINUOUS
 10
81.1069614355
 20
41.0681457045
  0
VERTEX
  8
0
 62
7
  6
CONTINUOUS
 10
81.138063538
 20
41.0603021532
  0
VERTEX
  8
0
 62
7
  6
CONTINUOUS
 10
81.1703321302
 20
41.0551186906
  0
VERTEX
  8
0
 62
7
  6
CONTINUOUS
 10
81.2036676595
 20
41.0525988321
  0
VERTEX
  8
0
 62
7
  6
CONTINUOUS
 10
81.2379768278
 20
41.052761707
  0
VERTEX
  8
0
 62
7
  6
CONTINUOUS
 10
81.2731549554
 20
41.0555950843
  0
VERTEX
  8
0
 62
7
  6
CONTINUOUS
 10
81.3091024562
 20
41.0611023871
  0
VERTEX
  8
0
 62
7
  6
CONTINUOUS
 10
81.3457107506
 20
41.0692557814
  0
VERTEX
  8
0
 62
7
  6
CONTINUOUS
 10
81.3828751323
 20
41.0800429441
  0
VERTEX
  8
0
 62
7
  6
CONTINUOUS
 10
81.4204843947
 20
41.0934207642
  0
VERTEX
  8
0
 62
7
  6
CONTINUOUS
 10
81.458429939
 20
41.1093613172
  0
VERTEX
  8
0
 62
7
  6
CONTINUOUS
 10
81.4965992353
 20
41.1278067206
  0
VERTEX
  8
0
 62
7
  6
CONTINUOUS
 10
81.5348810653
 20
41.1487137754
  0
VERTEX
  8
0
 62
7
  6
CONTINUOUS
 10
81.5731628953
 20
41.1720105064
  0
VERTEX
  8
0
 62
7
  6
CONTINUOUS
 10
81.6113321916
 20
41.1976389469
  0
VERTEX
  8
0
 62
7
  6
CONTINUOUS
 10
81.6492777358
 20
41.2255138728
  0
VERTEX
  8
0
 62
7
  6
CONTINUOUS
 10
81.6868869983
 20
41.255563229
  0
VERTEX
  8
0
 62
7
  6
CONTINUOUS
 10
81.72405138
 20
41.2876895418
  0
VERTEX
  8
0
 62
7
  6
CONTINUOUS
 10
81.7606596744
 20
41.3218075124
  0
VERTEX
  8
0
 62
7
  6
CONTINUOUS
 10
81.7966071752
 20
41.3578085603
  0
VERTEX
  8
0
 62
7
  6
CONTINUOUS
 10
81.8317853028
 20
41.3955951435
  0
VERTEX
  8
0
 62
7
  6
CONTINUOUS
 10
81.8660944711
 20
41.4350488472
  0
VERTEX
  8
0
 62
7
  6
CONTINUOUS
 10
81.8994300004
 20
41.4760610296
  0
VERTEX
  8
0
 62
7
  6
CONTINUOUS
 10
81.9316985926
 20
41.5185048305
  0
VERTEX
  8
0
 62
7
  6
CONTINUOUS
 10
81.9628006951
 20
41.5622617819
  0
VERTEX
  8
0
 62
7
  6
CONTINUOUS
 10
81.9926503914
 20
41.6071980653
  0
VERTEX
  8
0
 62
7
  6
CONTINUOUS
 10
82.0211544234
 20
41.6531867754
  0
VERTEX
  8
0
 62
7
  6
CONTINUOUS
 10
82.0482352634
 20
41.7000887044
  0
VERTEX
  8
0
 62
7
  6
CONTINUOUS
 10
82.0738070412
 20
41.7477699977
  0
VERTEX
  8
0
 62
7
  6
CONTINUOUS
 10
82.0978015268
 20
41.79608769
  0
VERTEX
  8
0
 62
7
  6
CONTINUOUS
 10
82.1201412446
 20
41.8449025468
  0
VERTEX
  8
0
 62
7
  6
CONTINUOUS
 10
82.1407680625
 20
41.8940695218
  0
VERTEX
  8
0
 62
7
  6
CONTINUOUS
 10
82.1596138075
 20
41.9434456327
  0
VERTEX
  8
0
 62
7
  6
CONTINUOUS
 10
82.1766311271
 20
41.9928854524
  0
VERTEX
  8
0
 62
7
  6
CONTINUOUS
 10
82.1917619503
 20
42.0422439275
  0
VERTEX
  8
0
 62
7
  6
CONTINUOUS
 10
82.204970259
 20
42.0913769554
  0
VERTEX
  8
0
 62
7
  6
CONTINUOUS
 10
82.2162087652
 20
42.1401391117
  0
VERTEX
  8
0
 62
7
  6
CONTINUOUS
 10
82.2254532077
 20
42.1883893079
  0
VERTEX
  8
0
 62
7
  6
CONTINUOUS
 10
82.2326676359
 20
42.2359834538
  0
VERTEX
  8
0
 62
7
  6
CONTINUOUS
 10
82.2378398295
 20
42.2827851288
  0
VERTEX
  8
0
 62
7
  6
CONTINUOUS
 10
82.2409425596
 20
42.3285868256
  0
VERTEX
  8
0
 62
7
  6
CONTINUOUS
 10
82.2419849025
 20
42.3734577134
  0
SEQEND
  0
LINE
  8
0
 62
7
  6
CONTINUOUS
 10
76.5851453729
 20
43.5982415135
 11
77.6458099606
 21
42.9858803817
  0
LINE
  8
0
 62
7
  6
CONTINUOUS
 10
86.3431871583
 20
47.5990322658
 11
86.3431871583
 21
48.8237858915
  0
LINE
  8
0
 62
7
  6
CONTINUOUS
 10
87.0502909956
 20
48.4155276282
 11
87.0502909956
 21
48.0072764196
  0
POLYLINE
  8
0
 62
7
  6
CONTINUOUS
 66
1
 70
0
  0
VERTEX
  8
0
 62
7
  6
CONTINUOUS
 10
82.0348626462
 20
42.8312495971
  0
VERTEX
  8
0
 62
7
  6
CONTINUOUS
 10
82.0211544234
 20
42.8387371003
  0
VERTEX
  8
0
 62
7
  6
CONTINUOUS
 10
81.9926503914
 20
42.8518123858
  0
VERTEX
  8
0
 62
7
  6
CONTINUOUS
 10
81.9628006951
 20
42.8622814145
  0
VERTEX
  8
0
 62
7
  6
CONTINUOUS
 10
81.9316985926
 20
42.8701249658
  0
VERTEX
  8
0
 62
7
  6
CONTINUOUS
 10
81.8994300004
 20
42.8753084283
  0
VERTEX
  8
0
 62
7
  6
CONTINUOUS
 10
81.8660944711
 20
42.8778282869
  0
VERTEX
  8
0
 62
7
  6
CONTINUOUS
 10
81.8317853028
 20
42.8776654119
  0
VERTEX
  8
0
 62
7
  6
CONTINUOUS
 10
81.7966071752
 20
42.8748320347
  0
VERTEX
  8
0
 62
7
  6
CONTINUOUS
 10
81.7606596744
 20
42.8693247318
  0
VERTEX
  8
0
 62
7
  6
CONTINUOUS
 10
81.72405138
 20
42.8611713376
  0
VERTEX
  8
0
 62
7
  6
CONTINUOUS
 10
81.6868869983
 20
42.8503841749
  0
VERTEX
  8
0
 62
7
  6
CONTINUOUS
 10
81.6492777358
 20
42.8370063547
  0
VERTEX
  8
0
 62
7
  6
CONTINUOUS
 10
81.6113321916
 20
42.8210658017
  0
VERTEX
  8
0
 62
7
  6
CONTINUOUS
 10
81.5731628953
 20
42.8026203984
  0
VERTEX
  8
0
 62
7
  6
CONTINUOUS
 10
81.5348810653
 20
42.7817133436
  0
VERTEX
  8
0
 62
7
  6
CONTINUOUS
 10
81.4965992353
 20
42.7584166126
  0
VERTEX
  8
0
 62
7
  6
CONTINUOUS
 10
81.458429939
 20
42.732788172
  0
VERTEX
  8
0
 62
7
  6
CONTINUOUS
 10
81.4204843947
 20
42.7049132461
  0
VERTEX
  8
0
 62
7
  6
CONTINUOUS
 10
81.3828751323
 20
42.6748638899
  0
VERTEX
  8
0
 62
7
  6
CONTINUOUS
 10
81.3457107506
 20
42.6427375772
  0
VERTEX
  8
0
 62
7
  6
CONTINUOUS
 10
81.3091024562
 20
42.6086196065
  0
VERTEX
  8
0
 62
7
  6
CONTINUOUS
 10
81.2731549554
 20
42.5726185586
  0
VERTEX
  8
0
 62
7
  6
CONTINUOUS
 10
81.2379768278
 20
42.5348319755
  0
VERTEX
  8
0
 62
7
  6
CONTINUOUS
 10
81.2036676595
 20
42.4953782718
  0
VERTEX
  8
0
 62
7
  6
CONTINUOUS
 10
81.1703321302
 20
42.4543660894
  0
VERTEX
  8
0
 62
7
  6
CONTINUOUS
 10
81.138063538
 20
42.4119222884
  0
VERTEX
  8
0
 62
7
  6
CONTINUOUS
 10
81.1069614355
 20
42.368165337
  0
VERTEX
  8
0
 62
7
  6
CONTINUOUS
 10
81.0771117392
 20
42.3232290537
  0
VERTEX
  8
0
 62
7
  6
CONTINUOUS
 10
81.0486077072
 20
42.2772403436
  0
VERTEX
  8
0
 62
7
  6
CONTINUOUS
 10
81.0215268672
 20
42.2303384146
  0
VERTEX
  8
0
 62
7
  6
CONTINUOUS
 10
80.9959550894
 20
42.1826571213
  0
VERTEX
  8
0
 62
7
  6
CONTINUOUS
 10
80.9719606038
 20
42.134339429
  0
VERTEX
  8
0
 62
7
  6
CONTINUOUS
 10
80.949620886
 20
42.0855245721
  0
VERTEX
  8
0
 62
7
  6
CONTINUOUS
 10
80.9289940681
 20
42.0363575972
  0
VERTEX
  8
0
 62
7
  6
CONTINUOUS
 10
80.910148323
 20
41.9869814863
  0
VERTEX
  8
0
 62
7
  6
CONTINUOUS
 10
80.8931310035
 20
41.9375416666
  0
VERTEX
  8
0
 62
7
  6
CONTINUOUS
 10
80.8780001803
 20
41.8881831914
  0
VERTEX
  8
0
 62
7
  6
CONTINUOUS
 10
80.8647918716
 20
41.8390501636
  0
VERTEX
  8
0
 62
7
  6
CONTINUOUS
 10
80.8535533653
 20
41.7902880072
  0
VERTEX
  8
0
 62
7
  6
CONTINUOUS
 10
80.8443089228
 20
41.7420378111
  0
VERTEX
  8
0
 62
7
  6
CONTINUOUS
 10
80.8370944947
 20
41.6944436652
  0
VERTEX
  8
0
 62
7
  6
CONTINUOUS
 10
80.8319223011
 20
41.6476419902
  0
VERTEX
  8
0
 62
7
  6
CONTINUOUS
 10
80.828819571
 20
41.6018402934
  0
VERTEX
  8
0
 62
7
  6
CONTINUOUS
 10
80.8277772281
 20
41.5569694056
  0
SEQEND
  0
LINE
  8
0
 62
7
  6
CONTINUOUS
 10
79.2721399543
 20
45.1495692982
 11
80.332804542
 21
44.5372081664
  0
LINE
  8
0
 62
7
  6
CONTINUOUS
 10
79.9792437915
 20
45.1495622435
 11
81.0399083792
 21
44.5372011117
  0
LINE
  8
0
 62
7
  6
CONTINUOUS
 10
79.9792437915
 20
46.3743158692
 11
81.0399083792
 21
45.7619547374
  0
POLYLINE
  8
0
 62
7
  6
CONTINUOUS
 66
1
 70
0
  0
VERTEX
  8
0
 62
7
  6
CONTINUOUS
 10
103.9693108239
 20
32.1594588075
  0
VERTEX
  8
0
 62
7
  6
CONTINUOUS
 10
103.9481502575
 20
32.172268848
  0
VERTEX
  8
0
 62
7
  6
CONTINUOUS
 10
103.9073995302
 20
32.2005000498
  0
VERTEX
  8
0
 62
7
  6
CONTINUOUS
 10
103.8688315307
 20
32.2321754038
  0
VERTEX
  8
0
 62
7
  6
CONTINUOUS
 10
103.8325260868
 20
32.2672116113
  0
VERTEX
  8
0
 62
7
  6
CONTINUOUS
 10
103.798573271
 20
32.3055405916
  0
VERTEX
  8
0
 62
7
  6
CONTINUOUS
 10
103.7670418983
 20
32.3470645114
  0
VERTEX
  8
0
 62
7
  6
CONTINUOUS
 10
103.7380117481
 20
32.3917000047
  0
VERTEX
  8
0
 62
7
  6
CONTINUOUS
 10
103.7115399995
 20
32.4393355899
  0
VERTEX
  8
0
 62
7
  6
CONTINUOUS
 10
103.6876954164
 20
32.4898733702
  0
VERTEX
  8
0
 62
7
  6
CONTINUOUS
 10
103.6665230242
 20
32.5431892255
  0
VERTEX
  8
0
 62
7
  6
CONTINUOUS
 10
103.6480799484
 20
32.599171615
  0
VERTEX
  8
0
 62
7
  6
CONTINUOUS
 10
103.6323986531
 20
32.6576849038
  0
VERTEX
  8
0
 62
7
  6
CONTINUOUS
 10
103.619524108
 20
32.7186049171
  0
VERTEX
  8
0
 62
7
  6
CONTINUOUS
 10
103.6094759219
 20
32.781785734
  0
VERTEX
  8
0
 62
7
  6
CONTINUOUS
 10
103.6022865013
 20
32.8470916702
  0
VERTEX
  8
0
 62
7
  6
CONTINUOUS
 10
103.5979624222
 20
32.9143678398
  0
VERTEX
  8
0
 62
7
  6
CONTINUOUS
 10
103.5965232348
 20
32.9834682782
  0
VERTEX
  8
0
 62
7
  6
CONTINUOUS
 10
103.5979624222
 20
33.0542305372
  0
VERTEX
  8
0
 62
7
  6
CONTINUOUS
 10
103.6022865013
 20
33.1264996935
  0
VERTEX
  8
0
 62
7
  6
CONTINUOUS
 10
103.6094759219
 20
33.2001072079
  0
VERTEX
  8
0
 62
7
  6
CONTINUOUS
 10
103.619524108
 20
33.2748906015
  0
VERTEX
  8
0
 62
7
  6
CONTINUOUS
 10
103.6323986531
 20
33.3506767703
  0
VERTEX
  8
0
 62
7
  6
CONTINUOUS
 10
103.6480799484
 20
33.4272971511
  0
VERTEX
  8
0
 62
7
  6
CONTINUOUS
 10
103.6665230242
 20
33.5045756429
  0
VERTEX
  8
0
 62
7
  6
CONTINUOUS
 10
103.6876954164
 20
33.5823391249
  0
VERTEX
  8
0
 62
7
  6
CONTINUOUS
 10
103.7115399995
 20
33.6604100939
  0
VERTEX
  8
0
 62
7
  6
CONTINUOUS
 10
103.7380117481
 20
33.738612439
  0
VERTEX
  8
0
 62
7
  6
CONTINUOUS
 10
103.7670418983
 20
33.8167688623
  0
VERTEX
  8
0
 62
7
  6
CONTINUOUS
 10
103.798573271
 20
33.8947018579
  0
VERTEX
  8
0
 62
7
  6
CONTINUOUS
 10
103.8325260868
 20
33.9722359388
  0
VERTEX
  8
0
 62
7
  6
CONTINUOUS
 10
103.8688315307
 20
34.0491938116
  0
VERTEX
  8
0
 62
7
  6
CONTINUOUS
 10
103.9073995302
 20
34.1254033895
  0
VERTEX
  8
0
 62
7
  6
CONTINUOUS
 10
103.9481502575
 20
34.2006891972
  0
VERTEX
  8
0
 62
7
  6
CONTINUOUS
 10
103.9909841627
 20
34.2748841064
  0
VERTEX
  8
0
 62
7
  6
CONTINUOUS
 10
104.0358111286
 20
34.347816049
  0
VERTEX
  8
0
 62
7
  6
CONTINUOUS
 10
104.0825230293
 20
34.4193243688
  0
VERTEX
  8
0
 62
7
  6
CONTINUOUS
 10
104.1310202738
 20
34.4892419634
  0
VERTEX
  8
0
 62
7
  6
CONTINUOUS
 10
104.1811871395
 20
34.5574161034
  0
VERTEX
  8
0
 62
7
  6
CONTINUOUS
 10
104.2329154641
 20
34.6236861653
  0
VERTEX
  8
0
 62
7
  6
CONTINUOUS
 10
104.2860829761
 20
34.6879087301
  0
VERTEX
  8
0
 62
7
  6
CONTINUOUS
 10
104.3405739209
 20
34.7499311075
  0
VERTEX
  8
0
 62
7
  6
CONTINUOUS
 10
104.396260586
 20
34.8096204874
  0
VERTEX
  8
0
 62
7
  6
CONTINUOUS
 10
104.4530206727
 20
34.8668334959
  0
VERTEX
  8
0
 62
7
  6
CONTINUOUS
 10
104.5107221837
 20
34.9214491348
  0
VERTEX
  8
0
 62
7
  6
CONTINUOUS
 10
104.5692373843
 20
34.9733346446
  0
VERTEX
  8
0
 62
7
  6
CONTINUOUS
 10
104.6284311874
 20
35.0223819347
  0
VERTEX
  8
0
 62
7
  6
CONTINUOUS
 10
104.688171579
 20
35.0684700627
  0
VERTEX
  8
0
 62
7
  6
CONTINUOUS
 10
104.748321606
 20
35.1115048242
  0
VERTEX
  8
0
 62
7
  6
CONTINUOUS
 10
104.8086776911
 20
35.151334886
  0
VERTEX
  8
0
 62
7
  6
CONTINUOUS
 10
104.8693076933
 20
35.1880106924
  0
SEQEND
  0
POLYLINE
  8
0
 62
7
  6
CONTINUOUS
 66
1
 70
0
  0
VERTEX
  8
0
 62
7
  6
CONTINUOUS
 10
105.7693045628
 20
35.2771538757
  0
VERTEX
  8
0
 62
7
  6
CONTINUOUS
 10
105.7904651292
 20
35.2643438352
  0
VERTEX
  8
0
 62
7
  6
CONTINUOUS
 10
105.8312158565
 20
35.2361126334
  0
VERTEX
  8
0
 62
7
  6
CONTINUOUS
 10
105.869783856
 20
35.2044372794
  0
VERTEX
  8
0
 62
7
  6
CONTINUOUS
 10
105.9060892999
 20
35.1694010719
  0
VERTEX
  8
0
 62
7
  6
CONTINUOUS
 10
105.9400421157
 20
35.1310720916
  0
VERTEX
  8
0
 62
7
  6
CONTINUOUS
 10
105.9715734884
 20
35.0895481718
  0
VERTEX
  8
0
 62
7
  6
CONTINUOUS
 10
106.0006036386
 20
35.0449126785
  0
VERTEX
  8
0
 62
7
  6
CONTINUOUS
 10
106.0270753872
 20
34.9972770933
  0
VERTEX
  8
0
 62
7
  6
CONTINUOUS
 10
106.0509199703
 20
34.946739313
  0
VERTEX
  8
0
 62
7
  6
CONTINUOUS
 10
106.0720923625
 20
34.8934234577
  0
VERTEX
  8
0
 62
7
  6
CONTINUOUS
 10
106.0905354383
 20
34.8374410682
  0
VERTEX
  8
0
 62
7
  6
CONTINUOUS
 10
106.1062167336
 20
34.7789277794
  0
VERTEX
  8
0
 62
7
  6
CONTINUOUS
 10
106.1190912787
 20
34.7180077661
  0
VERTEX
  8
0
 62
7
  6
CONTINUOUS
 10
106.1291394648
 20
34.6548269492
  0
VERTEX
  8
0
 62
7
  6
CONTINUOUS
 10
106.1363288854
 20
34.589521013
  0
VERTEX
  8
0
 62
7
  6
CONTINUOUS
 10
106.1406529645
 20
34.5222448434
  0
VERTEX
  8
0
 62
7
  6
CONTINUOUS
 10
106.1420921519
 20
34.453144405
  0
VERTEX
  8
0
 62
7
  6
CONTINUOUS
 10
106.1406529645
 20
34.382382146
  0
VERTEX
  8
0
 62
7
  6
CONTINUOUS
 10
106.1363288854
 20
34.3101129897
  0
VERTEX
  8
0
 62
7
  6
CONTINUOUS
 10
106.1291394648
 20
34.2365054752
  0
VERTEX
  8
0
 62
7
  6
CONTINUOUS
 10
106.1190912787
 20
34.1617220817
  0
VERTEX
  8
0
 62
7
  6
CONTINUOUS
 10
106.1062167336
 20
34.0859359129
  0
VERTEX
  8
0
 62
7
  6
CONTINUOUS
 10
106.0905354383
 20
34.0093155321
  0
VERTEX
  8
0
 62
7
  6
CONTINUOUS
 10
106.0720923625
 20
33.9320370402
  0
VERTEX
  8
0
 62
7
  6
CONTINUOUS
 10
106.0509199703
 20
33.8542735582
  0
VERTEX
  8
0
 62
7
  6
CONTINUOUS
 10
106.0270753872
 20
33.7762025893
  0
VERTEX
  8
0
 62
7
  6
CONTINUOUS
 10
106.0006036386
 20
33.6980002442
  0
VERTEX
  8
0
 62
7
  6
CONTINUOUS
 10
105.9715734884
 20
33.6198438209
  0
VERTEX
  8
0
 62
7
  6
CONTINUOUS
 10
105.9400421157
 20
33.5419108253
  0
VERTEX
  8
0
 62
7
  6
CONTINUOUS
 10
105.9060892999
 20
33.4643767444
  0
VERTEX
  8
0
 62
7
  6
CONTINUOUS
 10
105.869783856
 20
33.3874188716
  0
VERTEX
  8
0
 62
7
  6
CONTINUOUS
 10
105.8312158565
 20
33.3112092937
  0
VERTEX
  8
0
 62
7
  6
CONTINUOUS
 10
105.7904651292
 20
33.235923486
  0
VERTEX
  8
0
 62
7
  6
CONTINUOUS
 10
105.7476312239
 20
33.1617285768
  0
VERTEX
  8
0
 62
7
  6
CONTINUOUS
 10
105.7028042581
 20
33.0887966342
  0
VERTEX
  8
0
 62
7
  6
CONTINUOUS
 10
105.6560923574
 20
33.0172883144
  0
VERTEX
  8
0
 62
7
  6
CONTINUOUS
 10
105.6075951129
 20
32.9473707198
  0
VERTEX
  8
0
 62
7
  6
CONTINUOUS
 10
105.5574282472
 20
32.8791965798
  0
VERTEX
  8
0
 62
7
  6
CONTINUOUS
 10
105.5056999226
 20
32.8129265178
  0
VERTEX
  8
0
 62
7
  6
CONTINUOUS
 10
105.4525324106
 20
32.7487039531
  0
VERTEX
  8
0
 62
7
  6
CONTINUOUS
 10
105.3980414658
 20
32.6866815757
  0
VERTEX
  8
0
 62
7
  6
CONTINUOUS
 10
105.3423548007
 20
32.6269921958
  0
VERTEX
  8
0
 62
7
  6
CONTINUOUS
 10
105.285594714
 20
32.5697791873
  0
VERTEX
  8
0
 62
7
  6
CONTINUOUS
 10
105.227893203
 20
32.5151635484
  0
VERTEX
  8
0
 62
7
  6
CONTINUOUS
 10
105.1693780024
 20
32.4632780385
  0
VERTEX
  8
0
 62
7
  6
CONTINUOUS
 10
105.1101841993
 20
32.4142307484
  0
VERTEX
  8
0
 62
7
  6
CONTINUOUS
 10
105.0504438077
 20
32.3681426205
  0
VERTEX
  8
0
 62
7
  6
CONTINUOUS
 10
104.9902937807
 20
32.325107859
  0
VERTEX
  8
0
 62
7
  6
CONTINUOUS
 10
104.9299376956
 20
32.2852777972
  0
VERTEX
  8
0
 62
7
  6
CONTINUOUS
 10
104.8693076933
 20
32.2486019908
  0
SEQEND
  0
POLYLINE
  8
0
 62
7
  6
CONTINUOUS
 66
1
 70
0
  0
VERTEX
  8
0
 62
7
  6
CONTINUOUS
 10
94.8991435886
 20
43.1490087306
  0
VERTEX
  8
0
 62
7
  6
CONTINUOUS
 10
94.9005121061
 20
43.0856197053
  0
VERTEX
  8
0
 62
7
  6
CONTINUOUS
 10
94.9045914258
 20
43.0241040509
  0
VERTEX
  8
0
 62
7
  6
CONTINUOUS
 10
94.9113913534
 20
42.9643910964
  0
VERTEX
  8
0
 62
7
  6
CONTINUOUS
 10
94.9208824718
 20
42.9066928546
  0
VERTEX
  8
0
 62
7
  6
CONTINUOUS
 10
94.9330516016
 20
42.851155858
  0
VERTEX
  8
0
 62
7
  6
CONTINUOUS
 10
94.9478598348
 20
42.7979058755
  0
VERTEX
  8
0
 62
7
  6
CONTINUOUS
 10
94.9652809714
 20
42.7470796885
  0
VERTEX
  8
0
 62
7
  6
CONTINUOUS
 10
94.9852637081
 20
42.6987907919
  0
VERTEX
  8
0
 62
7
  6
CONTINUOUS
 10
95.0077690764
 20
42.6531648984
  0
VERTEX
  8
0
 62
7
  6
CONTINUOUS
 10
95.0327338719
 20
42.6103021362
  0
VERTEX
  8
0
 62
7
  6
CONTINUOUS
 10
95.060106733
 20
42.5703159385
  0
VERTEX
  8
0
 62
7
  6
CONTINUOUS
 10
95.0898131628
 20
42.5332921024
  0
VERTEX
  8
0
 62
7
  6
CONTINUOUS
 10
95.121789901
 20
42.4993306895
  0
VERTEX
  8
0
 62
7
  6
CONTINUOUS
 10
95.1559518757
 20
42.4685023394
  0
VERTEX
  8
0
 62
7
  6
CONTINUOUS
 10
95.1922245376
 20
42.4408927782
  0
VERTEX
  8
0
 62
7
  6
CONTINUOUS
 10
95.2305233183
 20
42.4165508846
  0
SEQEND
  0
LINE
  8
0
 62
7
  6
CONTINUOUS
 10
92.4949817102
 20
28.5636142997
 11
92.4949817102
 21
27.169337972
  0
LINE
  8
0
 62
7
  6
CONTINUOUS
 10
93.5556462979
 20
28.6561042305
 11
93.5556462979
 21
26.5569768403
  0
POLYLINE
  8
0
 62
7
  6
CONTINUOUS
 66
1
 70
0
  0
VERTEX
  8
0
 62
7
  6
CONTINUOUS
 10
95.2305233183
 20
42.4165508846
  0
VERTEX
  8
0
 62
7
  6
CONTINUOUS
 10
95.2707323189
 20
42.3955649936
  0
VERTEX
  8
0
 62
7
  6
CONTINUOUS
 10
95.3127786473
 20
42.3779557718
  0
VERTEX
  8
0
 62
7
  6
CONTINUOUS
 10
95.3565571719
 20
42.363783867
  0
VERTEX
  8
0
 62
7
  6
CONTINUOUS
 10
95.4019563784
 20
42.3530709802
  0
VERTEX
  8
0
 62
7
  6
CONTINUOUS
 10
95.4488725565
 20
42.3458554681
  0
VERTEX
  8
0
 62
7
  6
CONTINUOUS
 10
95.4971874218
 20
42.3421420872
  0
VERTEX
  8
0
 62
7
  6
CONTINUOUS
 10
95.546789425
 20
42.3419524572
  0
VERTEX
  8
0
 62
7
  6
CONTINUOUS
 10
95.5975546506
 20
42.345274344
  0
VERTEX
  8
0
 62
7
  6
CONTINUOUS
 10
95.6493647845
 20
42.3521124224
  0
VERTEX
  8
0
 62
7
  6
CONTINUOUS
 10
95.7020914735
 20
42.3624375854
  0
VERTEX
  8
0
 62
7
  6
CONTINUOUS
 10
95.7556107781
 20
42.3762375176
  0
VERTEX
  8
0
 62
7
  6
CONTINUOUS
 10
95.8097911437
 20
42.3934665199
  0
VERTEX
  8
0
 62
7
  6
CONTINUOUS
 10
95.8645041989
 20
42.4140954051
  0
VERTEX
  8
0
 62
7
  6
CONTINUOUS
 10
95.9196164545
 20
42.4380623219
  0
VERTEX
  8
0
 62
7
  6
CONTINUOUS
 10
95.9749963437
 20
42.4653214926
  0
VERTEX
  8
0
 62
7
  6
CONTINUOUS
 10
96.0305097282
 20
42.4957955094
  0
VERTEX
  8
0
 62
7
  6
CONTINUOUS
 10
96.0860231127
 20
42.5294224449
  0
VERTEX
  8
0
 62
7
  6
CONTINUOUS
 10
96.1414030018
 20
42.5661100803
  0
VERTEX
  8
0
 62
7
  6
CONTINUOUS
 10
96.1965152575
 20
42.6057809349
  0
VERTEX
  8
0
 62
7
  6
CONTINUOUS
 10
96.2512283127
 20
42.6483288669
  0
VERTEX
  8
0
 62
7
  6
CONTINUOUS
 10
96.3054086782
 20
42.6936615885
  0
VERTEX
  8
0
 62
7
  6
CONTINUOUS
 10
96.3589279828
 20
42.7416600572
  0
VERTEX
  8
0
 62
7
  6
CONTINUOUS
 10
96.4116546719
 20
42.792218067
  0
VERTEX
  8
0
 62
7
  6
CONTINUOUS
 10
96.4634648057
 20
42.845204821
  0
VERTEX
  8
0
 62
7
  6
CONTINUOUS
 10
96.5142300313
 20
42.9005012176
  0
VERTEX
  8
0
 62
7
  6
CONTINUOUS
 10
96.5638320345
 20
42.9579659655
  0
VERTEX
  8
0
 62
7
  6
CONTINUOUS
 10
96.6121468998
 20
43.0174682144
  0
VERTEX
  8
0
 62
7
  6
CONTINUOUS
 10
96.659063078
 20
43.0788575392
  0
VERTEX
  8
0
 62
7
  6
CONTINUOUS
 10
96.7044622844
 20
43.1419926013
  0
VERTEX
  8
0
 62
7
  6
CONTINUOUS
 10
96.748240809
 20
43.2067152902
  0
VERTEX
  8
0
 62
7
  6
CONTINUOUS
 10
96.7902871375
 20
43.2728751403
  0
VERTEX
  8
0
 62
7
  6
CONTINUOUS
 10
96.8305063975
 20
43.3403078785
  0
VERTEX
  8
0
 62
7
  6
CONTINUOUS
 10
96.8687949188
 20
43.4088553611
  0
VERTEX
  8
0
 62
7
  6
CONTINUOUS
 10
96.9050675806
 20
43.4783487345
  0
VERTEX
  8
0
 62
7
  6
CONTINUOUS
 10
96.9392295554
 20
43.5486236998
  0
VERTEX
  8
0
 62
7
  6
CONTINUOUS
 10
96.9712062936
 20
43.6195084491
  0
VERTEX
  8
0
 62
7
  6
CONTINUOUS
 10
97.0009127233
 20
43.6908341109
  0
VERTEX
  8
0
 62
7
  6
CONTINUOUS
 10
97.0282855844
 20
43.7624275773
  0
VERTEX
  8
0
 62
7
  6
CONTINUOUS
 10
97.0532503799
 20
43.8341170303
  0
VERTEX
  8
0
 62
7
  6
CONTINUOUS
 10
97.0757557483
 20
43.9057297296
  0
VERTEX
  8
0
 62
7
  6
CONTINUOUS
 10
97.095738485
 20
43.9770925653
  0
VERTEX
  8
0
 62
7
  6
CONTINUOUS
 10
97.1131596216
 20
44.0480348281
  0
VERTEX
  8
0
 62
7
  6
CONTINUOUS
 10
97.1279678548
 20
44.1183837833
  0
VERTEX
  8
0
 62
7
  6
CONTINUOUS
 10
97.1401369846
 20
44.1879723967
  0
VERTEX
  8
0
 62
7
  6
CONTINUOUS
 10
97.1496281029
 20
44.2566299726
  0
VERTEX
  8
0
 62
7
  6
CONTINUOUS
 10
97.1564280305
 20
44.3241947603
  0
VERTEX
  8
0
 62
7
  6
CONTINUOUS
 10
97.1605073502
 20
44.3904207793
  0
VERTEX
  8
0
 62
7
  6
CONTINUOUS
 10
97.1618758677
 20
44.455390023
  0
SEQEND
  0
LINE
  8
0
 62
7
  6
CONTINUOUS
 10
86.3431871583
 20
48.4155137748
 11
87.0502909956
 21
48.0072764196
  0
LINE
  8
0
 62
7
  6
CONTINUOUS
 10
85.2825225706
 20
49.4361470232
 11
87.0502909956
 21
48.4155276282
  0
POLYLINE
  8
0
 62
7
  6
CONTINUOUS
 66
1
 70
0
  0
VERTEX
  8
0
 62
7
  6
CONTINUOUS
 10
96.10121128
 20
45.0677511548
  0
VERTEX
  8
0
 62
7
  6
CONTINUOUS
 10
96.0998427625
 20
45.1311401801
  0
VERTEX
  8
0
 62
7
  6
CONTINUOUS
 10
96.0988962359
 20
45.1454136887
  0
SEQEND
  0
POLYLINE
  8
0
 62
7
  6
CONTINUOUS
 66
1
 70
0
  0
VERTEX
  8
0
 62
7
  6
CONTINUOUS
 10
97.1618758677
 20
44.455390023
  0
VERTEX
  8
0
 62
7
  6
CONTINUOUS
 10
97.1605073502
 20
44.5187790483
  0
VERTEX
  8
0
 62
7
  6
CONTINUOUS
 10
97.1564280305
 20
44.5802947027
  0
VERTEX
  8
0
 62
7
  6
CONTINUOUS
 10
97.1496281029
 20
44.6400076572
  0
VERTEX
  8
0
 62
7
  6
CONTINUOUS
 10
97.1401369846
 20
44.6977058991
  0
VERTEX
  8
0
 62
7
  6
CONTINUOUS
 10
97.1279678548
 20
44.7532428956
  0
VERTEX
  8
0
 62
7
  6
CONTINUOUS
 10
97.1131596216
 20
44.8064928781
  0
VERTEX
  8
0
 62
7
  6
CONTINUOUS
 10
97.095738485
 20
44.8573190651
  0
VERTEX
  8
0
 62
7
  6
CONTINUOUS
 10
97.0757557483
 20
44.9056079617
  0
VERTEX
  8
0
 62
7
  6
CONTINUOUS
 10
97.0532503799
 20
44.9512338552
  0
VERTEX
  8
0
 62
7
  6
CONTINUOUS
 10
97.0282855844
 20
44.9940966174
  0
VERTEX
  8
0
 62
7
  6
CONTINUOUS
 10
97.0009127233
 20
45.0340828151
  0
VERTEX
  8
0
 62
7
  6
CONTINUOUS
 10
96.9712062936
 20
45.0711066512
  0
VERTEX
  8
0
 62
7
  6
CONTINUOUS
 10
96.9392295554
 20
45.1050680641
  0
VERTEX
  8
0
 62
7
  6
CONTINUOUS
 10
96.9050675806
 20
45.1358964142
  0
VERTEX
  8
0
 62
7
  6
CONTINUOUS
 10
96.8687949188
 20
45.1635059754
  0
VERTEX
  8
0
 62
7
  6
CONTINUOUS
 10
96.8304961381
 20
45.187847869
  0
SEQEND
  0
LINE
  8
0
 62
7
  6
CONTINUOUS
 10
127.6380424197
 20
73.8899718401
 11
122.3347636406
 21
70.8281406861
  0
LINE
  8
0
 62
7
  6
CONTINUOUS
 10
85.2825225706
 20
49.4361470232
 11
79.9792437915
 21
46.3743158692
  0
LINE
  8
0
 62
7
  6
CONTINUOUS
 10
131.0321408384
 20
75.0330413616
 11
128.3451462569
 21
73.4817135769
  0
LINE
  8
0
 62
7
  6
CONTINUOUS
 10
121.6276598034
 20
69.6033941151
 11
85.9896264078
 21
49.02788876
  0
LINE
  8
0
 62
7
  6
CONTINUOUS
 10
79.2721399543
 20
45.1495692982
 11
76.5851453729
 21
43.5982415135
  0
LINE
  8
0
 62
7
  6
CONTINUOUS
 10
128.6987070075
 20
73.2776107084
 11
123.3954282284
 21
70.2157795543
  0
LINE
  8
0
 62
7
  6
CONTINUOUS
 10
86.3431871583
 20
48.8237858915
 11
81.0399083792
 21
45.7619547374
  0
LINE
  8
0
 62
7
  6
CONTINUOUS
 10
122.3347636406
 20
69.6033870604
 11
121.9812207756
 21
69.3992702105
  0
LINE
  8
0
 62
7
  6
CONTINUOUS
 10
79.9792437915
 20
45.1495622435
 11
79.6257009265
 21
44.9454453936
  0
POLYLINE
  8
0
 62
7
  6
CONTINUOUS
 66
1
 70
0
  0
VERTEX
  8
0
 62
7
  6
CONTINUOUS
 10
96.8304961381
 20
45.187847869
  0
VERTEX
  8
0
 62
7
  6
CONTINUOUS
 10
96.7902871375
 20
45.20883376
  0
VERTEX
  8
0
 62
7
  6
CONTINUOUS
 10
96.748240809
 20
45.2264429819
  0
VERTEX
  8
0
 62
7
  6
CONTINUOUS
 10
96.7044622844
 20
45.2406148866
  0
VERTEX
  8
0
 62
7
  6
CONTINUOUS
 10
96.659063078
 20
45.2513277735
  0
VERTEX
  8
0
 62
7
  6
CONTINUOUS
 10
96.6121468998
 20
45.2585432855
  0
VERTEX
  8
0
 62
7
  6
CONTINUOUS
 10
96.5638320345
 20
45.2622566664
  0
VERTEX
  8
0
 62
7
  6
CONTINUOUS
 10
96.5142300313
 20
45.2624462964
  0
VERTEX
  8
0
 62
7
  6
CONTINUOUS
 10
96.4634648057
 20
45.2591244096
  0
VERTEX
  8
0
 62
7
  6
CONTINUOUS
 10
96.4116546719
 20
45.2522863312
  0
VERTEX
  8
0
 62
7
  6
CONTINUOUS
 10
96.3589279828
 20
45.2419611682
  0
VERTEX
  8
0
 62
7
  6
CONTINUOUS
 10
96.3054086782
 20
45.228161236
  0
VERTEX
  8
0
 62
7
  6
CONTINUOUS
 10
96.2512283127
 20
45.2109322337
  0
VERTEX
  8
0
 62
7
  6
CONTINUOUS
 10
96.1965152575
 20
45.1903033486
  0
VERTEX
  8
0
 62
7
  6
CONTINUOUS
 10
96.1414030018
 20
45.1663364318
  0
VERTEX
  8
0
 62
7
  6
CONTINUOUS
 10
96.0860231127
 20
45.139077261
  0
VERTEX
  8
0
 62
7
  6
CONTINUOUS
 10
96.0305097282
 20
45.1086032442
  0
VERTEX
  8
0
 62
7
  6
CONTINUOUS
 10
95.9749963437
 20
45.0749763087
  0
VERTEX
  8
0
 62
7
  6
CONTINUOUS
 10
95.9196164545
 20
45.0382886733
  0
VERTEX
  8
0
 62
7
  6
CONTINUOUS
 10
95.8645041989
 20
44.9986178187
  0
VERTEX
  8
0
 62
7
  6
CONTINUOUS
 10
95.8097911437
 20
44.9560698867
  0
VERTEX
  8
0
 62
7
  6
CONTINUOUS
 10
95.7556107781
 20
44.9107371651
  0
VERTEX
  8
0
 62
7
  6
CONTINUOUS
 10
95.7020914735
 20
44.8627386964
  0
VERTEX
  8
0
 62
7
  6
CONTINUOUS
 10
95.6493647845
 20
44.8121806866
  0
VERTEX
  8
0
 62
7
  6
CONTINUOUS
 10
95.5975546506
 20
44.7591939326
  0
VERTEX
  8
0
 62
7
  6
CONTINUOUS
 10
95.546789425
 20
44.703897536
  0
VERTEX
  8
0
 62
7
  6
CONTINUOUS
 10
95.4971874218
 20
44.6464327882
  0
VERTEX
  8
0
 62
7
  6
CONTINUOUS
 10
95.4488725565
 20
44.5869305392
  0
VERTEX
  8
0
 62
7
  6
CONTINUOUS
 10
95.4019563784
 20
44.5255412144
  0
VERTEX
  8
0
 62
7
  6
CONTINUOUS
 10
95.3565571719
 20
44.4624061523
  0
VERTEX
  8
0
 62
7
  6
CONTINUOUS
 10
95.3127786473
 20
44.3976834634
  0
VERTEX
  8
0
 62
7
  6
CONTINUOUS
 10
95.2707323189
 20
44.3315236133
  0
VERTEX
  8
0
 62
7
  6
CONTINUOUS
 10
95.2305130589
 20
44.2640908751
  0
VERTEX
  8
0
 62
7
  6
CONTINUOUS
 10
95.1922245376
 20
44.1955433925
  0
VERTEX
  8
0
 62
7
  6
CONTINUOUS
 10
95.1559518757
 20
44.1260500192
  0
VERTEX
  8
0
 62
7
  6
CONTINUOUS
 10
95.121789901
 20
44.0557750538
  0
VERTEX
  8
0
 62
7
  6
CONTINUOUS
 10
95.0898131628
 20
43.9848903045
  0
VERTEX
  8
0
 62
7
  6
CONTINUOUS
 10
95.060106733
 20
43.9135646428
  0
VERTEX
  8
0
 62
7
  6
CONTINUOUS
 10
95.0327338719
 20
43.8419711763
  0
VERTEX
  8
0
 62
7
  6
CONTINUOUS
 10
95.0077690764
 20
43.7702817233
  0
VERTEX
  8
0
 62
7
  6
CONTINUOUS
 10
94.9852637081
 20
43.698669024
  0
VERTEX
  8
0
 62
7
  6
CONTINUOUS
 10
94.9652809714
 20
43.6273061883
  0
VERTEX
  8
0
 62
7
  6
CONTINUOUS
 10
94.9478598348
 20
43.5563639256
  0
VERTEX
  8
0
 62
7
  6
CONTINUOUS
 10
94.9330516016
 20
43.4860149703
  0
VERTEX
  8
0
 62
7
  6
CONTINUOUS
 10
94.9208824718
 20
43.4164263569
  0
VERTEX
  8
0
 62
7
  6
CONTINUOUS
 10
94.9113913534
 20
43.347768781
  0
VERTEX
  8
0
 62
7
  6
CONTINUOUS
 10
94.9045914258
 20
43.2802039933
  0
VERTEX
  8
0
 62
7
  6
CONTINUOUS
 10
94.9005121061
 20
43.2139779744
  0
VERTEX
  8
0
 62
7
  6
CONTINUOUS
 10
94.8991435886
 20
43.1490087306
  0
SEQEND
  0
LINE
  8
0
 62
7
  6
CONTINUOUS
 10
97.4447174026
 20
49.8443031542
 11
97.4447174026
 21
39.3930722149
  0
LINE
  8
0
 62
7
  6
CONTINUOUS
 10
132.0928054261
 20
74.4206802298
 11
129.4058108447
 21
72.8693524451
  0
LINE
  8
0
 62
7
  6
CONTINUOUS
 10
122.6883243911
 20
68.9910329833
 11
87.0502909956
 21
48.4155276282
  0
LINE
  8
0
 62
7
  6
CONTINUOUS
 10
80.332804542
 20
44.5372081664
 11
77.6458099606
 21
42.9858803817
  0
LINE
  8
0
 62
7
  6
CONTINUOUS
 10
129.4058108447
 20
72.4611012365
 11
128.6987070075
 21
72.0528570827
  0
LINE
  8
0
 62
7
  6
CONTINUOUS
 10
123.3954282284
 20
68.9910259286
 11
122.6883243911
 21
68.5827817748
  0
LINE
  8
0
 62
7
  6
CONTINUOUS
 10
87.0502909956
 20
48.0072764196
 11
86.3431871583
 21
47.5990322658
  0
LINE
  8
0
 62
7
  6
CONTINUOUS
 10
81.0399083792
 20
44.5372011117
 11
80.332804542
 21
44.1289569579
  0
LINE
  8
0
 62
7
  6
CONTINUOUS
 10
112.2938979841
 20
58.4174303855
 11
97.4447174026
 21
49.8443031542
  0
POLYLINE
  8
0
 62
7
  6
CONTINUOUS
 66
1
 70
0
  0
VERTEX
  8
0
 62
7
  6
CONTINUOUS
 10
105.0658742831
 20
35.2835400523
  0
VERTEX
  8
0
 62
7
  6
CONTINUOUS
 10
105.0684748771
 20
35.267188081
  0
VERTEX
  8
0
 62
7
  6
CONTINUOUS
 10
105.0756642976
 20
35.2018821448
  0
VERTEX
  8
0
 62
7
  6
CONTINUOUS
 10
105.0799883768
 20
35.1346059752
  0
VERTEX
  8
0
 62
7
  6
CONTINUOUS
 10
105.0814275642
 20
35.0655055368
  0
VERTEX
  8
0
 62
7
  6
CONTINUOUS
 10
105.0799883768
 20
34.9947432778
  0
VERTEX
  8
0
 62
7
  6
CONTINUOUS
 10
105.0756642976
 20
34.9224741214
  0
VERTEX
  8
0
 62
7
  6
CONTINUOUS
 10
105.0684748771
 20
34.848866607
  0
VERTEX
  8
0
 62
7
  6
CONTINUOUS
 10
105.0584266909
 20
34.7740832135
  0
VERTEX
  8
0
 62
7
  6
CONTINUOUS
 10
105.0455521458
 20
34.6982970447
  0
VERTEX
  8
0
 62
7
  6
CONTINUOUS
 10
105.0298708506
 20
34.6216766639
  0
VERTEX
  8
0
 62
7
  6
CONTINUOUS
 10
105.0114277748
 20
34.544398172
  0
VERTEX
  8
0
 62
7
  6
CONTINUOUS
 10
104.9902553826
 20
34.46663469
  0
VERTEX
  8
0
 62
7
  6
CONTINUOUS
 10
104.9664107995
 20
34.3885637211
  0
VERTEX
  8
0
 62
7
  6
CONTINUOUS
 10
104.9399390509
 20
34.310361376
  0
VERTEX
  8
0
 62
7
  6
CONTINUOUS
 10
104.9109089007
 20
34.2322049527
  0
VERTEX
  8
0
 62
7
  6
CONTINUOUS
 10
104.8793775279
 20
34.1542719571
  0
VERTEX
  8
0
 62
7
  6
CONTINUOUS
 10
104.8454247121
 20
34.0767378762
  0
VERTEX
  8
0
 62
7
  6
CONTINUOUS
 10
104.8091192682
 20
33.9997800033
  0
VERTEX
  8
0
 62
7
  6
CONTINUOUS
 10
104.7705512688
 20
33.9235704254
  0
VERTEX
  8
0
 62
7
  6
CONTINUOUS
 10
104.7298005415
 20
33.8482846177
  0
VERTEX
  8
0
 62
7
  6
CONTINUOUS
 10
104.6869666362
 20
33.7740897086
  0
VERTEX
  8
0
 62
7
  6
CONTINUOUS
 10
104.6421396703
 20
33.701157766
  0
VERTEX
  8
0
 62
7
  6
CONTINUOUS
 10
104.5954277697
 20
33.6296494462
  0
VERTEX
  8
0
 62
7
  6
CONTINUOUS
 10
104.5469305252
 20
33.5597318516
  0
VERTEX
  8
0
 62
7
  6
CONTINUOUS
 10
104.4967636595
 20
33.4915577115
  0
VERTEX
  8
0
 62
7
  6
CONTINUOUS
 10
104.4450353349
 20
33.4252876496
  0
VERTEX
  8
0
 62
7
  6
CONTINUOUS
 10
104.3918678229
 20
33.3610650849
  0
VERTEX
  8
0
 62
7
  6
CONTINUOUS
 10
104.337376878
 20
33.2990427075
  0
VERTEX
  8
0
 62
7
  6
CONTINUOUS
 10
104.281690213
 20
33.2393533276
  0
VERTEX
  8
0
 62
7
  6
CONTINUOUS
 10
104.2249301262
 20
33.182140319
  0
VERTEX
  8
0
 62
7
  6
CONTINUOUS
 10
104.1672286152
 20
33.1275246802
  0
VERTEX
  8
0
 62
7
  6
CONTINUOUS
 10
104.1087134147
 20
33.0756391703
  0
VERTEX
  8
0
 62
7
  6
CONTINUOUS
 10
104.0495196116
 20
33.0265918802
  0
VERTEX
  8
0
 62
7
  6
CONTINUOUS
 10
103.98977922
 20
32.9805037523
  0
VERTEX
  8
0
 62
7
  6
CONTINUOUS
 10
103.929629193
 20
32.9374689908
  0
VERTEX
  8
0
 62
7
  6
CONTINUOUS
 10
103.8692731079
 20
32.897638929
  0
VERTEX
  8
0
 62
7
  6
CONTINUOUS
 10
103.8086431056
 20
32.8609631225
  0
SEQEND
  0
POLYLINE
  8
0
 62
7
  6
CONTINUOUS
 66
1
 70
0
  0
VERTEX
  8
0
 62
7
  6
CONTINUOUS
 10
112.5790545631
 20
53.2774500435
  0
VERTEX
  8
0
 62
7
  6
CONTINUOUS
 10
112.5919276863
 20
53.2837864711
  0
VERTEX
  8
0
 62
7
  6
CONTINUOUS
 10
112.6474410708
 20
53.314260488
  0
VERTEX
  8
0
 62
7
  6
CONTINUOUS
 10
112.7029544553
 20
53.3478874235
  0
VERTEX
  8
0
 62
7
  6
CONTINUOUS
 10
112.7583343445
 20
53.3845750589
  0
VERTEX
  8
0
 62
7
  6
CONTINUOUS
 10
112.8134466001
 20
53.4242459135
  0
VERTEX
  8
0
 62
7
  6
CONTINUOUS
 10
112.8681596553
 20
53.4667938455
  0
VERTEX
  8
0
 62
7
  6
CONTINUOUS
 10
112.9223400209
 20
53.5121265671
  0
VERTEX
  8
0
 62
7
  6
CONTINUOUS
 10
112.9758593255
 20
53.5601250358
  0
VERTEX
  8
0
 62
7
  6
CONTINUOUS
 10
113.0285860145
 20
53.6106830456
  0
VERTEX
  8
0
 62
7
  6
CONTINUOUS
 10
113.0803961483
 20
53.6636697996
  0
VERTEX
  8
0
 62
7
  6
CONTINUOUS
 10
113.131161374
 20
53.7189661962
  0
VERTEX
  8
0
 62
7
  6
CONTINUOUS
 10
113.1807633771
 20
53.776430944
  0
VERTEX
  8
0
 62
7
  6
CONTINUOUS
 10
113.2290782425
 20
53.835933193
  0
VERTEX
  8
0
 62
7
  6
CONTINUOUS
 10
113.2759944206
 20
53.8973225177
  0
VERTEX
  8
0
 62
7
  6
CONTINUOUS
 10
113.3213936271
 20
53.9604575799
  0
VERTEX
  8
0
 62
7
  6
CONTINUOUS
 10
113.3651721517
 20
54.0251802688
  0
VERTEX
  8
0
 62
7
  6
CONTINUOUS
 10
113.4072184801
 20
54.0913401189
  0
VERTEX
  8
0
 62
7
  6
CONTINUOUS
 10
113.4474377401
 20
54.1587728571
  0
VERTEX
  8
0
 62
7
  6
CONTINUOUS
 10
113.4857262614
 20
54.2273203397
  0
VERTEX
  8
0
 62
7
  6
CONTINUOUS
 10
113.5219989232
 20
54.296813713
  0
VERTEX
  8
0
 62
7
  6
CONTINUOUS
 10
113.556160898
 20
54.3670886784
  0
VERTEX
  8
0
 62
7
  6
CONTINUOUS
 10
113.5881376362
 20
54.4379734277
  0
VERTEX
  8
0
 62
7
  6
CONTINUOUS
 10
113.6178440659
 20
54.5092990894
  0
VERTEX
  8
0
 62
7
  6
CONTINUOUS
 10
113.645216927
 20
54.5808925559
  0
VERTEX
  8
0
 62
7
  6
CONTINUOUS
 10
113.6701817226
 20
54.6525820089
  0
VERTEX
  8
0
 62
7
  6
CONTINUOUS
 10
113.6926870909
 20
54.7241947082
  0
VERTEX
  8
0
 62
7
  6
CONTINUOUS
 10
113.7126698276
 20
54.7955575439
  0
VERTEX
  8
0
 62
7
  6
CONTINUOUS
 10
113.7300909642
 20
54.8664998066
  0
VERTEX
  8
0
 62
7
  6
CONTINUOUS
 10
113.7448991974
 20
54.9368487619
  0
VERTEX
  8
0
 62
7
  6
CONTINUOUS
 10
113.7570683272
 20
55.0064373753
  0
VERTEX
  8
0
 62
7
  6
CONTINUOUS
 10
113.7665594455
 20
55.0750949512
  0
VERTEX
  8
0
 62
7
  6
CONTINUOUS
 10
113.7733593731
 20
55.1426597389
  0
VERTEX
  8
0
 62
7
  6
CONTINUOUS
 10
113.7774386928
 20
55.2088857578
  0
VERTEX
  8
0
 62
7
  6
CONTINUOUS
 10
113.7788072103
 20
55.2738550016
  0
SEQEND
  0
POLYLINE
  8
0
 62
7
  6
CONTINUOUS
 66
1
 70
0
  0
VERTEX
  8
0
 62
7
  6
CONTINUOUS
 10
94.9014586328
 20
43.0713461967
  0
VERTEX
  8
0
 62
7
  6
CONTINUOUS
 10
94.9143317559
 20
43.0776826244
  0
VERTEX
  8
0
 62
7
  6
CONTINUOUS
 10
94.9698451405
 20
43.1081566412
  0
VERTEX
  8
0
 62
7
  6
CONTINUOUS
 10
95.025358525
 20
43.1417835767
  0
VERTEX
  8
0
 62
7
  6
CONTINUOUS
 10
95.0807384141
 20
43.1784712121
  0
VERTEX
  8
0
 62
7
  6
CONTINUOUS
 10
95.1358506697
 20
43.2181420667
  0
VERTEX
  8
0
 62
7
  6
CONTINUOUS
 10
95.1905637249
 20
43.2606899987
  0
VERTEX
  8
0
 62
7
  6
CONTINUOUS
 10
95.2447440905
 20
43.3060227203
  0
VERTEX
  8
0
 62
7
  6
CONTINUOUS
 10
95.2982633951
 20
43.354021189
  0
VERTEX
  8
0
 62
7
  6
CONTINUOUS
 10
95.3509900841
 20
43.4045791988
  0
VERTEX
  8
0
 62
7
  6
CONTINUOUS
 10
95.402800218
 20
43.4575659528
  0
VERTEX
  8
0
 62
7
  6
CONTINUOUS
 10
95.4535654436
 20
43.5128623494
  0
VERTEX
  8
0
 62
7
  6
CONTINUOUS
 10
95.5031674468
 20
43.5703270972
  0
VERTEX
  8
0
 62
7
  6
CONTINUOUS
 10
95.5514823121
 20
43.6298293462
  0
VERTEX
  8
0
 62
7
  6
CONTINUOUS
 10
95.5983984902
 20
43.691218671
  0
VERTEX
  8
0
 62
7
  6
CONTINUOUS
 10
95.6437976967
 20
43.7543537331
  0
VERTEX
  8
0
 62
7
  6
CONTINUOUS
 10
95.6875762213
 20
43.819076422
  0
VERTEX
  8
0
 62
7
  6
CONTINUOUS
 10
95.7296225498
 20
43.8852362721
  0
VERTEX
  8
0
 62
7
  6
CONTINUOUS
 10
95.7698418097
 20
43.9526690103
  0
VERTEX
  8
0
 62
7
  6
CONTINUOUS
 10
95.808130331
 20
44.0212164929
  0
VERTEX
  8
0
 62
7
  6
CONTINUOUS
 10
95.8444029929
 20
44.0907098663
  0
VERTEX
  8
0
 62
7
  6
CONTINUOUS
 10
95.8785649677
 20
44.1609848316
  0
VERTEX
  8
0
 62
7
  6
CONTINUOUS
 10
95.9105417059
 20
44.2318695809
  0
VERTEX
  8
0
 62
7
  6
CONTINUOUS
 10
95.9402481356
 20
44.3031952426
  0
VERTEX
  8
0
 62
7
  6
CONTINUOUS
 10
95.9676209967
 20
44.3747887091
  0
VERTEX
  8
0
 62
7
  6
CONTINUOUS
 10
95.9925857922
 20
44.4464781621
  0
VERTEX
  8
0
 62
7
  6
CONTINUOUS
 10
96.0150911606
 20
44.5180908614
  0
VERTEX
  8
0
 62
7
  6
CONTINUOUS
 10
96.0350738973
 20
44.5894536971
  0
VERTEX
  8
0
 62
7
  6
CONTINUOUS
 10
96.0524950339
 20
44.6603959598
  0
VERTEX
  8
0
 62
7
  6
CONTINUOUS
 10
96.0673032671
 20
44.7307449151
  0
VERTEX
  8
0
 62
7
  6
CONTINUOUS
 10
96.0794723969
 20
44.8003335285
  0
VERTEX
  8
0
 62
7
  6
CONTINUOUS
 10
96.0889635152
 20
44.8689911044
  0
VERTEX
  8
0
 62
7
  6
CONTINUOUS
 10
96.0957634428
 20
44.9365558921
  0
VERTEX
  8
0
 62
7
  6
CONTINUOUS
 10
96.0998427625
 20
45.0027819111
  0
VERTEX
  8
0
 62
7
  6
CONTINUOUS
 10
96.10121128
 20
45.0677511548
  0
SEQEND
  0
LINE
  8
0
 62
7
  6
CONTINUOUS
 10
112.2938979841
 20
47.9661994462
 11
111.2332333964
 21
48.578560578
  0
LINE
  8
0
 62
7
  6
CONTINUOUS
 10
111.2332333964
 20
48.578560578
 11
111.2332333964
 21
57.8050590556
  0
LINE
  8
0
 62
7
  6
CONTINUOUS
 10
97.4447174026
 20
40.6178046766
 11
111.2332333964
 21
48.578560578
  0
LINE
  8
0
 62
7
  6
CONTINUOUS
 10
97.4447174026
 20
39.3930722149
 11
112.2938979841
 21
47.9661994462
  0
POLYLINE
  8
0
 62
7
  6
CONTINUOUS
 66
1
 70
0
  0
VERTEX
  8
0
 62
7
  6
CONTINUOUS
 10
112.9081192486
 20
52.6226547314
  0
VERTEX
  8
0
 62
7
  6
CONTINUOUS
 10
112.9483282492
 20
52.6016688404
  0
VERTEX
  8
0
 62
7
  6
CONTINUOUS
 10
112.9903745777
 20
52.5840596186
  0
VERTEX
  8
0
 62
7
  6
CONTINUOUS
 10
113.0341531023
 20
52.5698877138
  0
VERTEX
  8
0
 62
7
  6
CONTINUOUS
 10
113.0795523087
 20
52.5591748269
  0
VERTEX
  8
0
 62
7
  6
CONTINUOUS
 10
113.1264684869
 20
52.5519593149
  0
VERTEX
  8
0
 62
7
  6
CONTINUOUS
 10
113.1747833522
 20
52.548245934
  0
VERTEX
  8
0
 62
7
  6
CONTINUOUS
 10
113.2243853554
 20
52.548056304
  0
VERTEX
  8
0
 62
7
  6
CONTINUOUS
 10
113.275150581
 20
52.5513781908
  0
VERTEX
  8
0
 62
7
  6
CONTINUOUS
 10
113.3269607148
 20
52.5582162692
  0
VERTEX
  8
0
 62
7
  6
CONTINUOUS
 10
113.3796874038
 20
52.5685414322
  0
VERTEX
  8
0
 62
7
  6
CONTINUOUS
 10
113.4332067084
 20
52.5823413644
  0
VERTEX
  8
0
 62
7
  6
CONTINUOUS
 10
113.487387074
 20
52.5995703667
  0
VERTEX
  8
0
 62
7
  6
CONTINUOUS
 10
113.5421001292
 20
52.6201992519
  0
VERTEX
  8
0
 62
7
  6
CONTINUOUS
 10
113.5972123849
 20
52.6441661687
  0
VERTEX
  8
0
 62
7
  6
CONTINUOUS
 10
113.652592274
 20
52.6714253394
  0
VERTEX
  8
0
 62
7
  6
CONTINUOUS
 10
113.7081056585
 20
52.7018993562
  0
VERTEX
  8
0
 62
7
  6
CONTINUOUS
 10
113.763619043
 20
52.7355262917
  0
VERTEX
  8
0
 62
7
  6
CONTINUOUS
 10
113.8189989322
 20
52.7722139271
  0
VERTEX
  8
0
 62
7
  6
CONTINUOUS
 10
113.8741111878
 20
52.8118847817
  0
VERTEX
  8
0
 62
7
  6
CONTINUOUS
 10
113.928824243
 20
52.8544327137
  0
VERTEX
  8
0
 62
7
  6
CONTINUOUS
 10
113.9830046086
 20
52.8997654353
  0
VERTEX
  8
0
 62
7
  6
CONTINUOUS
 10
114.0365239132
 20
52.947763904
  0
VERTEX
  8
0
 62
7
  6
CONTINUOUS
 10
114.0892506022
 20
52.9983219138
  0
VERTEX
  8
0
 62
7
  6
CONTINUOUS
 10
114.1410607361
 20
53.0513086678
  0
VERTEX
  8
0
 62
7
  6
CONTINUOUS
 10
114.1918259617
 20
53.1066050644
  0
VERTEX
  8
0
 62
7
  6
CONTINUOUS
 10
114.2414279649
 20
53.1640698122
  0
VERTEX
  8
0
 62
7
  6
CONTINUOUS
 10
114.2897428302
 20
53.2235720612
  0
VERTEX
  8
0
 62
7
  6
CONTINUOUS
 10
114.3366590083
 20
53.284961386
  0
VERTEX
  8
0
 62
7
  6
CONTINUOUS
 10
114.3820582148
 20
53.3480964481
  0
VERTEX
  8
0
 62
7
  6
CONTINUOUS
 10
114.4258367394
 20
53.412819137
  0
VERTEX
  8
0
 62
7
  6
CONTINUOUS
 10
114.4678830678
 20
53.4789789871
  0
VERTEX
  8
0
 62
7
  6
CONTINUOUS
 10
114.5081023278
 20
53.5464117253
  0
VERTEX
  8
0
 62
7
  6
CONTINUOUS
 10
114.5463908491
 20
53.6149592079
  0
VERTEX
  8
0
 62
7
  6
CONTINUOUS
 10
114.582663511
 20
53.6844525813
  0
VERTEX
  8
0
 62
7
  6
CONTINUOUS
 10
114.6168254857
 20
53.7547275466
  0
VERTEX
  8
0
 62
7
  6
CONTINUOUS
 10
114.6488022239
 20
53.8256122959
  0
VERTEX
  8
0
 62
7
  6
CONTINUOUS
 10
114.6785086537
 20
53.8969379576
  0
VERTEX
  8
0
 62
7
  6
CONTINUOUS
 10
114.7058815147
 20
53.9685314241
  0
VERTEX
  8
0
 62
7
  6
CONTINUOUS
 10
114.7308463103
 20
54.0402208771
  0
VERTEX
  8
0
 62
7
  6
CONTINUOUS
 10
114.7533516786
 20
54.1118335764
  0
VERTEX
  8
0
 62
7
  6
CONTINUOUS
 10
114.7733344153
 20
54.1831964121
  0
VERTEX
  8
0
 62
7
  6
CONTINUOUS
 10
114.7907555519
 20
54.2541386749
  0
VERTEX
  8
0
 62
7
  6
CONTINUOUS
 10
114.8055637851
 20
54.3244876301
  0
VERTEX
  8
0
 62
7
  6
CONTINUOUS
 10
114.8177329149
 20
54.3940762435
  0
VERTEX
  8
0
 62
7
  6
CONTINUOUS
 10
114.8272240333
 20
54.4627338194
  0
VERTEX
  8
0
 62
7
  6
CONTINUOUS
 10
114.8340239609
 20
54.5302986071
  0
VERTEX
  8
0
 62
7
  6
CONTINUOUS
 10
114.8381032806
 20
54.5965246261
  0
VERTEX
  8
0
 62
7
  6
CONTINUOUS
 10
114.8394717981
 20
54.6614938698
  0
SEQEND
  0
POLYLINE
  8
0
 62
7
  6
CONTINUOUS
 66
1
 70
0
  0
VERTEX
  8
0
 62
7
  6
CONTINUOUS
 10
112.576739519
 20
53.3551125774
  0
VERTEX
  8
0
 62
7
  6
CONTINUOUS
 10
112.5781080365
 20
53.2917235521
  0
VERTEX
  8
0
 62
7
  6
CONTINUOUS
 10
112.5821873562
 20
53.2302078977
  0
VERTEX
  8
0
 62
7
  6
CONTINUOUS
 10
112.5889872838
 20
53.1704949432
  0
VERTEX
  8
0
 62
7
  6
CONTINUOUS
 10
112.5984784021
 20
53.1127967013
  0
VERTEX
  8
0
 62
7
  6
CONTINUOUS
 10
112.6106475319
 20
53.0572597048
  0
VERTEX
  8
0
 62
7
  6
CONTINUOUS
 10
112.6254557651
 20
53.0040097223
  0
VERTEX
  8
0
 62
7
  6
CONTINUOUS
 10
112.6428769017
 20
52.9531835353
  0
VERTEX
  8
0
 62
7
  6
CONTINUOUS
 10
112.6628596384
 20
52.9048946387
  0
VERTEX
  8
0
 62
7
  6
CONTINUOUS
 10
112.6853650068
 20
52.8592687452
  0
VERTEX
  8
0
 62
7
  6
CONTINUOUS
 10
112.7103298023
 20
52.816405983
  0
VERTEX
  8
0
 62
7
  6
CONTINUOUS
 10
112.7377026634
 20
52.7764197853
  0
VERTEX
  8
0
 62
7
  6
CONTINUOUS
 10
112.7674090931
 20
52.7393959492
  0
VERTEX
  8
0
 62
7
  6
CONTINUOUS
 10
112.7993858313
 20
52.7054345363
  0
VERTEX
  8
0
 62
7
  6
CONTINUOUS
 10
112.8335478061
 20
52.6746061862
  0
VERTEX
  8
0
 62
7
  6
CONTINUOUS
 10
112.8698204679
 20
52.646996625
  0
VERTEX
  8
0
 62
7
  6
CONTINUOUS
 10
112.9081192486
 20
52.6226547314
  0
SEQEND
  0
POLYLINE
  8
0
 62
7
  6
CONTINUOUS
 66
1
 70
0
  0
VERTEX
  8
0
 62
7
  6
CONTINUOUS
 10
113.7788072103
 20
55.2738550016
  0
VERTEX
  8
0
 62
7
  6
CONTINUOUS
 10
113.7774386928
 20
55.3372440268
  0
VERTEX
  8
0
 62
7
  6
CONTINUOUS
 10
113.7764921662
 20
55.3515175355
  0
SEQEND
  0
LINE
  8
0
 62
7
  6
CONTINUOUS
 10
112.2938979841
 20
47.9661994462
 11
112.2938979841
 21
58.4174303855
  0
POLYLINE
  8
0
 62
7
  6
CONTINUOUS
 66
1
 70
0
  0
VERTEX
  8
0
 62
7
  6
CONTINUOUS
 10
114.5080920684
 20
55.3939517158
  0
VERTEX
  8
0
 62
7
  6
CONTINUOUS
 10
114.4678830678
 20
55.4149376068
  0
VERTEX
  8
0
 62
7
  6
CONTINUOUS
 10
114.4258367394
 20
55.4325468286
  0
VERTEX
  8
0
 62
7
  6
CONTINUOUS
 10
114.3820582148
 20
55.4467187334
  0
VERTEX
  8
0
 62
7
  6
CONTINUOUS
 10
114.3366590083
 20
55.4574316203
  0
VERTEX
  8
0
 62
7
  6
CONTINUOUS
 10
114.2897428302
 20
55.4646471323
  0
VERTEX
  8
0
 62
7
  6
CONTINUOUS
 10
114.2414279649
 20
55.4683605132
  0
VERTEX
  8
0
 62
7
  6
CONTINUOUS
 10
114.1918259617
 20
55.4685501432
  0
VERTEX
  8
0
 62
7
  6
CONTINUOUS
 10
114.1410607361
 20
55.4652282564
  0
VERTEX
  8
0
 62
7
  6
CONTINUOUS
 10
114.0892506022
 20
55.458390178
  0
VERTEX
  8
0
 62
7
  6
CONTINUOUS
 10
114.0365239132
 20
55.448065015
  0
VERTEX
  8
0
 62
7
  6
CONTINUOUS
 10
113.9830046086
 20
55.4342650828
  0
VERTEX
  8
0
 62
7
  6
CONTINUOUS
 10
113.928824243
 20
55.4170360805
  0
VERTEX
  8
0
 62
7
  6
CONTINUOUS
 10
113.8741111878
 20
55.3964071953
  0
VERTEX
  8
0
 62
7
  6
CONTINUOUS
 10
113.8189989322
 20
55.3724402785
  0
VERTEX
  8
0
 62
7
  6
CONTINUOUS
 10
113.763619043
 20
55.3451811078
  0
VERTEX
  8
0
 62
7
  6
CONTINUOUS
 10
113.7081056585
 20
55.314707091
  0
VERTEX
  8
0
 62
7
  6
CONTINUOUS
 10
113.652592274
 20
55.2810801555
  0
VERTEX
  8
0
 62
7
  6
CONTINUOUS
 10
113.5972123849
 20
55.2443925201
  0
VERTEX
  8
0
 62
7
  6
CONTINUOUS
 10
113.5421001292
 20
55.2047216655
  0
VERTEX
  8
0
 62
7
  6
CONTINUOUS
 10
113.487387074
 20
55.1621737335
  0
VERTEX
  8
0
 62
7
  6
CONTINUOUS
 10
113.4332067084
 20
55.1168410119
  0
VERTEX
  8
0
 62
7
  6
CONTINUOUS
 10
113.3796874038
 20
55.0688425432
  0
VERTEX
  8
0
 62
7
  6
CONTINUOUS
 10
113.3269607148
 20
55.0182845334
  0
VERTEX
  8
0
 62
7
  6
CONTINUOUS
 10
113.275150581
 20
54.9652977794
  0
VERTEX
  8
0
 62
7
  6
CONTINUOUS
 10
113.2243853554
 20
54.9100013828
  0
VERTEX
  8
0
 62
7
  6
CONTINUOUS
 10
113.1747833522
 20
54.852536635
  0
VERTEX
  8
0
 62
7
  6
CONTINUOUS
 10
113.1264684869
 20
54.793034386
  0
VERTEX
  8
0
 62
7
  6
CONTINUOUS
 10
113.0795523087
 20
54.7316450612
  0
VERTEX
  8
0
 62
7
  6
CONTINUOUS
 10
113.0341531023
 20
54.6685099991
  0
VERTEX
  8
0
 62
7
  6
CONTINUOUS
 10
112.9903745777
 20
54.6037873102
  0
VERTEX
  8
0
 62
7
  6
CONTINUOUS
 10
112.9483282492
 20
54.5376274601
  0
VERTEX
  8
0
 62
7
  6
CONTINUOUS
 10
112.9081089892
 20
54.4701947219
  0
VERTEX
  8
0
 62
7
  6
CONTINUOUS
 10
112.8698204679
 20
54.4016472393
  0
VERTEX
  8
0
 62
7
  6
CONTINUOUS
 10
112.8335478061
 20
54.3321538659
  0
VERTEX
  8
0
 62
7
  6
CONTINUOUS
 10
112.7993858313
 20
54.2618789006
  0
VERTEX
  8
0
 62
7
  6
CONTINUOUS
 10
112.7674090931
 20
54.1909941513
  0
VERTEX
  8
0
 62
7
  6
CONTINUOUS
 10
112.7377026634
 20
54.1196684896
  0
VERTEX
  8
0
 62
7
  6
CONTINUOUS
 10
112.7103298023
 20
54.0480750231
  0
VERTEX
  8
0
 62
7
  6
CONTINUOUS
 10
112.6853650068
 20
53.9763855701
  0
VERTEX
  8
0
 62
7
  6
CONTINUOUS
 10
112.6628596384
 20
53.9047728708
  0
VERTEX
  8
0
 62
7
  6
CONTINUOUS
 10
112.6428769017
 20
53.8334100351
  0
VERTEX
  8
0
 62
7
  6
CONTINUOUS
 10
112.6254557651
 20
53.7624677723
  0
VERTEX
  8
0
 62
7
  6
CONTINUOUS
 10
112.6106475319
 20
53.6921188171
  0
VERTEX
  8
0
 62
7
  6
CONTINUOUS
 10
112.5984784021
 20
53.6225302037
  0
VERTEX
  8
0
 62
7
  6
CONTINUOUS
 10
112.5889872838
 20
53.5538726278
  0
VERTEX
  8
0
 62
7
  6
CONTINUOUS
 10
112.5821873562
 20
53.4863078401
  0
VERTEX
  8
0
 62
7
  6
CONTINUOUS
 10
112.5781080365
 20
53.4200818211
  0
VERTEX
  8
0
 62
7
  6
CONTINUOUS
 10
112.576739519
 20
53.3551125774
  0
SEQEND
  0
POLYLINE
  8
0
 62
7
  6
CONTINUOUS
 66
1
 70
0
  0
VERTEX
  8
0
 62
7
  6
CONTINUOUS
 10
114.8394717981
 20
54.6614938698
  0
VERTEX
  8
0
 62
7
  6
CONTINUOUS
 10
114.8381032806
 20
54.7248828951
  0
VERTEX
  8
0
 62
7
  6
CONTINUOUS
 10
114.8340239609
 20
54.7863985495
  0
VERTEX
  8
0
 62
7
  6
CONTINUOUS
 10
114.8272240333
 20
54.846111504
  0
VERTEX
  8
0
 62
7
  6
CONTINUOUS
 10
114.8177329149
 20
54.9038097459
  0
VERTEX
  8
0
 62
7
  6
CONTINUOUS
 10
114.8055637851
 20
54.9593467424
  0
VERTEX
  8
0
 62
7
  6
CONTINUOUS
 10
114.7907555519
 20
55.0125967249
  0
VERTEX
  8
0
 62
7
  6
CONTINUOUS
 10
114.7733344153
 20
55.0634229119
  0
VERTEX
  8
0
 62
7
  6
CONTINUOUS
 10
114.7533516786
 20
55.1117118085
  0
VERTEX
  8
0
 62
7
  6
CONTINUOUS
 10
114.7308463103
 20
55.157337702
  0
VERTEX
  8
0
 62
7
  6
CONTINUOUS
 10
114.7058815147
 20
55.2002004642
  0
VERTEX
  8
0
 62
7
  6
CONTINUOUS
 10
114.6785086537
 20
55.2401866619
  0
VERTEX
  8
0
 62
7
  6
CONTINUOUS
 10
114.6488022239
 20
55.277210498
  0
VERTEX
  8
0
 62
7
  6
CONTINUOUS
 10
114.6168254857
 20
55.3111719109
  0
VERTEX
  8
0
 62
7
  6
CONTINUOUS
 10
114.582663511
 20
55.342000261
  0
VERTEX
  8
0
 62
7
  6
CONTINUOUS
 10
114.5463908491
 20
55.3696098222
  0
VERTEX
  8
0
 62
7
  6
CONTINUOUS
 10
114.5080920684
 20
55.3939517158
  0
SEQEND
  0
LINE
  8
0
 62
7
  6
CONTINUOUS
 10
116.1829690888
 20
39.6207897641
 11
116.1829690888
 21
41.7199171544
  0
LINE
  8
0
 62
7
  6
CONTINUOUS
 10
116.1829690888
 20
41.7199171544
 11
123.9681823365
 21
50.0305829835
  0
POLYLINE
  8
0
 62
7
  6
CONTINUOUS
 66
1
 70
0
  0
VERTEX
  8
0
 62
7
  6
CONTINUOUS
 10
104.8693076933
 20
35.1880106924
  0
VERTEX
  8
0
 62
7
  6
CONTINUOUS
 10
104.9299376956
 20
35.2213439643
  0
VERTEX
  8
0
 62
7
  6
CONTINUOUS
 10
104.9902937807
 20
35.2512066905
  0
VERTEX
  8
0
 62
7
  6
CONTINUOUS
 10
105.0504438077
 20
35.277626783
  0
VERTEX
  8
0
 62
7
  6
CONTINUOUS
 10
105.1101841993
 20
35.3005205056
  0
VERTEX
  8
0
 62
7
  6
CONTINUOUS
 10
105.1693780024
 20
35.3198239238
  0
VERTEX
  8
0
 62
7
  6
CONTINUOUS
 10
105.227893203
 20
35.3355055442
  0
VERTEX
  8
0
 62
7
  6
CONTINUOUS
 10
105.285594714
 20
35.3475174735
  0
VERTEX
  8
0
 62
7
  6
CONTINUOUS
 10
105.3423548007
 20
35.3558449764
  0
VERTEX
  8
0
 62
7
  6
CONTINUOUS
 10
105.3980414658
 20
35.3604566348
  0
VERTEX
  8
0
 62
7
  6
CONTINUOUS
 10
105.4525324106
 20
35.3613546052
  0
VERTEX
  8
0
 62
7
  6
CONTINUOUS
 10
105.5056999226
 20
35.3585242287
  0
VERTEX
  8
0
 62
7
  6
CONTINUOUS
 10
105.5574282472
 20
35.3519845345
  0
VERTEX
  8
0
 62
7
  6
CONTINUOUS
 10
105.6075951129
 20
35.3417377555
  0
VERTEX
  8
0
 62
7
  6
CONTINUOUS
 10
105.6560923574
 20
35.327819621
  0
VERTEX
  8
0
 62
7
  6
CONTINUOUS
 10
105.7028042581
 20
35.310249236
  0
VERTEX
  8
0
 62
7
  6
CONTINUOUS
 10
105.7476312239
 20
35.2890787061
  0
VERTEX
  8
0
 62
7
  6
CONTINUOUS
 10
105.7693045628
 20
35.2771538757
  0
SEQEND
  0
POLYLINE
  8
0
 62
7
  6
CONTINUOUS
 66
1
 70
0
  0
VERTEX
  8
0
 62
7
  6
CONTINUOUS
 10
103.8086431056
 20
32.8609631225
  0
VERTEX
  8
0
 62
7
  6
CONTINUOUS
 10
103.7480131034
 20
32.8276298507
  0
VERTEX
  8
0
 62
7
  6
CONTINUOUS
 10
103.6876570183
 20
32.7977671245
  0
VERTEX
  8
0
 62
7
  6
CONTINUOUS
 10
103.6275069912
 20
32.771347032
  0
VERTEX
  8
0
 62
7
  6
CONTINUOUS
 10
103.6120765158
 20
32.7654337627
  0
SEQEND
  0
POLYLINE
  8
0
 62
7
  6
CONTINUOUS
 66
1
 70
0
  0
VERTEX
  8
0
 62
7
  6
CONTINUOUS
 10
104.8693076933
 20
32.2486019908
  0
VERTEX
  8
0
 62
7
  6
CONTINUOUS
 10
104.8086776911
 20
32.2152687189
  0
VERTEX
  8
0
 62
7
  6
CONTINUOUS
 10
104.748321606
 20
32.1854059927
  0
VERTEX
  8
0
 62
7
  6
CONTINUOUS
 10
104.688171579
 20
32.1589859002
  0
VERTEX
  8
0
 62
7
  6
CONTINUOUS
 10
104.6284311874
 20
32.1360921776
  0
VERTEX
  8
0
 62
7
  6
CONTINUOUS
 10
104.5692373843
 20
32.1167887594
  0
VERTEX
  8
0
 62
7
  6
CONTINUOUS
 10
104.5107221837
 20
32.101107139
  0
VERTEX
  8
0
 62
7
  6
CONTINUOUS
 10
104.4530206727
 20
32.0890952097
  0
VERTEX
  8
0
 62
7
  6
CONTINUOUS
 10
104.396260586
 20
32.0807677067
  0
VERTEX
  8
0
 62
7
  6
CONTINUOUS
 10
104.3405739209
 20
32.0761560484
  0
VERTEX
  8
0
 62
7
  6
CONTINUOUS
 10
104.2860829761
 20
32.075258078
  0
VERTEX
  8
0
 62
7
  6
CONTINUOUS
 10
104.2329154641
 20
32.0780884545
  0
VERTEX
  8
0
 62
7
  6
CONTINUOUS
 10
104.1811871395
 20
32.0846281487
  0
VERTEX
  8
0
 62
7
  6
CONTINUOUS
 10
104.1310202738
 20
32.0948749277
  0
VERTEX
  8
0
 62
7
  6
CONTINUOUS
 10
104.0825230293
 20
32.1087930621
  0
VERTEX
  8
0
 62
7
  6
CONTINUOUS
 10
104.0358111286
 20
32.1263634472
  0
VERTEX
  8
0
 62
7
  6
CONTINUOUS
 10
103.9909841627
 20
32.1475339771
  0
VERTEX
  8
0
 62
7
  6
CONTINUOUS
 10
103.9693108239
 20
32.1594588075
  0
SEQEND
  0
LINE
  8
0
 62
7
  6
CONTINUOUS
 10
122.3347636406
 20
70.8281406861
 11
122.3347636406
 21
69.6033870604
  0
LINE
  8
0
 62
7
  6
CONTINUOUS
 10
122.6883243911
 20
68.5827817748
 11
122.6883243911
 21
68.9910329833
  0
LINE
  8
0
 62
7
  6
CONTINUOUS
 10
123.3954282284
 20
70.2157795543
 11
123.3954282284
 21
68.9910259286
  0
LINE
  8
0
 62
7
  6
CONTINUOUS
 10
123.9681823365
 20
50.0305829835
 11
132.0928054261
 21
71.9711729784
  0
LINE
  8
0
 62
7
  6
CONTINUOUS
 10
128.6987070075
 20
72.0528570827
 11
128.6987070075
 21
73.2776107084
  0
LINE
  8
0
 62
7
  6
CONTINUOUS
 10
129.4058108447
 20
72.8693524451
 11
129.4058108447
 21
72.4611012365
  0
LINE
  8
0
 62
7
  6
CONTINUOUS
 10
121.6276598034
 20
69.6033941151
 11
122.6883243911
 21
68.9910329833
  0
LINE
  8
0
 62
7
  6
CONTINUOUS
 10
122.3347636406
 20
69.6033870604
 11
123.3954282284
 21
68.9910259286
  0
LINE
  8
0
 62
7
  6
CONTINUOUS
 10
122.3347636406
 20
70.8281406861
 11
123.3954282284
 21
70.2157795543
  0
LINE
  8
0
 62
7
  6
CONTINUOUS
 10
132.0928054261
 20
71.9711729784
 11
132.0928054261
 21
74.4206802298
  0
LINE
  8
0
 62
7
  6
CONTINUOUS
 10
128.6987070075
 20
72.8693385917
 11
129.4058108447
 21
72.4611012365
  0
LINE
  8
0
 62
7
  6
CONTINUOUS
 10
127.6380424197
 20
73.8899718401
 11
129.4058108447
 21
72.8693524451
  0
LINE
  8
0
 62
7
  6
CONTINUOUS
 10
131.0321408384
 20
75.0330413616
 11
132.0928054261
 21
74.4206802298
  0
LINE
  8
0
 62
7
  6
CONTINUOUS
 10
67.1799950424
 20
249.7538588334
 11
67.1799950424
 21
252.7538588334
  0
LINE
  8
0
 62
7
  6
CONTINUOUS
 10
70.9799950424
 20
252.7538588334
 11
70.9799950424
 21
252.2538588334
  0
LINE
  8
0
 62
7
  6
CONTINUOUS
 10
71.9799950424
 20
252.2538588334
 11
71.9799950424
 21
253.7538588334
  0
LINE
  8
0
 62
7
  6
CONTINUOUS
 10
79.4799950424
 20
253.7538588334
 11
79.4799950424
 21
252.2538588334
  0
LINE
  8
0
 62
7
  6
CONTINUOUS
 10
80.4799950424
 20
252.2538588334
 11
80.4799950424
 21
252.7538588334
  0
LINE
  8
0
 62
7
  6
CONTINUOUS
 10
78.6699950424
 20
228.6273265598
 11
67.1799950424
 21
249.7538588334
  0
LINE
  8
0
 62
7
  6
CONTINUOUS
 10
89.6799950424
 20
223.9538588334
 11
78.6699950424
 21
228.6273265598
  0
LINE
  8
0
 62
7
  6
CONTINUOUS
 10
89.6799950424
 20
221.3829817041
 11
89.6799950424
 21
223.9538588334
  0
LINE
  8
0
 62
7
  6
CONTINUOUS
 10
95.1799950424
 20
234.3538588334
 11
95.1799950424
 21
247.1538588334
  0
LINE
  8
0
 62
7
  6
CONTINUOUS
 10
116.1799950424
 20
234.3538588334
 11
95.1799950424
 21
234.3538588334
  0
LINE
  8
0
 62
7
  6
CONTINUOUS
 10
116.1799950424
 20
247.1538588334
 11
116.1799950424
 21
234.3538588334
  0
LINE
  8
0
 62
7
  6
CONTINUOUS
 10
95.1799950424
 20
247.1538588334
 11
116.1799950424
 21
247.1538588334
  0
LINE
  8
0
 62
7
  6
CONTINUOUS
 10
121.6799950424
 20
223.9538588334
 11
121.6799950424
 21
221.3829817041
  0
LINE
  8
0
 62
7
  6
CONTINUOUS
 10
70.9799950424
 20
252.2538588334
 11
71.9799950424
 21
252.2538588334
  0
LINE
  8
0
 62
7
  6
CONTINUOUS
 10
79.4799950424
 20
252.2538588334
 11
80.4799950424
 21
252.2538588334
  0
LINE
  8
0
 62
7
  6
CONTINUOUS
 10
130.8799950424
 20
252.2538588334
 11
131.8799950424
 21
252.2538588334
  0
LINE
  8
0
 62
7
  6
CONTINUOUS
 10
139.3799950424
 20
252.2538588334
 11
140.3799950424
 21
252.2538588334
  0
LINE
  8
0
 62
7
  6
CONTINUOUS
 10
67.1799950424
 20
252.7538588334
 11
70.9799950424
 21
252.7538588334
  0
LINE
  8
0
 62
7
  6
CONTINUOUS
 10
80.4799950424
 20
252.7538588334
 11
130.8799950424
 21
252.7538588334
  0
LINE
  8
0
 62
7
  6
CONTINUOUS
 10
140.3799950424
 20
252.7538588334
 11
144.1799950424
 21
252.7538588334
  0
LINE
  8
0
 62
7
  6
CONTINUOUS
 10
132.6899950424
 20
228.6273265598
 11
121.6799950424
 21
223.9538588334
  0
LINE
  8
0
 62
7
  6
CONTINUOUS
 10
71.9799950424
 20
253.7538588334
 11
79.4799950424
 21
253.7538588334
  0
LINE
  8
0
 62
7
  6
CONTINUOUS
 10
131.8799950424
 20
253.7538588334
 11
139.3799950424
 21
253.7538588334
  0
LINE
  8
0
 62
7
  6
CONTINUOUS
 10
130.8799950424
 20
252.7538588334
 11
130.8799950424
 21
252.2538588334
  0
LINE
  8
0
 62
7
  6
CONTINUOUS
 10
131.8799950424
 20
252.2538588334
 11
131.8799950424
 21
253.7538588334
  0
LINE
  8
0
 62
7
  6
CONTINUOUS
 10
144.1799950424
 20
249.7538588334
 11
132.6899950424
 21
228.6273265598
  0
LINE
  8
0
 62
7
  6
CONTINUOUS
 10
139.3799950424
 20
253.7538588334
 11
139.3799950424
 21
252.2538588334
  0
LINE
  8
0
 62
7
  6
CONTINUOUS
 10
140.3799950424
 20
252.2538588334
 11
140.3799950424
 21
252.7538588334
  0
LINE
  8
0
 62
7
  6
CONTINUOUS
 10
144.1799950424
 20
252.7538588334
 11
144.1799950424
 21
249.7538588334
  0
LINE
  8
0
 62
7
  6
CONTINUOUS
 10
66.1116848639
 20
138.4017398269
 11
66.1116848639
 21
139.9017398269
  0
LINE
  8
0
 62
7
  6
CONTINUOUS
 10
69.9116848639
 20
138.4017398269
 11
69.9116848639
 21
139.9017398269
  0
LINE
  8
0
 62
7
  6
CONTINUOUS
 10
70.9116848639
 20
138.4017398269
 11
70.9116848639
 21
139.9017398269
  0
LINE
  8
0
 62
7
  6
CONTINUOUS
 10
78.4116848639
 20
138.4017398269
 11
78.4116848639
 21
139.9017398269
  0
LINE
  8
0
 62
7
  6
CONTINUOUS
 10
79.4116848639
 20
138.4017398269
 11
79.4116848639
 21
139.9017398269
  0
LINE
  8
0
 62
7
  6
CONTINUOUS
 10
66.1116848639
 20
138.4017398269
 11
143.1116848639
 21
138.4017398269
  0
LINE
  8
0
 62
7
  6
CONTINUOUS
 10
66.1116848639
 20
139.9017398269
 11
143.1116848639
 21
139.9017398269
  0
LINE
  8
0
 62
7
  6
CONTINUOUS
 10
129.8116848639
 20
138.4017398269
 11
129.8116848639
 21
139.9017398269
  0
LINE
  8
0
 62
7
  6
CONTINUOUS
 10
130.8116848639
 20
138.4017398269
 11
130.8116848639
 21
139.9017398269
  0
LINE
  8
0
 62
7
  6
CONTINUOUS
 10
138.3116848639
 20
138.4017398269
 11
138.3116848639
 21
139.9017398269
  0
LINE
  8
0
 62
7
  6
CONTINUOUS
 10
139.3116848639
 20
138.4017398269
 11
139.3116848639
 21
139.9017398269
  0
LINE
  8
0
 62
7
  6
CONTINUOUS
 10
143.1116848639
 20
138.4017398269
 11
143.1116848639
 21
139.9017398269
  0
ARC
  8
0
 62
7
  6
CONTINUOUS
 10
105.6799950424
 20
268.7538588334
 40
50.0
 50
251.3370751151
 51
288.6629248849
  0
CIRCLE
  8
0
 62
7
  6
CONTINUOUS
 10
105.6799950424
 20
222.1538588334
 40
1.8
  0
CIRCLE
  8
0
 62
7
  6
CONTINUOUS
 10
118.1799950424
 20
240.7538588334
 40
1.6
  0
CIRCLE
  8
0
 62
7
  6
CONTINUOUS
 10
93.1799950424
 20
240.7538588334
 40
1.6
  0
CIRCLE
  8
0
 62
7
  6
CONTINUOUS
 10
138.6799950424
 20
248.7538588334
 40
1.0
  0
ENDSEC
  0
EOF
